osu file format v10

[General]
AudioFilename: FairlyLife.mp3
AudioLeadIn: 0
PreviewTime: 42982
Countdown: 0
SampleSet: Soft
StackLeniency: 0.7
Mode: 0
LetterboxInBreaks: 1

[Editor]
DistanceSpacing: 1
BeatDivisor: 4
GridSize: 4

[Metadata]
Title:Fairly Life
TitleUnicode:Fairly Life
Artist:Hashimoto Miyuki
ArtistUnicode:Hashimoto Miyuki
Creator:mjw5150
Version:Hard
Source:FairlyLife
Tags:HOOKSOFT
BeatmapID:165966
BeatmapSetID:54620

[Difficulty]
HPDrainRate:6
CircleSize:4
OverallDifficulty:7
ApproachRate:8
SliderMultiplier:1.4
SliderTickRate:1

[Events]
//Background and Video events
0,0,"BG7589.jpg"
//Break Periods
2,63951,75565
2,122156,126334
2,144207,147360
//Storyboard Layer 0 (Background)
//Storyboard Layer 1 (Fail)
//Storyboard Layer 2 (Pass)
//Storyboard Layer 3 (Foreground)
//Storyboard Sound Samples
//Background Colour Transformations
3,100,163,162,255

[TimingPoints]
418,256.410256410256,4,2,1,70,1,0
33238,-133.333333333333,4,2,1,65,0,0
39392,-100,4,2,1,70,0,0
43494,-100,4,2,1,80,0,1
63751,-100,4,2,1,70,0,0
76315,-133.333333333333,4,2,1,65,0,0
83494,-100,4,2,1,70,0,0
92725,-133.333333333333,4,2,1,65,0,0
98366,-100,4,2,1,70,0,0
102982,-100,4,2,1,80,0,1
121956,-100,4,2,1,70,0,0
148110,-133.333333333333,4,2,1,65,0,0
149648,-100,4,2,1,65,0,0
150161,-100,4,2,1,70,0,0
154264,-100,4,2,1,80,0,1
191187,-100,4,2,1,70,0,0

[Colours]
Combo1 : 240,80,80
Combo2 : 171,252,203
Combo3 : 175,221,254
Combo4 : 249,254,186

[HitObjects]
180,288,16828,2,0,B|252:296|312:248,1,140,4|8,0:0|0:0,0:0:0
380,256,17212,2,0,B|400:112,1,140
388,48,17597,1,8,0:0:0
248,48,17853,2,0,B|109:67,1,140,0|8,0:0|0:0,0:0:0
118,136,18237,2,0,B|70:196|78:268,1,140
117,325,18623,1,8,0:0:0
213,224,18879,6,0,B|232:154,1,70
278,104,19135,1,8,0:0:0
343,131,19264,2,0,B|385:182|393:265,1,140
352,317,19648,1,8,0:0:0
211,317,19905,2,0,B|139:365|75:269|3:317,2,210,0|0|8,0:0|0:0|0:0,0:0:0
313,221,20930,6,0,B|386:94,1,140,0|8,0:0|0:0,0:0:0
129,99,21443,2,0,B|199:221,1,140,0|8,0:0|0:0,0:0:0
256,40,21956,5,0,0:0:0
364,128,22212,1,8,0:0:0
255,216,22469,1,0,0:0:0
363,304,22725,1,8,0:0:0
149,304,22982,6,0,B|150:163,1,140,0|8,0:0|0:0,0:0:0
220,164,23366,2,0,B|308:56,1,140
378,55,23751,1,8,0:0:0
156,84,24007,2,0,B|92:116|56:184,1,140,0|8,0:0|0:0,0:0:0
132,300,24520,2,0,B|272:300,1,140,2|4,0:0|0:0,0:0:0
252,76,25033,6,0,B|292:40|332:32,2,70,4|0|8,0:0|0:0|0:0,0:0:0
252,145,25417,2,0,B|292:212|368:240,1,140
416,272,25802,2,0,B|456:212|456:136,1,140,8|0,0:0|0:0,0:0:0
408,88,26187,1,0,0:0:0
344,60,26315,1,8,0:0:0
276,76,26443,2,0,B|200:76|132:120,1,140
142,113,26828,1,8,0:0:0
116,312,27084,6,0,B|256:312,1,140,0|8,0:0|0:0,0:0:0
315,274,27469,2,0,B|364:236|400:164,1,140
399,164,27853,1,8,0:0:0
301,67,28110,2,0,B|373:19|437:115|509:67,2,210,0|0|8,0:0|0:0|0:0,0:0:0
200,164,29135,6,0,B|200:260|200:260|224:296,1,140,0|8,0:0|0:0,0:0:0
364,296,29648,2,0,B|388:260|388:260|388:164,1,140,0|8,0:0|0:0,0:0:0
292,60,30161,5,0,0:0:0
156,92,30417,1,8,0:0:0
228,212,30674,1,0,0:0:0
364,180,30930,1,8,0:0:0
292,60,31187,6,0,B|80:60,2,210,0|0|8,0:0|0:0|0:0,0:0:0
228,184,32212,2,0,B|156:196|156:196|100:240,1,140,2|2,0:0|0:0,0:0:0
64,296,32597,1,0,0:0:0
128,324,32725,2,0,B|200:312|200:312|256:268,1,140,2|2,0:0|0:0,0:0:0
292,212,33110,1,0,0:0:0
340,260,33238,6,0,B|412:200|412:200|364:156|364:96,1,209.999993741512,4|8,0:0|0:0,0:0:0
348,48,33879,1,0,0:0:0
296,36,34007,1,0,0:0:0
272,80,34135,2,0,B|224:140|240:232,1,157.499995306134
304,312,34776,1,8,0:0:0
200,296,35033,1,2,0:0:0
120,228,35289,6,0,B|112:112,1,104.999996870756
200,64,35802,2,0,B|208:180,1,104.999996870756,8|0,0:0|0:0,0:0:0
288,236,36315,1,0,0:0:0
288,236,36443,1,8,0:0:0
288,236,36571,1,0,0:0:0
352,152,36828,1,8,0:0:0
452,184,37084,1,0,0:0:0
436,80,37341,6,0,B|332:80,1,104.999996870756,4|0,0:0|0:0,0:0:0
280,84,37725,1,0,0:0:0
228,92,37853,2,0,B|184:120,1,52.5000020027161,8|0,0:0|0:0,0:0:0
80,104,38238,2,0,B|100:208,1,104.999996870756,0|0,0:0|0:0,0:0:0
152,216,38623,2,0,B|188:264,1,52.4999984353781,8|0,0:0|0:0,0:0:0
224,292,38879,1,8,0:0:0
324,324,39135,1,8,0:0:0
356,188,39392,6,0,B|428:188|428:188|480:136,1,140,4|8,0:0|0:0,0:0:0
428,88,39776,2,0,B|288:88,1,140
217,88,40161,1,8,0:0:0
156,216,40417,2,0,B|84:216|84:216|32:268,1,140,0|8,0:0|0:0,0:0:0
84,316,40801,2,0,B|224:316,1,140
295,316,41186,1,8,0:0:0
256,192,41443,12,0,42469,0:0:0
216,100,42982,6,0,B|268:64|348:56,1,140
380,192,43494,2,0,B|360:272|284:296,2,140,4|8|0,0:0|0:0|0:0,0:0:0
132,192,44264,2,0,B|152:272|228:296,2,140,8|0|8,0:0|0:0|0:0,0:0:0
264,144,45033,2,0,B|244:64|168:40,1,140,0|8,0:0|0:0,0:0:0
80,144,45546,6,0,B|76:216|92:284,1,140,0|8,0:0|0:0,0:0:0
160,296,45930,2,0,B|224:300|232:348|232:348|284:316|296:256,1,210,0|8,0:0|0:0,0:0:0
432,240,46571,2,0,B|436:168|420:100,1,140,4|8,0:0|0:0,0:0:0
352,88,46955,2,0,B|288:84|280:36|280:36|228:68|216:128,1,210,4|8,0:0|0:0,0:0:0
80,92,47597,6,0,B|96:152|96:152|120:176|116:228,1,140,4|8,0:0|0:0,0:0:0
72,280,47982,2,0,B|148:308|148:308|192:248|256:248,1,210,0|8,0:0|0:0,0:0:0
432,292,48623,2,0,B|416:232|416:232|392:208|396:156,1,140,0|8,0:0|0:0,0:0:0
440,104,49008,2,0,B|364:76|364:76|320:136|256:136,1,210,0|8,0:0|0:0,0:0:0
144,52,49648,6,0,B|68:68|28:128,1,140,0|8,0:0|0:0,0:0:0
88,164,50033,2,0,B|88:256|176:256|176:356,1,210,0|8,0:0|0:0,0:0:0
224,216,50674,2,0,B|200:176|224:152|224:152|200:128|224:88,1,140,0|8,0:0|0:0,0:0:0
280,44,51059,1,0,0:0:0
336,87,51187,2,0,B|360:127|336:150|336:150|360:174|335:215,1,140,0|8,0:0|0:0,0:0:0
280,260,51571,1,8,0:0:0
232,312,51700,5,4,0:0:0
100,264,51956,1,8,0:0:0
164,140,52212,2,0,B|164:92|164:92|244:36,1,140,0|8,0:0|0:0,0:0:0
164,244,52725,2,0,B|164:292|164:292|244:348,2,140,0|8|0,0:0|0:0|0:0,0:0:0
296,192,53494,1,8,0:0:0
408,276,53751,6,0,B|464:228|464:228|464:156,1,140,0|8,0:0|0:0,0:0:0
420,108,54135,2,0,B|340:168|340:168|340:280,1,210,0|8,0:0|0:0,0:0:0
120,240,54776,2,0,B|64:208|64:168|120:136,1,140,4|8,0:0|0:0,0:0:0
184,108,55161,2,0,B|236:132|272:188|236:244|184:268,1,210,4|4,0:0|0:0,0:0:0
228,324,55674,1,0,0:0:0
297,324,55802,6,0,B|361:288|381:212,1,140,0|8,0:0|0:0,0:0:0
437,256,56187,2,0,B|497:188|457:96|377:112,1,210,0|8,0:0|0:0,0:0:0
161,164,56828,2,0,B|121:92|177:36,1,140,0|8,0:0|0:0,0:0:0
213,96,57212,2,0,B|293:84|329:180|261:240,1,210,0|8,0:0|0:0,0:0:0
429,92,57853,6,0,B|469:164|413:220,1,140,0|8,0:0|0:0,0:0:0
349,248,58237,2,0,B|345:340|441:364|489:284,1,210,0|8,0:0|0:0,0:0:0
297,168,58879,1,0,0:0:0
297,168,59392,1,2,0:0:0
256,192,59905,12,4,63751,0:0:0
192,88,76315,6,0,B|144:120|116:164,1,104.999996870756,4|0,0:0|0:0,0:0:0
119,216,76700,2,0,B|119:324,1,104.999996870756
320,88,77341,2,0,B|368:120|396:164,1,104.999996870756,4|0,0:0|0:0,0:0:0
393,216,77726,2,0,B|393:324,1,104.999996870756
208,352,78366,6,0,B|212:292|236:240,1,104.999996870756,4|0,0:0|0:0,0:0:0
284,250,78751,2,0,B|303:291|307:351,1,104.999996870756
420,240,79392,2,0,B|408:136,1,104.999996870756,8|0,0:0|0:0,0:0:0
356,128,79776,2,0,B|312:92|264:76,1,104.999996870756,0|0,0:0|0:0,0:0:0
212,76,80161,1,0,0:0:0
132,144,80417,5,4,0:0:0
212,212,80674,1,0,0:0:0
132,280,80930,2,0,B|28:280,1,104.999996870756,8|0,0:0|0:0,0:0:0
132,280,81443,6,0,B|212:348,1,104.999996870756
317,348,81956,2,0,B|397:280,1,104.999996870756,8|0,0:0|0:0,0:0:0
412,176,82469,5,4,0:0:0
264,60,82853,1,4,0:0:0
116,176,83238,1,4,0:0:0
160,308,83494,2,0,B|228:320|228:320|296:292,1,140,8|0,0:0|0:0,0:0:0
328,232,83879,2,0,B|376:196|376:196|388:152|388:152|376:108|376:108|328:72,1,210
188,72,84520,5,4,0:0:0
128,108,84648,2,0,B|132:144|120:176,1,70,0|8,0:0|0:0,0:0:0
64,220,84905,2,0,B|64:288|96:360,1,140
156,324,85289,1,8,0:0:0
276,252,85546,2,0,B|344:268|420:232,1,140,0|8,0:0|0:0,0:0:0
412,236,85930,2,0,B|428:168|392:92,1,140
395,99,86315,1,8,0:0:0
260,136,86571,5,0,0:0:0
200,100,86700,1,0,0:0:0
140,136,86828,1,8,0:0:0
104,196,86956,2,0,B|68:264|108:336,1,140
175,330,87341,1,8,0:0:0
384,252,87597,2,0,B|448:188|320:124|384:60,2,210,0|0|8,0:0|0:0|0:0,0:0:0
200,124,88623,5,0,0:0:0
200,260,88879,1,8,0:0:0
124,64,89135,1,0,0:0:0
124,320,89392,1,8,0:0:0
48,124,89648,6,0,B|48:264,1,140,0|8,0:0|0:0,0:0:0
168,192,90161,2,0,B|308:192,1,140,0|8,0:0|0:0,0:0:0
424,272,90674,2,0,B|480:248|504:192|480:136|424:112,2,210,0|0|8,0:0|0:0|0:0,0:0:0
292,320,91700,5,0,0:0:0
156,288,91956,2,0,B|92:264,1,70,2|2,0:0|0:0,0:0:0
144,216,92212,2,0,B|92:168,1,70
160,144,92469,2,0,B|132:72,2,70,0|0|4,0:0|0:0|0:0,0:0:0
256,188,92982,5,0,0:0:0
356,156,93238,1,8,0:0:0
334,258,93494,1,0,0:0:0
256,188,93751,2,0,B|256:128,1,52.5000020027161,0|8,0:0|0:0,0:0:0
256,83,94007,1,0,0:0:0
352,40,94264,1,8,0:0:0
448,84,94520,1,2,0:0:0
488,180,94776,6,0,B|488:284,2,104.999996870756,0|0|8,0:0|0:0|0:0,0:0:0
384,200,95546,1,0,0:0:0
332,292,95802,2,0,B|280:312,1,52.4999984353781,0|8,0:0|0:0,0:0:0
230,310,96059,2,0,B|180:291,2,52.4999984353781,0|0|8,0:0|0:0|0:0,0:0:0
268,212,96571,2,0,B|218:193,1,52.4999984353781,8|8,0:0|0:0,0:0:0
168,180,96828,6,0,B|112:184|64:212,2,104.999996870756,4|0|8,0:0|0:0|0:0,0:0:0
196,136,97469,1,0,0:0:0
236,104,97597,1,0,0:0:0
288,100,97725,1,0,0:0:0
384,144,97982,6,0,B|400:168|404:196,1,52.4999984353781,8|0,0:0|0:0,0:0:0
412,244,98238,1,0,0:0:0
400,296,98366,1,8,0:0:0
268,344,98623,1,8,0:0:0
156,260,98879,6,0,B|96:216|84:140,1,140,4|8,0:0|0:0,0:0:0
136,96,99264,1,0,0:0:0
204,84,99392,1,0,0:0:0
292,192,99648,1,8,0:0:0
412,264,99905,2,0,B|440:216|440:216|484:192|484:192|440:168|440:168|412:120,2,210,0|0|8,0:0|0:0|0:0,0:0:0
256,192,100930,12,0,101956,0:0:0
368,64,102469,5,0,0:0:0
368,64,102725,1,0,0:0:0
368,64,102982,6,0,B|416:96|416:96|432:144|392:168,1,140,4|8,0:0|0:0,0:0:0
256,192,103494,1,0,0:0:0
256,192,103751,1,8,0:0:0
144,320,104007,2,0,B|96:288|96:288|80:240|120:216,1,140,0|8,0:0|0:0,0:0:0
256,192,104520,1,0,0:0:0
256,192,104776,1,8,0:0:0
388,240,105033,6,0,B|340:272|340:272|324:320|364:344,1,140,0|8,0:0|0:0,0:0:0
432,328,105417,2,0,B|482:278|464:224|464:224|432:188|444:132,1,210,0|8,0:0|0:0,0:0:0
312,84,106059,2,0,B|276:100|240:88|224:52|224:52|208:88|172:100|136:84,2,210,4|4|4,0:0|0:0|0:0,0:0:0
328,152,106956,1,0,0:0:0
312,220,107084,6,0,B|336:252|312:284|312:284|336:316|312:348,1,140,0|8,0:0|0:0,0:0:0
240,352,107469,2,0,B|180:340|168:284|168:284|180:228|240:216,1,210,0|8,0:0|0:0,0:0:0
368,160,108110,2,0,B|344:128|368:96|368:96|344:64|368:32,1,140,0|8,0:0|0:0,0:0:0
440,28,108495,2,0,B|500:40|512:96|512:96|500:152|440:164,1,210,0|8,0:0|0:0,0:0:0
340,260,109135,6,0,B|372:236|404:260|404:260|436:236|468:260,1,140,0|8,0:0|0:0,0:0:0
500,324,109520,2,0,B|440:324|404:360|404:360|368:324|308:324,1,210,0|8,0:0|0:0,0:0:0
172,288,110161,2,0,B|172:268|172:268|188:252|188:252|156:252|156:252|172:236|172:236|172:148|172:148|156:132|156:132|188:132|188:132|172:116|172:116|172:96,1,280,2|0,0:0|0:0,0:0:0
304,52,110930,1,0,0:0:0
364,88,111059,1,0,0:0:0
424,124,111187,6,0,B|472:156|472:204|472:204|440:236,1,140,4|8,0:0|0:0,0:0:0
336,328,111700,2,0,B|288:296|288:248|288:248|320:216,1,140,0|8,0:0|0:0,0:0:0
88,124,112212,2,0,B|40:156|40:204|40:204|72:236,1,140,0|8,0:0|0:0,0:0:0
176,328,112725,2,0,B|224:296|224:248|224:248|192:216,1,140,0|8,0:0|0:0,0:0:0
248,88,113238,6,0,B|296:60|336:100|336:100|376:80,1,140,0|8,0:0|0:0,0:0:0
420,28,113623,2,0,B|460:63|460:63|460:112|460:112|420:148|420:148|420:208,1,210,0|8,0:0|0:0,0:0:0
264,296,114264,2,0,B|216:324|176:284|176:284|136:304,1,140,4|8,0:0|0:0,0:0:0
92,356,114649,2,0,B|52:321|52:321|52:272|52:272|92:236|92:236|92:176,1,210,4|4,0:0|0:0,0:0:0
140,132,115161,1,0,0:0:0
204,104,115289,6,0,B|276:104|332:160,1,140,0|8,0:0|0:0,0:0:0
308,224,115674,2,0,B|380:276|456:216|424:128,1,210,0|8,0:0|0:0,0:0:0
220,224,116315,2,0,B|184:304|108:296,1,140,0|8,0:0|0:0,0:0:0
80,236,116700,2,0,B|12:192|40:88|132:88,1,210,0|8,0:0|0:0,0:0:0
288,244,117341,6,0,B|340:192|352:120,1,140,0|8,0:0|0:0,0:0:0
288,92,117725,2,0,B|324:12|428:32|440:128,1,210,0|8,0:0|0:0,0:0:0
384,336,118366,2,0,B|348:308|312:336|312:336|284:312|256:336|256:336|228:312|200:336|200:336|164:308|128:336,1,280,2|0,0:0|0:0,0:0:0
256,192,119392,12,8,121956,0:0:0
160,136,127084,6,0,B|236:140|296:196,1,140,8|8,0:0|0:0,0:0:0
316,252,127469,1,8,0:0:0
380,280,127597,2,0,B|416:220|424:148,1,140,4|8,0:0|0:0,0:0:0
312,64,128110,2,0,B|244:40|172:40,1,140,0|8,0:0|0:0,0:0:0
120,84,128494,1,0,0:0:0
72,136,128623,6,0,B|64:172|68:208,1,70
132,232,128879,2,0,B|156:204|164:168,2,70,8|0|0,0:0|0:0|0:0,0:0:0
160,296,129264,2,0,B|200:292|224:264,1,70,0|8,0:0|0:0,0:0:0
252,204,129520,1,0,0:0:0
268,136,129648,6,0,B|312:112|360:156|352:212,1,140,0|8,0:0|0:0,0:0:0
288,336,130161,1,0,0:0:0
424,304,130417,1,8,0:0:0
456,168,130674,2,0,B|464:112|416:68|372:92,2,140,0|8|0,0:0|0:0|0:0,0:0:0
184,240,131443,1,8,0:0:0
288,336,131700,6,0,B|340:348|376:292|348:236,1,140,4|8,0:0|0:0,0:0:0
352,244,132084,2,0,B|278:227|246:187|266:127|334:103,1,210,0|8,0:0|0:0,0:0:0
168,48,132725,2,0,B|116:36|80:92|108:148,1,140,0|8,0:0|0:0,0:0:0
104,140,133109,2,0,B|178:157|210:197|190:257|122:281,1,210,0|8,0:0|0:0,0:0:0
268,296,133751,6,0,B|324:256|344:180,1,140,0|8,0:0|0:0,0:0:0
336,112,134135,1,0,0:0:0
288,60,134264,2,0,B|252:44|220:44,1,70,2|0,0:0|0:0,0:0:0
112,132,134520,2,0,B|148:116|180:116,1,70,8|8,0:0|0:0,0:0:0
288,204,134776,2,0,B|252:188|220:188,1,70,8|8,0:0|0:0,0:0:0
112,276,135032,2,0,B|148:260|180:260,1,70,8|8,0:0|0:0,0:0:0
288,348,135289,1,8,0:0:0
287,42,135802,6,0,B|258:70|264:104,1,70,4|0,0:0|0:0,0:0:0
172,64,136059,2,0,B|171:104|200:123,1,70,8|0,0:0|0:0,0:0:0
106,160,136315,2,0,B|134:189|168:183,1,70
128,276,136571,2,0,B|168:276|188:248,1,70,8|0,0:0|0:0,0:0:0
224,341,136828,2,0,B|253:313|247:279,1,70
340,319,137084,2,0,B|340:280|312:260,1,70,8|0,0:0|0:0,0:0:0
405,223,137341,2,0,B|377:194|343:200,1,70
383,107,137597,2,0,B|344:107|324:136,1,70,8|0,0:0|0:0,0:0:0
260,168,137853,6,0,B|192:216|132:164,1,140,0|8,0:0|0:0,0:0:0
160,100,138238,1,0,0:0:0
92,84,138366,2,0,B|32:128|64:216,1,140,0|8,0:0|0:0,0:0:0
116,256,138751,1,0,0:0:0
168,208,138879,2,0,B|228:252|196:340,1,140,0|8,0:0|0:0,0:0:0
344,208,139392,2,0,B|284:252|316:340,1,140,0|8,0:0|0:0,0:0:0
424,248,139905,6,0,B|484:204|452:116,1,140,0|8,0:0|0:0,0:0:0
324,168,140417,2,0,B|312:92|256:48,1,140,0|8,0:0|0:0,0:0:0
224,112,140802,2,0,B|152:132|128:228|208:276,1,210,0|8,0:0|0:0,0:0:0
344,252,141443,1,0,0:0:0
424,136,141700,1,8,0:0:0
304,64,141956,6,0,B|260:36|212:92|168:64,1,140,0|8,0:0|0:0,0:0:0
208,320,142469,2,0,B|252:348|300:292|344:320,1,140,2|4,0:0|0:0,0:0:0
256,192,142982,12,0,144007,0:0:0
388,128,148110,6,0,B|376:188|324:216,1,104.999996870756,2|0,0:0|0:0,0:0:0
284,188,148494,2,0,B|238:212|226:272,1,104.999996870756
140,332,149007,2,0,B|100:296|100:296|80:248,1,104.999996870756
60,200,149392,1,0,0:0:0
148,92,149648,1,2,0:0:0
196,224,149905,1,0,0:0:0
284,116,150161,6,0,B|344:160|344:160|352:224,1,140,4|8,0:0|0:0,0:0:0
352,296,150546,2,0,B|432:280|432:280|456:152,1,210,0|8,0:0|0:0,0:0:0
228,116,151187,2,0,B|168:160|168:160|160:224,1,140,0|8,0:0|0:0,0:0:0
160,296,151572,2,0,B|80:280|80:280|56:152,1,210,0|8,0:0|0:0,0:0:0
256,192,152212,12,0,153238,0:0:0
132,156,153751,5,0,0:0:0
256,92,154007,1,0,0:0:0
380,156,154264,6,0,B|384:216|412:296,1,140,4|8,0:0|0:0,0:0:0
344,312,154648,1,0,0:0:0
280,336,154776,2,0,B|212:320|212:320|168:256,1,140,0|8,0:0|0:0,0:0:0
120,96,155289,2,0,B|184:72|260:84,1,140,0|8,0:0|0:0,0:0:0
392,208,155802,2,0,B|328:184|252:196,1,140,0|8,0:0|0:0,0:0:0
120,320,156315,6,0,B|184:296|260:308,1,140,0|8,0:0|0:0,0:0:0
296,248,156700,2,0,B|344:232|356:184|408:168,1,140,0|0,0:0|0:0,0:0:0
476,152,157084,1,8,0:0:0
268,160,157341,2,0,B|220:144|208:96|156:80,1,140,4|8,0:0|0:0,0:0:0
88,100,157725,2,0,B|72:144|212:196|72:248|88:292,1,210,4|4,0:0|0:0,0:0:0
220,332,158366,6,0,B|260:340|260:340|316:324|316:324|356:332,1,140,0|8,0:0|0:0,0:0:0
420,364,158751,2,0,B|435:306|391:270|391:270|347:234|363:174,1,210,0|8,0:0|0:0,0:0:0
292,52,159392,2,0,B|252:44|252:44|196:60|196:60|156:52,1,140,0|8,0:0|0:0,0:0:0
92,20,159777,2,0,B|77:78|121:114|121:114|165:150|149:210,1,210,0|8,0:0|0:0,0:0:0
336,332,160417,6,0,B|300:320|276:280|300:240|336:228,1,140,0|8,0:0|0:0,0:0:0
384,280,160802,2,0,B|428:264|428:264|460:216|460:216|428:168|428:168|384:152,1,210,0|8,0:0|0:0,0:0:0
252,96,161443,2,0,B|200:96|200:96|192:104|192:104|192:88|192:88|184:96|184:96|132:96,1,140,0|8,0:0|0:0,0:0:0
92,152,161828,1,0,0:0:0
135,208,161956,2,0,B|184:208|184:208|192:216|192:216|192:200|192:200|200:208|200:208|252:208,1,140,0|8,0:0|0:0,0:0:0
296,152,162341,1,8,0:0:0
252,96,162469,6,0,B|304:48|304:48|376:48,1,140,4|8,0:0|0:0,0:0:0
392,116,162853,1,0,0:0:0
460,96,162982,2,0,B|460:240,1,140,0|8,0:0|0:0,0:0:0
260,288,163494,2,0,B|208:336|208:336|136:336,1,140,0|8,0:0|0:0,0:0:0
120,268,163878,1,0,0:0:0
52,288,164007,2,0,B|52:144,1,140,0|8,0:0|0:0,0:0:0
184,100,164520,6,0,B|184:68|208:56|232:68|240:92|240:92|272:92|272:92|280:68|304:56|328:68|328:100,2,210,0|0|8,0:0|0:0|0:0,0:0:0
184,169,165417,1,8,0:0:0
184,239,165546,2,0,B|200:288|200:288|184:332|184:332|144:348,1,140,4|8,0:0|0:0,0:0:0
328,239,165930,2,0,B|312:288|312:288|328:332|328:332|368:348,1,140,4|0,0:0|0:0,0:0:0
432,320,166315,1,4,0:0:0
460,256,166443,1,0,0:0:0
440,188,166571,6,0,B|396:168|372:116|400:72,1,140,0|8,0:0|0:0,0:0:0
288,64,166956,2,0,B|332:116|332:204|260:248,1,210,0|8,0:0|0:0,0:0:0
72,188,167597,2,0,B|116:168|140:116|112:72,1,140,0|8,0:0|0:0,0:0:0
224,64,167982,2,0,B|180:116|180:204|252:248,1,210,0|8,0:0|0:0,0:0:0
412,68,168623,6,0,B|284:164,1,140,0|4,0:0|0:0,0:0:0
412,316,169135,2,0,B|284:220,1,140,0|4,0:0|0:0,0:0:0
100,316,169648,2,0,B|228:220,1,140,0|4,0:0|0:0,0:0:0
100,68,170161,2,0,B|228:164,1,140,0|4,0:0|0:0,0:0:0
272,192,170546,1,0,0:0:0
320,140,170674,6,0,B|356:104|356:104|396:104|396:104|432:140,1,140,0|8,0:0|0:0,0:0:0
476,192,171059,1,0,0:0:0
430,245,171187,2,0,B|396:280|396:280|356:280|356:280|320:244,1,140,0|8,0:0|0:0,0:0:0
82,245,171700,2,0,B|116:280|116:280|156:280|156:280|192:244,1,140,0|8,0:0|0:0,0:0:0
240,192,172085,1,0,0:0:0
192,140,172213,2,0,B|156:104|156:104|116:104|116:104|81:138,1,140,0|8,0:0|0:0,0:0:0
216,316,172725,6,0,B|280:308|336:244,1,140,0|8,0:0|0:0,0:0:0
396,152,173110,2,0,B|404:116|404:72,1,70,0|0,0:0|0:0,0:0:0
292,75,173366,2,0,B|284:111|284:144,2,70,0|8|0,0:0|0:0|0:0,0:0:0
184,196,173751,2,0,B|96:176|96:72|184:52,2,210,4|4|4,0:0|0:0|0:0,0:0:0
248,168,174648,1,0,0:0:0
312,196,174776,6,0,B|380:188|380:188|424:244,1,140,0|8,0:0|0:0,0:0:0
396,308,175161,2,0,B|328:316|328:316|284:260|284:260|212:260,1,210,0|8,0:0|0:0,0:0:0
73,260,175802,2,0,B|56:192|56:192|90:128,1,140,0|8,0:0|0:0,0:0:0
159,130,176187,2,0,B|139:58|139:58|71:42|71:42|15:82,1,210,0|8,0:0|0:0,0:0:0
396,96,176828,6,0,B|336:60|336:60|276:96,1,140,0|8,0:0|0:0,0:0:0
260,164,177212,2,0,B|268:232|268:232|340:256|340:256|392:212,1,210,0|8,0:0|0:0,0:0:0
124,304,177853,2,0,B|98:332|72:351,1,70,0|0,0:0|0:0,0:0:0
107,222,178110,2,0,B|95:186|91:153,1,70,8|0,0:0|0:0,0:0:0
187,249,178366,2,0,B|224:256|257:271,1,70
304,320,178623,1,8,0:0:0
372,304,178751,1,0,0:0:0
432,268,178879,6,0,B|480:248|492:196|452:148,1,140,4|8,0:0|0:0,0:0:0
392,120,179264,1,0,0:0:0
428,60,179392,2,0,B|392:16|332:24|312:68,1,140,0|8,0:0|0:0,0:0:0
276,128,179776,1,0,0:0:0
328,176,179905,2,0,B|300:228|248:240|208:200,1,140,0|8,0:0|0:0,0:0:0
184,140,180289,1,0,0:0:0
124,104,180417,2,0,B|68:116|56:176|84:216,1,140,0|8,0:0|0:0,0:0:0
140,256,180802,1,0,0:0:0
104,316,180930,6,0,B|140:360|192:356|224:304,1,140,0|8,0:0|0:0,0:0:0
248,244,181315,2,0,B|280:224|316:240,1,70
348,300,181571,2,0,B|380:320|416:304,1,70,0|8,0:0|0:0,0:0:0
452,244,181828,1,0,0:0:0
436,176,181956,2,0,B|452:84|376:36|308:72,2,210,4|4|8,0:0|0:0|0:0,0:0:0
368,192,182853,1,0,0:0:0
312,236,182982,6,0,B|244:288|176:252,1,140,4|8,0:0|0:0,0:0:0
144,196,183366,2,0,B|80:224|80:224|84:292|84:292|144:332,1,210,0|8,0:0|0:0,0:0:0
280,84,184007,2,0,B|348:72|348:72|392:136,1,140,0|8,0:0|0:0,0:0:0
348,188,184392,2,0,B|400:264|484:236|488:136,1,210,0|8,0:0|0:0,0:0:0
288,340,185033,6,0,B|208:348|168:280,1,140,0|8,0:0|0:0,0:0:0
216,228,185417,2,0,B|192:144|120:112|60:180,1,210,0|8,0:0|0:0,0:0:0
380,72,186059,2,0,B|320:40|320:40|256:72|256:72|192:40|192:40|132:72,1,280,0|2,0:0|0:0,0:0:0
256,192,187084,12,4,191187,0:0:0
