osu file format v5

[General]
AudioFilename: Clossy MMM.mp3
AudioLeadIn: 1000
PreviewTime: -1
Countdown: 1
SampleSet: Soft
StackLeniency: 0.7
Mode: 0
LetterboxInBreaks: 1
EditorDistanceSpacing: 0.800000011920929

[Metadata]
Title:Clossy MMM
Artist:Hashimoto Miyuki
Creator:yuky2000
Version:Normal
Source:
Tags:

[Difficulty]
HPDrainRate:5
CircleSize:5
OverallDifficulty:7
SliderMultiplier:2
SliderTickRate:2

[Events]
//Background and Video events
0,0,"saki.jpg"
//Break Periods
2,10500,20200
2,86850,97000
2,163650,189400
//Storyboard Layer 0 (Background)
//Storyboard Layer 1 (Failing)
//Storyboard Layer 2 (Passing)
//Storyboard Layer 3 (Foreground)
//Storyboard Sound Samples
//Background Colour Transformations
3,100,128,128,255

[TimingPoints]
10000,1200,4,2,0,100,1,0

[Colours]
Combo1 : 128,128,255
Combo2 : 5,240,5
Combo3 : 5,5,240
Combo4 : 240,5,5
Combo5 : 255,150,0

[HitObjects]
64,352,3100,1,0
64,256,3700,1,0
128,192,4300,1,0
160,224,4450,1,0
192,192,4600,1,0
224,224,5050,1,0
224,320,5800,2,0,B|416:320,1,175
399,320,7000,1,0
384,192,8050,5,0
384,192,8200,1,0
384,192,8350,1,0
384,192,8500,1,0
384,96,9400,5,0
352,64,9700,1,0
320,96,10000,1,0
288,64,10300,1,0
64,288,21400,5,0
96,256,21700,1,0
64,224,22000,1,0
96,192,22300,1,0
64,160,22600,1,0
64,160,22750,1,0
64,160,22900,1,0
96,128,23200,1,0
64,96,23350,1,0
96,64,23500,1,0
128,64,23950,6,0,B|448:64|416:64,1,275
384,160,26350,5,0
384,160,26500,1,0
384,224,26950,1,0
384,224,27100,1,0
384,288,27700,1,0
384,288,27850,1,0
352,256,28300,1,0
352,256,28450,1,0
256,288,28900,5,0
192,224,29200,1,0
256,224,29350,1,0
192,288,29650,1,0
128,256,29950,1,0
64,256,30250,1,0
64,256,30400,1,0
384,320,32350,5,0
416,288,32650,1,0
384,256,32950,1,0
416,224,33250,1,0
384,192,33550,1,0
384,192,33700,1,0
384,192,33850,1,0
416,160,34150,1,0
384,128,34300,1,0
416,96,34450,1,0
352,96,35050,6,0,B|160:96|96:192|128:192,1,250
160,224,37150,5,0
192,288,37600,1,0
224,224,37750,1,0
256,288,38200,1,0
256,192,38650,12,0,41650
64,288,42100,5,0
64,192,42400,1,0
160,256,43300,5,0
192,288,43600,1,0
224,256,43900,1,0
256,256,44200,1,0
288,256,44350,1,0
320,224,44650,1,0
320,192,44800,1,0
352,160,45100,1,0
384,128,45550,1,0
448,128,45850,1,0
448,64,46300,1,0
384,64,46750,1,0
384,64,46900,1,0
64,64,47800,5,0
96,64,47950,1,0
128,96,48100,1,0
160,128,48700,1,0
192,128,48850,1,0
224,192,49300,5,0
256,192,49450,1,0
288,224,49600,1,0
320,256,50050,1,0
352,256,50200,1,0
416,288,50650,5,0
416,288,50800,1,0
416,288,50950,2,0,L|352:160|192:64,1,325
160,96,53200,5,0
160,96,53350,1,0
160,96,53500,1,0
160,96,53650,1,0
128,160,53950,1,0
192,160,54250,1,0
160,224,54550,1,0
160,224,54700,1,0
160,224,54850,1,0
160,224,55000,1,0
160,224,55450,1,0
160,224,55600,1,0
128,160,56200,5,0
192,128,56650,1,0
224,160,56950,1,0
192,192,57250,1,0
224,160,58000,2,0,L|256:160,6,25
192,96,59350,5,0
160,128,59500,1,0
128,160,59800,1,0
128,224,60400,1,0
128,288,60550,1,0
160,320,61000,1,0
192,352,61450,1,0
224,352,61750,1,0
256,352,62200,1,0
288,320,62650,1,0
320,288,62800,1,0
352,256,63400,1,0
256,192,64000,12,0,66400
160,128,67150,5,0
224,96,67600,1,0
256,128,67900,1,0
224,160,68200,1,0
224,160,68950,2,0,L|256:160,6,25
192,96,70300,5,0
160,128,70450,1,0
128,160,70750,1,0
128,224,71350,1,0
128,288,71500,1,0
160,320,71950,1,0
192,352,72400,1,0
224,352,72700,1,0
256,352,73150,1,0
288,320,73600,1,0
320,288,73750,1,0
352,256,74350,1,0
256,192,74950,12,0,79750
64,64,80950,6,0,L|160:64,1,75
128,160,81700,2,0,L|384:160,1,250
416,224,83950,5,0
352,288,84400,1,0
256,352,84550,1,0
160,352,84850,1,0
96,288,85300,1,0
96,128,85750,1,0
192,64,86200,1,0
288,64,86500,1,0
288,64,86650,1,0
448,288,98200,5,0
416,256,98500,1,0
448,224,98800,1,0
416,192,99100,1,0
448,160,99400,1,0
448,160,99550,1,0
448,160,99700,1,0
416,128,100000,1,0
448,96,100150,1,0
416,64,100300,1,0
384,64,100750,6,0,B|64:64|96:64,1,275
128,160,103150,5,0
128,160,103300,1,0
128,224,103750,1,0
128,224,103900,1,0
128,288,104500,1,0
128,288,104650,1,0
160,256,105100,1,0
160,256,105250,1,0
256,288,105700,5,0
320,224,106000,1,0
256,224,106150,1,0
320,288,106450,1,0
384,256,106750,1,0
448,256,107050,1,0
448,256,107200,1,0
128,320,109150,5,0
96,288,109450,1,0
128,256,109750,1,0
96,224,110050,1,0
128,192,110350,1,0
128,192,110500,1,0
128,192,110650,1,0
96,160,110950,1,0
128,128,111100,1,0
96,96,111250,1,0
160,96,111850,6,0,B|352:96|416:192|384:192,1,250
352,224,113950,5,0
320,288,114400,1,0
288,224,114550,1,0
256,288,115000,1,0
256,192,115450,12,0,118450
448,288,118900,5,0
448,192,119200,1,0
352,256,120100,5,0
320,288,120400,1,0
288,256,120700,1,0
256,256,121000,1,0
224,256,121150,1,0
192,224,121450,1,0
192,192,121600,1,0
160,160,121900,1,0
128,128,122350,1,0
64,128,122650,1,0
64,64,123100,1,0
128,64,123550,1,0
128,64,123700,1,0
448,64,124600,5,0
416,64,124750,1,0
384,96,124900,1,0
352,128,125500,1,0
320,128,125650,1,0
288,192,126100,5,0
256,192,126250,1,0
224,224,126400,1,0
192,256,126850,1,0
160,256,127000,1,0
96,288,127450,5,0
96,288,127600,1,0
96,288,127750,2,0,L|160:160|320:64,1,325
352,96,130000,5,0
352,96,130150,1,0
352,96,130300,1,0
352,96,130450,1,0
384,160,130750,1,0
320,160,131050,1,0
352,224,131350,1,0
352,224,131500,1,0
352,224,131650,1,0
352,224,131800,1,0
352,224,132250,1,0
352,224,132400,1,0
384,160,133000,5,0
320,128,133450,1,0
288,160,133750,1,0
320,192,134050,1,0
288,160,134800,2,0,L|256:160,6,25
320,96,136150,5,0
352,128,136300,1,0
384,160,136600,1,0
384,224,137200,1,0
384,288,137350,1,0
352,320,137800,1,0
320,352,138250,1,0
288,352,138550,1,0
256,352,139000,1,0
224,320,139450,1,0
192,288,139600,1,0
160,256,140200,1,0
256,192,140800,12,0,143200
352,128,143950,5,0
288,96,144400,1,0
256,128,144700,1,0
288,160,145000,1,0
288,160,145750,2,0,L|256:160,6,25
320,96,147100,5,0
352,128,147250,1,0
384,160,147550,1,0
384,224,148150,1,0
384,288,148300,1,0
352,320,148750,1,0
320,352,149200,1,0
288,352,149500,1,0
256,352,149950,1,0
224,320,150400,1,0
192,288,150550,1,0
160,256,151150,1,0
256,192,151750,12,0,156550
448,64,157600,6,0,L|352:64,1,75
384,160,158350,2,0,L|128:160,1,250
96,224,160750,5,0
160,288,161200,1,0
256,352,161350,1,0
352,352,161650,1,0
416,288,162100,1,0
416,128,162550,1,0
320,64,163000,1,0
224,64,163300,1,0
224,64,163450,1,0
128,224,190600,5,0
192,256,191050,1,0
224,224,191350,1,0
192,192,191650,1,0
224,224,192400,2,0,L|256:224,6,25
192,288,193750,5,0
160,256,193900,1,0
128,224,194200,1,0
128,160,194800,1,0
128,96,194950,1,0
160,64,195400,1,0
192,32,195850,1,0
224,32,196150,1,0
256,32,196600,1,0
288,64,197050,1,0
320,96,197200,1,0
352,128,197800,1,0
256,192,198400,12,0,200800
160,256,201550,5,0
224,288,202000,1,0
256,256,202300,1,0
224,224,202600,1,0
224,224,203350,2,0,L|256:224,6,25
192,288,204700,5,0
160,256,204850,1,0
128,224,205150,1,0
128,160,205750,1,0
128,96,205900,1,0
160,64,206350,1,0
192,32,206800,1,0
224,32,207100,1,0
256,32,207550,1,0
288,64,208000,1,0
320,96,208150,1,0
352,128,208750,1,0
256,192,209350,12,0,214150
64,320,215350,6,0,L|160:320,1,75
128,224,216100,2,0,L|384:224,1,250
416,160,218350,5,0
352,96,218800,1,0
256,32,218950,1,0
160,32,219250,1,0
96,96,219700,1,0
96,256,220150,1,0
192,320,220600,1,0
288,320,220900,1,0
288,320,221050,1,0
