osu file format v9

[General]
AudioFilename: Aozora no Yakusoku.mp3
AudioLeadIn: 0
PreviewTime: 58769
Countdown: 0
SampleSet: Normal
StackLeniency: 0.5
Mode: 0
LetterboxInBreaks: 1

[Editor]
Bookmarks: 23132,35361,47591,59820,72049,84279,99565
DistanceSpacing: 1
BeatDivisor: 2
GridSize: 4

[Metadata]
Title:Aozora no Yakusoku (Short Ver.)
Artist:Hashimoto Miyuki
Creator:ykcarrot
Version:Easy
Source:Hatsukoi Sacrament
Tags:Purple Software

[Difficulty]
HPDrainRate:2
CircleSize:3
OverallDifficulty:2
ApproachRate:2
SliderMultiplier:0.799999999999999
SliderTickRate:1

[Events]
//Background and Video events
Video,0,"hassaku_demo.avi"
0,0,"BG E.jpg"
//Break Periods
2,23332,27686
//Storyboard Layer 0 (Background)
//Storyboard Layer 1 (Fail)
//Storyboard Layer 2 (Pass)
//Storyboard Layer 3 (Foreground)
//Storyboard Sound Samples
//Background Colour Transformations
3,100,128,128,255

[TimingPoints]
6317,382.165605095541,4,1,1,70,1,0
22750,-100,4,2,1,80,0,0
45680,-100,4,1,1,70,0,0
59820,-100,4,1,1,70,0,1
84278,-100,4,1,1,70,0,0
95648,-100,4,1,1,65,0,0
96125,-100,4,1,1,70,0,0
99565,-100,4,2,1,40,0,0

[Colours]
Combo1 : 0,0,160
Combo2 : 255,128,0
Combo3 : 128,0,255
Combo4 : 90,46,46

[HitObjects]
104,316,7845,2,0,B|256:240|256:400|408:316,1,320,4|0
468,264,9756,1,8
504,192,10138,1,0
468,120,10520,1,8
408,68,10902,6,0,B|256:-8|256:152|104:68,1,320
44,120,12813,2,0,B|48:160|76:192|76:192|44:224|44:264,1,160,8|8
124,264,13960,6,0,B|172:364|340:364|388:264,1,320,4|0
424,192,15871,1,8
388,120,16253,1,0
336,60,16635,1,8
256,48,17017,6,0,B|256:136,1,79.9999999999999,0|8
196,180,17781,2,0,B|128:180|84:228,2,120,8|8|8
256,232,19310,2,0,B|256:364,2,120,0|0|8
316,180,20839,2,0,B|384:180|428:228,1,120,0|6
476,284,21794,5,10
424,344,22176,1,10
424,344,22367,1,10
256,344,23132,5,4
96,340,29246,6,0,B|64:312|56:272|56:272|64:232|96:204,1,160,8|8
188,72,30775,2,0,B|216:40|256:32|256:32|296:40|324:72,1,160,8|8
416,204,32304,2,0,B|448:232|456:272|456:272|448:312|416:340,1,160,8|8
256,339,33832,2,0,B|256:175,2,160,8|8|4
416,64,36890,6,0,B|412:132|344:144|344:144|344:268,1,240,8|10
344,348,38418,2,0,B|320:348|280:348|256:280|256:280|232:348|192:348|168:348,1,240,8|8
168,268,39947,2,0,B|168:144|168:144|100:132|96:64,1,240,8|10
176,64,41476,6,0,B|348:64,2,160,8|8|8
96,64,43387,1,8
96,144,43769,2,0,B|96:184|124:216,1,79.9999999999999,8|10
172,280,44533,2,0,B|220:352|312:336,1,160,8|8
432,320,45871,5,2
496,272,46253,1,2
496,272,46444,1,2
496,192,46826,2,0,B|496:100,2,79.9999999999999,0|0|4
416,192,47973,5,8
256,300,48737,1,8
96,192,49501,1,8
256,84,50266,1,8
256,164,50648,6,0,B|256:248,1,79.9999999999999,0|8
332,272,51412,2,0,B|308:344|204:344|180:272,2,200,0|2|10
332,192,53705,5,4
256,164,54087,1,8
180,192,54469,2,0,B|108:200|100:272,2,120,0|0|8
256,220,55998,1,0
332,192,56380,1,8
256,192,56762,12,10,58673
228,116,59820,5,4
156,152,60202,1,8
156,232,60584,1,0
228,268,60966,2,0,B|192:324|124:308,2,120,8|0|0
256,192,62495,1,8
284,116,62877,5,0
356,152,63259,1,8
356,232,63641,1,0
284,268,64023,2,0,B|320:324|388:308,2,120,8|2|2
256,192,65552,1,10
176,192,65934,6,0,B|100:204|100:324|176:336|176:336|216:336,1,240,4|8
296,336,67463,2,0,B|336:336|336:336|412:324|412:204|336:192,1,240,0|8
256,192,68992,2,0,B|256:60,2,120,0|2|10
176,192,70520,5,0
216,260,70902,1,8
296,260,71285,1,8
336,192,71667,1,0
256,192,72049,6,0,B|256:104,1,79.9999999999999,4|8
256,32,72813,1,0
324,72,73195,2,0,B|452:72,2,120,8|0|0
256,112,74724,1,8
256,192,75106,6,0,B|256:288,1,79.9999999999999,0|8
256,352,75871,1,0
188,312,76253,2,0,B|56:312,2,120,8|2|2
256,272,77781,1,10
324,232,78164,6,0,B|324:124|216:132|216:28,1,240,4|8
296,28,79692,2,0,B|296:132|188:124|188:232,1,240,0|8
256,272,81221,5,0
324,232,81603,1,8
392,192,81985,2,0,B|516:192,2,120,8|8|0
324,152,83514,1,0
256,112,83896,1,0
176,112,84278,6,0,B|108:112|108:112|20:112|-8:192|20:272|108:272|108:272|336:272,1,559.999999999999,4|8
416,272,87336,2,0,B|492:264|520:192|492:112|404:112|404:112|256:112,1,399.999999999999,0|8
176,112,89629,5,0
128,176,90011,1,8
128,256,90393,2,0,B|180:364|332:364|384:256,2,320,4|0|4
204,116,94215,6,8,B|228:84|284:84|308:116,2,120
256,176,95743,2,0,B|256:268,2,79.9999999999999,8|0|4
256,192,96603,12,0,99565
