osu file format v12

[General]
AudioFilename: ImoCho.mp3
AudioLeadIn: 1000
PreviewTime: 60963
Countdown: 0
SampleSet: Normal
StackLeniency: 0.3
Mode: 0
LetterboxInBreaks: 0
WidescreenStoryboard: 0

[Editor]
Bookmarks: 87063
DistanceSpacing: 1.4
BeatDivisor: 2
GridSize: 4

[Metadata]
Title:BINKAN Attention (TV Size)
TitleUnicode:BINKAN♡あてんしょん (TV Size)
Artist:Hashimoto Chinami, Ogura Yui & Kanemoto Hisako
ArtistUnicode:橋本ちなみ, 小倉唯 & 金元寿子
Creator:Momochikun
Version:Normal
Source:最近、妹のようすがちょっとおかしいんだが。
Tags:Recently, My Little Sister is Unusual Saikin, Imouto no Yousu ga Chotto Okashiin daga. opening laurier imocho
BeatmapID:357464
BeatmapSetID:143269

[Difficulty]
HPDrainRate:3
CircleSize:4
OverallDifficulty:3
ApproachRate:5
SliderMultiplier:1.07
SliderTickRate:1

[Events]
//Background and Video events
Video,0,"video.avi"
0,0,"BG.jpg",0,0
//Break Periods
2,11834,19863
//Storyboard Layer 0 (Background)
//Storyboard Layer 1 (Fail)
//Storyboard Layer 2 (Pass)
//Storyboard Layer 3 (Foreground)
//Storyboard Sound Samples
//Background Colour Transformations
3,100,255,128,255

[TimingPoints]
663,342.857142857143,4,1,1,55,1,0
834,-100,4,2,1,30,0,0
1005,-100,4,1,1,45,0,0
4606,-100,4,2,1,55,0,0
4777,-100,4,1,1,50,0,0
5291,-100,4,2,1,45,0,0
5377,-100,4,1,1,60,0,0
5463,-100,4,1,1,50,0,0
5977,-100,4,2,1,5,0,0
6148,-100,4,1,1,55,0,0
9234,-100,4,1,1,45,0,0
9406,-100,4,1,1,35,0,0
9577,-100,4,1,1,45,0,0
10263,-100,4,1,1,55,0,0
10606,-100,4,1,1,50,0,0
11634,-100,4,1,1,50,0,1
11720,-100,4,1,1,50,0,0
21063,-100,4,2,1,55,0,0
21148,-100,4,2,1,5,0,0
22263,-100,4,2,1,50,0,0
22605,-100,4,1,1,45,0,0
24834,-100,4,2,1,35,0,0
25348,-100,4,1,1,45,0,0
27405,-100,4,1,1,50,0,0
28263,-100,4,1,1,55,0,0
28605,-100,4,2,1,45,0,0
28948,-100,4,1,1,55,0,0
29463,-100,4,2,1,45,0,0
29634,-100,4,1,1,55,0,0
29977,-100,4,2,1,45,0,0
30320,-100,4,1,1,55,0,0
31348,-100,4,2,1,45,0,0
31691,-100,4,1,1,55,0,0
32205,-100,4,2,1,45,0,0
33577,-100,4,1,1,45,0,0
41120,-100,4,2,1,45,0,0
41291,-100,4,1,1,50,0,0
42491,-100,4,2,1,40,0,0
42663,-100,4,1,1,50,0,0
43348,-100,4,1,1,30,0,0
43777,-100,4,1,1,40,0,0
44548,-100,4,2,1,40,0,0
45405,-100,4,1,1,45,0,0
47291,-100,4,1,1,40,0,0
48148,-100,4,1,1,45,0,0
49863,-100,4,1,1,50,0,0
53463,-100,4,1,1,55,0,0
55520,-100,4,1,1,55,0,0
55863,-100,4,1,1,50,0,0
62377,-100,4,1,1,60,0,1
63577,-100,4,2,1,50,0,1
63748,-100,4,1,1,60,0,1
64605,-100,4,2,1,50,0,1
64777,-100,4,1,1,60,0,1
64948,-100,4,2,1,50,0,1
65120,-100,4,1,1,60,0,1
65634,-100,4,2,1,50,0,1
65805,-100,4,1,1,60,0,1
65977,-100,4,2,1,50,0,1
66148,-100,4,1,1,60,0,1
66320,-100,4,2,1,50,0,1
66834,-100,4,1,1,60,0,1
68377,-100,4,2,1,50,0,1
68548,-100,4,1,1,60,0,1
69405,-100,4,2,1,50,0,1
69577,-100,4,1,1,60,0,1
69748,-100,4,2,1,50,0,1
69920,-100,4,1,2,60,0,1
70091,-100,4,2,1,50,0,1
70263,-100,4,1,1,60,0,1
70434,-100,4,2,1,50,0,1
70605,-100,4,1,1,50,0,1
72491,-100,4,2,1,45,0,1
72663,-100,4,1,1,60,0,1
84834,-100,4,2,1,50,0,1
85005,-100,4,1,1,60,0,1
85520,-100,4,2,1,50,0,1
85605,-100,4,1,1,60,0,1
86891,-100,4,2,1,50,0,1
87063,-100,4,1,1,55,0,0
87063,-100,4,1,1,60,0,0
88263,-100,4,1,1,60,0,1
88348,-100,4,1,1,60,0,0

[Colours]
Combo1 : 0,64,128
Combo2 : 255,128,192
Combo3 : 255,159,64
Combo4 : 255,255,128

[HitObjects]
76,138,663,2,0,P|115:131|176:161,1,107,4|0,0:0|0:0,0:0:0:0:
291,257,1348,2,0,P|330:263|391:234,1,107
350,87,2034,6,0,P|311:81|250:111,1,107
165,235,2720,2,0,L|151:351,2,107
38,151,3748,6,0,L|24:43,1,107
98,21,4263,2,0,L|106:85,1,53.5,8|0,0:0|0:0,0:0:0:0:
168,116,4605,6,0,P|196:121|277:86,1,107,4|2,0:0|0:0,0:0:0:0:
335,60,5120,2,0,L|453:50,1,107,8|0,0:0|0:0,0:0:0:0:
503,189,5805,1,10,0:0:0:0:
388,287,6148,6,0,P|358:297|278:266,1,107,4|0,0:0|0:0,0:0:0:0:
216,140,6834,2,0,P|167:117|115:128,1,107,0|8,0:0|0:0,0:0:0:0:
29,252,7520,6,0,P|77:274|129:263,2,107
156,171,8548,2,0,L|262:160,1,107,8|0,0:0|0:0,0:0:0:0:
320,112,9063,6,0,P|325:78|322:56,2,53.5,2|8|0,2:0|0:0|0:0,0:0:0:0:
262,161,9577,2,0,L|275:275,1,107,0|8,0:0|0:0,0:0:0:0:
328,320,10091,1,0,1:0:0:0:
261,357,10263,6,0,P|203:358|152:325,2,107,4|2|2,0:0|0:0|0:0,0:0:0:0:
389,277,11291,1,2,0:0:0:0:
336,133,11634,1,4,0:0:0:0:
256,192,21063,12,4,22605,0:0:0:0:
394,113,23291,6,0,L|268:119,1,107
152,189,23977,2,0,P|131:127|143:83,2,107
214,232,24834,2,0,P|235:294|223:338,1,107,2|2,0:1|0:1,0:0:0:0:
293,364,25348,6,0,P|346:354|394:375,1,107,0|0,0:1|0:1,0:0:0:0:
497,263,26034,2,0,P|444:272|394:251,1,107,0|0,0:1|0:1,0:0:0:0:
291,140,26720,2,0,L|310:20,1,107
189,125,27405,2,0,L|196:179,2,53.5,0|8|0,0:0|0:0|0:0,0:0:0:0:
156,57,27920,6,0,P|107:35|39:42,1,107,4|0,0:0|0:0,0:0:0:0:
48,112,28434,2,0,L|64:235,1,107,8|2,0:0|0:0,0:0:0:0:
152,340,29120,1,8,0:0:0:0:
224,364,29291,2,0,P|286:373|332:338,1,107,4|0,0:0|0:0,0:0:0:0:
372,296,29805,1,8,0:0:0:0:
321,151,30148,2,0,P|323:124|336:95,2,53.5,8|0|8,0:0|0:0|0:0,0:0:0:0:
372,205,30663,6,0,P|312:223|256:189,1,107,4|0,0:0|0:0,0:0:0:0:
212,168,31177,2,0,L|78:154,1,107,8|2,0:0|0:0,0:0:0:0:
188,32,31863,1,8,0:0:0:0:
188,32,32034,2,0,P|220:24|303:52,1,107,4|0,0:0|0:0,0:0:0:0:
316,112,32548,2,0,L|304:176,1,53.5,8|2,1:1|0:0,0:0:0:0:
96,248,33234,1,8,1:0:0:0:
205,347,33577,6,0,P|255:368|307:359,2,107,4|0|0,0:0|0:0|0:0,0:0:0:0:
272,212,34605,1,0,0:0:0:0:
156,116,34948,2,0,L|20:103,2,107
296,56,35977,2,0,L|403:65,1,107
492,188,36663,5,0,0:0:0:0:
360,260,37005,2,0,L|252:269,1,107
120,336,37691,2,0,P|96:284|111:228,2,107
196,348,38548,2,0,P|228:336|252:316,1,53.5,8|0,0:0|0:0,0:0:0:0:
240,248,38891,6,0,L|224:135,1,107,4|0,0:0|0:0,0:0:0:0:
184,76,39405,1,8,0:0:0:0:
452,215,40091,1,8,0:0:0:0:
184,76,40777,1,0,0:0:0:0:
113,208,41120,2,0,L|80:249,2,53.5,2|0|8,0:0|0:0|0:0,0:0:0:0:
163,263,41634,6,0,P|218:300|276:296,1,107,4|0,0:0|0:0,0:0:0:0:
330,284,42148,1,8,0:0:0:0:
455,206,42491,2,0,P|413:174|361:161,1,107,2|8,0:0|0:0,0:0:0:0:
296,124,43005,6,0,P|292:59|312:11,2,107,4|2|4,0:0|0:0|0:0,0:0:0:0:
362,161,43863,2,0,P|366:225|346:273,1,107,10|8,0:0|0:0,0:0:0:0:
235,359,44548,5,2,0:3:0:0:
468,68,45405,2,0,L|416:80,1,53.5,8|8,0:0|0:0,0:0:0:0:
352,116,45748,2,0,P|296:112|240:75,1,107,4|0,0:0|0:0,0:0:0:0:
180,64,46263,2,0,L|68:55,2,107,10|2|10,0:0|0:0|0:0,0:0:0:0:
328,32,47291,5,4,0:0:0:0:
156,364,48148,2,0,L|196:304,1,53.5,8|8,0:0|0:0,0:0:0:0:
244,272,48491,2,0,P|284:268|356:296,1,107,6|2,0:0|0:0,0:0:0:0:
396,232,49005,2,0,L|392:177,1,53.5,8|4,0:0|0:0,0:0:0:0:
124,40,49863,6,0,B|88:53|40:37|40:37|-1:64|12:105,1,160.5,4|8,0:0|0:0,0:0:0:0:
76,236,50720,2,0,P|99:180|95:120,2,107,0|8|0,0:0|0:0|0:0,0:0:0:0:
0,364,51748,1,8,0:0:0:0:
143,332,52091,2,0,L|272:320,1,107,0|8,0:0|0:0,0:0:0:0:
372,235,52777,6,0,B|384:187|432:158|432:158|444:111|411:48,1,214,4|4,0:2|0:2,0:0:0:0:
111,49,54148,2,0,B|77:113|89:160|89:160|137:189|148:236,1,214,4|4,0:2|0:2,0:0:0:0:
256,339,55177,1,8,0:0:0:0:
370,242,55520,6,0,P|420:240|480:272,2,107,4|0|0,0:0|0:0|0:0,0:0:0:0:
256,338,56548,1,8,0:0:0:0:
125,264,56891,2,0,L|100:152,1,107
216,59,57577,2,0,L|238:165,1,107,0|8,0:0|0:0,0:0:0:0:
348,272,58263,6,0,P|396:280|456:244,2,107
216,200,59291,1,8,0:0:0:0:
112,308,59634,2,0,L|0:300,1,107
109,193,60320,2,0,L|216:200,1,107,0|8,0:0|0:0,0:0:0:0:
284,236,60834,1,4,0:2:0:0:
432,112,62377,6,0,P|388:112|320:148,1,107,4|8,0:0|0:0,0:0:0:0:
216,232,63063,2,0,P|172:232|104:196,1,107,0|8,0:0|0:0,0:0:0:0:
52,168,63577,1,2,0:0:0:0:
12,232,63748,2,0,L|24:348,1,107,0|8,0:0|0:0,0:0:0:0:
156,268,64434,2,0,L|167:161,1,107,0|8,0:0|0:0,0:0:0:0:
232,120,64948,6,0,L|228:64,1,53.5,2|2,0:0|0:0,0:0:0:0:
304,196,65463,1,8,0:0:0:0:
364,152,65634,2,0,P|420:152|480:180,2,107,2|2|2,0:1|0:1|0:1,0:0:0:0:
220,196,66663,1,2,0:1:0:0:
164,248,66834,2,0,L|172:360,2,107,8|0|8,0:0|0:0|0:0,0:0:0:0:
260,132,67863,6,0,P|272:96|260:20,1,107,4|8,0:2|0:0,0:0:0:0:
320,77,68377,1,2,0:0:0:0:
320,77,68548,2,0,L|436:69,1,107,0|8,0:0|0:0,0:0:0:0:
411,219,69234,2,0,L|304:226,1,107,0|8,0:0|0:0,0:0:0:0:
236,256,69748,2,0,P|176:256|112:224,1,107,2|0,0:0|0:0,0:0:0:0:
76,192,70263,2,0,L|80:136,1,53.5,8|2,0:0|0:0,0:0:0:0:
136,88,70605,6,0,L|264:80,1,107,6|10,0:0|0:0,0:0:0:0:
312,112,71120,2,0,L|432:120,2,107,2|2|2,0:0|0:0|0:0,0:0:0:0:
208,220,72148,2,0,L|314:227,1,107,2|2,0:0|0:0,0:0:0:0:
492,364,73005,1,8,0:0:0:0:
352,316,73348,6,0,P|308:304|224:312,2,107,4|8|0,0:0|0:0|0:0,0:0:0:0:
492,364,74377,1,8,0:0:0:0:
420,232,74720,2,0,L|416:116,1,107,0|8,0:0|0:0,0:0:0:0:
288,48,75405,2,0,L|284:154,1,107,0|8,0:0|0:0,0:0:0:0:
184,268,76091,6,0,P|124:264|72:228,2,107,0|8|0,0:0|0:0|0:0,0:0:0:0:
284,156,77120,1,8,0:0:0:0:
400,252,77463,2,0,L|388:360,1,107,2|8,0:2|0:0,0:0:0:0:
508,268,78148,2,0,L|496:161,1,107,2|8,0:2|0:0,0:0:0:0:
388,56,78834,6,0,P|332:40|268:40,2,107,4|8|0,0:2|0:0|0:0,0:0:0:0:
316,188,79863,1,8,0:0:0:0:
176,240,80205,2,0,L|68:228,2,107,2|8|0,0:2|0:0|0:0,0:0:0:0:
316,188,81234,1,8,0:0:0:0:
396,316,81577,6,0,P|420:272|416:204,2,107,4|8|0,0:2|0:0|0:0,0:0:0:0:
248,288,82605,1,8,0:0:0:0:
104,336,82948,2,0,L|-4:328,2,107,2|8|0,0:2|0:0|0:0,0:0:0:0:
248,288,83977,1,8,0:0:0:0:
256,192,84320,12,4,85691,0:0:0:0:
280,124,86034,6,0,L|392:105,2,107,2|10|2,0:2|0:2|0:2,0:0:0:0:
216,164,86891,1,2,0:0:0:0:
148,200,87063,6,0,P|88:200|40:160,2,107,4|8|2,0:0|0:0|0:0,0:0:0:0:
216,164,87920,2,0,P|276:164|324:204,1,107,8|6,0:0|0:0,0:0:0:0:
