osu file format v12

[General]
AudioFilename: ImoCho.mp3
AudioLeadIn: 1000
PreviewTime: 60963
Countdown: 0
SampleSet: Normal
StackLeniency: 0.3
Mode: 0
LetterboxInBreaks: 0
WidescreenStoryboard: 0

[Editor]
Bookmarks: 11291,87063
DistanceSpacing: 1
BeatDivisor: 4
GridSize: 4

[Metadata]
Title:BINKAN Attention (TV Size)
TitleUnicode:BINKAN♡あてんしょん (TV Size)
Artist:Hashimoto Chinami, Ogura Yui & Kanemoto Hisako
ArtistUnicode:橋本ちなみ, 小倉唯 & 金元寿子
Creator:Momochikun
Version:Easy
Source:最近、妹のようすがちょっとおかしいんだが。
Tags:Recently, My Little Sister is Unusual Saikin, Imouto no Yousu ga Chotto Okashiin daga. opening laurier imocho
BeatmapID:357462
BeatmapSetID:143269

[Difficulty]
HPDrainRate:2
CircleSize:3
OverallDifficulty:2
ApproachRate:3
SliderMultiplier:0.92
SliderTickRate:1

[Events]
//Background and Video events
Video,0,"video.avi"
0,0,"BG.jpg",0,0
//Break Periods
2,11833,19623
//Storyboard Layer 0 (Background)
//Storyboard Layer 1 (Fail)
//Storyboard Layer 2 (Pass)
//Storyboard Layer 3 (Foreground)
//Storyboard Sound Samples
//Background Colour Transformations
3,100,255,128,255

[TimingPoints]
663,342.857142857143,4,1,1,55,1,0
4606,-100,4,2,1,55,0,0
4777,-100,4,1,1,50,0,0
5291,-100,4,2,1,45,0,0
5463,-100,4,1,1,50,0,0
6148,-100,4,1,1,55,0,0
9234,-100,4,1,1,45,0,0
10263,-100,4,1,1,55,0,0
10606,-100,4,1,1,50,0,0
11634,-100,4,1,1,50,0,1
11720,-100,4,1,1,50,0,0
21063,-100,4,2,1,55,0,0
21148,-100,4,2,1,5,0,0
22263,-100,4,2,1,50,0,0
22605,-100,4,1,1,45,0,0
24834,-100,4,2,1,35,0,0
25348,-100,4,1,1,45,0,0
27405,-100,4,1,1,50,0,0
28263,-100,4,1,1,55,0,0
33577,-100,4,1,1,45,0,0
43005,-100,4,2,1,40,0,0
43348,-100,4,1,1,30,0,0
43777,-100,4,1,1,40,0,0
44548,-100,4,2,1,40,0,0
45405,-100,4,1,1,45,0,0
47291,-100,4,1,1,40,0,0
48148,-100,4,1,1,45,0,0
49863,-100,4,1,1,50,0,0
53463,-100,4,1,1,55,0,0
55520,-100,4,1,1,55,0,0
55863,-100,4,1,1,50,0,0
62377,-100,4,1,1,60,0,1
65977,-100,4,2,1,50,0,1
66834,-100,4,1,1,60,0,1
70605,-100,4,1,1,50,0,1
72491,-100,4,2,1,45,0,1
72663,-100,4,1,1,60,0,1
84834,-100,4,2,1,50,0,1
85005,-100,4,1,1,60,0,1
85520,-100,4,2,1,50,0,1
85605,-100,4,1,1,60,0,1
86891,-100,4,2,1,50,0,1
87063,-100,4,1,1,55,0,0
87063,-100,4,1,1,60,0,0
88263,-100,4,1,1,60,0,1
88348,-100,4,1,1,60,0,0

[Colours]
Combo1 : 0,64,128
Combo2 : 255,128,192
Combo3 : 255,159,64
Combo4 : 255,255,128

[HitObjects]
471,53,663,2,0,L|276:70,1,184,4|0,0:0|0:0,0:0:0:0:
104,92,2034,2,0,P|56:164|88:260,1,184
156,308,3063,1,2,0:2:0:0:
219,244,3405,6,0,B|272:240|304:281|304:281|356:272|398:297,1,184,0|0,0:0|0:0,0:0:0:0:
436,284,4263,2,0,L|458:377,2,92,8|4|2,0:0|0:0|0:1,0:0:0:0:
396,200,5291,2,0,P|351:159|266:135,1,138,2|10,0:1|0:0,0:0:0:0:
188,156,6148,6,0,B|180:244|180:244|124:255|104:332,1,184,4|0,0:0|0:0,0:0:0:0:
198,336,7177,1,8,0:0:0:0:
284,368,7520,2,0,P|338:374|478:326,1,184
406,265,8548,1,8,0:0:0:0:
446,179,8891,6,0,P|455:140|440:72,2,92,0|0|8,0:0|0:0|0:0,0:0:0:0:
406,265,9920,1,8,0:0:0:0:
316,301,10263,2,0,L|220:292,2,92,4|2|2,0:0|0:0|0:0,0:0:0:0:
406,265,11291,2,0,L|501:273,1,92,10|4,0:0|0:0,0:0:0:0:
256,192,21063,12,4,22605,0:0:0:0:
304,16,23291,6,0,L|288:113,1,92
223,175,23977,1,0,0:0:0:0:
304,216,24320,2,0,P|381:208|450:236,1,138,0|2,0:0|0:1,0:0:0:0:
428,320,25177,6,0,P|351:328|282:299,1,138,2|0,0:1|0:1,0:0:0:0:
212,264,26034,1,0,0:0:0:0:
52,167,26720,2,0,L|44:58,2,92
188,136,27920,6,0,B|238:131|265:93|265:93|319:88|342:107,1,138,4|8,0:0|0:0,0:0:0:0:
452,212,29120,2,0,P|419:305|330:358,1,184,8|8,0:0|0:0,0:0:0:0:
154,216,30663,6,0,B|122:176|84:178|84:178|47:142|66:103,2,138,4|8|0,0:0|0:0|0:0,0:0:0:0:
212,144,32034,2,0,P|252:136|352:164,1,138,4|8,0:0|0:0,0:0:0:0:
492,272,33234,1,8,0:0:0:0:
403,300,33577,6,0,B|340:302|302:278|302:278|281:313|202:329,1,184,4|0,0:0|0:0,0:0:0:0:
130,155,34948,2,0,B|193:157|230:133|230:133|251:168|331:183,1,184
384,144,35977,1,0,0:0:0:0:
398,236,36320,6,0,B|343:301|283:286|283:286|232:243,1,184,0|0,0:0|0:0,0:0:0:0:
154,91,37691,2,0,B|133:170|133:170|138:199|138:199|118:281,1,184
111,362,38720,2,0,L|178:377,1,46,0|4,0:0|0:0,0:0:0:0:
288,332,39405,5,8,0:0:0:0:
444,232,40091,1,8,0:0:0:0:
373,58,40777,1,8,0:0:0:0:
142,122,41634,6,0,B|77:118|48:147|48:147|36:200,1,138,4|8,0:0|0:0,0:0:0:0:
128,212,42491,2,0,B|119:248|119:248|90:277|25:273,2,138,2|4|0,2:0|0:0|0:0,0:0:0:0:
196,148,43863,1,2,0:0:0:0:
272,92,44205,6,0,P|290:149|274:193,1,92,10|2,0:0|0:3,0:0:0:0:
118,340,45405,1,8,0:0:0:0:
40,292,45748,2,0,P|84:232|76:156,1,138,4|10,0:0|0:0,0:0:0:0:
148,104,46605,2,0,L|266:125,1,92,2|10,0:0|0:0,0:0:0:0:
320,164,47291,5,4,0:0:0:0:
512,287,48148,1,8,0:0:0:0:
459,362,48491,2,0,B|392:372|348:316|348:316|304:320|280:307,2,184,4|2|4,0:0|0:0|0:0,0:0:0:0:
492,276,50205,2,0,P|428:264|388:196,1,138,0|0,0:0|0:0,0:0:0:0:
304,176,51063,2,0,P|261:194|228:244,2,92,8|0|8,0:0|0:0|0:0,0:0:0:0:
324,264,52091,2,0,P|311:313|303:362,1,92,0|8,0:0|0:0,0:0:0:0:
216,372,52777,6,0,B|158:347|122:371|122:371|73:339|64:264,2,184,4|4|4,0:2|0:2|0:2,0:0:0:0:
389,293,54834,1,4,0:2:0:0:
409,99,55520,6,0,B|352:123|316:99|316:99|267:132|264:175,1,184,4|0,0:0|0:0,0:0:0:0:
272,260,56548,1,8,0:0:0:0:
224,336,56891,2,0,L|25:318,1,184
42,222,57920,1,8,0:0:0:0:
99,144,58263,6,0,B|135:102|203:111|203:111|247:91|277:44,1,184
344,40,59291,1,8,0:0:0:0:
344,132,59634,6,0,B|322:143|302:187|302:187|311:255|269:291,1,184
340,352,60663,2,0,L|384:341,1,46,8|4,0:0|0:0,0:0:0:0:
175,375,62377,6,0,B|111:380|77:340|77:340|108:282|85:228,1,184,4|0,0:0|0:0,0:0:0:0:
72,180,63405,1,8,0:0:0:0:
125,101,63748,2,0,B|182:87|182:87|240:98|240:98|320:86,1,184,2|0,0:2|0:0,0:0:0:0:
396,64,64777,1,8,0:0:0:0:
468,120,65120,6,0,B|501:180|476:219|476:219|412:233|396:289,1,184,2|0,0:0|0:0,0:0:0:0:
380,292,65977,2,0,L|276:280,2,92,2|2|2,0:1|0:1|0:1,0:0:0:0:
388,336,66834,2,0,L|483:346,2,92,8|0|8,0:1|0:1|0:1,0:0:0:0:
300,362,67863,6,0,P|225:373|94:314,1,184,4|0,0:2|0:0,0:0:0:0:
60,272,68891,1,8,0:0:0:0:
52,180,69234,2,0,B|53:114|53:114|122:117|173:53,1,184
240,28,70263,1,8,0:0:0:0:
316,80,70605,6,0,L|477:69,1,138,6|2,0:0|0:0,0:0:0:0:
424,160,71463,2,0,L|310:168,1,92,2|2,0:0|0:0,0:0:0:0:
248,208,72148,2,0,P|198:222|126:174,1,138,2|0,0:0|0:0,0:0:0:0:
64,112,73005,1,8,0:0:0:0:
15,196,73348,6,0,B|15:268|15:268|49:331|125:311,1,184,4|0,0:0|0:0,0:0:0:0:
193,279,74377,1,8,0:0:0:0:
276,321,74720,2,0,L|471:306,1,184
480,216,75748,1,8,0:0:0:0:
407,165,76091,6,0,P|355:132|352:12,1,184
424,72,77120,1,8,0:0:0:0:
407,165,77463,2,0,L|284:173,1,92,2|0,0:2|0:0,0:0:0:0:
228,136,78148,2,0,L|132:129,1,92,2|8,0:2|0:0,0:0:0:0:
97,45,78834,6,0,P|49:120|92:215,1,184,4|0,0:2|0:0,0:0:0:0:
141,271,79863,1,8,0:0:0:0:
217,322,80205,2,0,B|268:325|302:284|302:284|357:301|414:272,1,184,2|0,0:2|0:0,0:0:0:0:
466,234,81234,1,8,0:0:0:0:
413,159,81577,6,0,L|213:146,1,184,4|0,0:2|0:0,0:0:0:0:
144,116,82605,1,8,0:0:0:0:
62,158,82948,2,0,B|99:213|99:213|51:268|82:321,1,184,2|0,0:2|0:0,0:0:0:0:
163,363,83977,1,8,0:0:0:0:
256,192,84320,12,4,85691,0:0:0:0:
353,74,86720,5,8,0:0:0:0:
276,124,87063,2,0,L|161:129,1,92,4|8,0:0|0:0,0:0:0:0:
148,212,87748,2,0,L|220:209,1,46,2|8,0:0|0:0,0:0:0:0:
280,240,88263,1,6,0:0:0:0:
