osu file format v12

[General]
AudioFilename: Symphony.mp3
AudioLeadIn: 0
PreviewTime: 65671
Countdown: 0
SampleSet: Normal
StackLeniency: 0.7
Mode: 0
LetterboxInBreaks: 1
WidescreenStoryboard: 0

[Editor]
DistanceSpacing: 1.2
BeatDivisor: 4
GridSize: 8
TimelineZoom: 3.099999

[Metadata]
Title:Symphonic Love
TitleUnicode:Symphonic Love
Artist:Hashimoto
ArtistUnicode:Hashimoto
Creator:niraka
Version:Normal
Source:
Tags:
BeatmapID:433082
BeatmapSetID:180181

[Difficulty]
HPDrainRate:6
CircleSize:4
OverallDifficulty:5
ApproachRate:8
SliderMultiplier:1.4
SliderTickRate:1

[Events]
//Background and Video events
0,0,"2541172.jpg",0,0
//Break Periods
//Storyboard Layer 0 (Background)
//Storyboard Layer 1 (Fail)
//Storyboard Layer 2 (Pass)
//Storyboard Layer 3 (Foreground)
//Storyboard Sound Samples
//Background Colour Transformations
3,100,163,162,255

[TimingPoints]
671,416.666666666667,4,1,0,50,1,0

[HitObjects]
128,72,671,5,0,0:0:0:0:
240,72,879,1,0,0:0:0:0:
176,96,1087,1,0,0:0:0:0:
176,96,1296,1,0,0:0:0:0:
208,136,1504,2,0,P|232:176|208:272,1,140
128,304,2129,5,0,0:0:0:0:
56,208,2337,1,0,0:0:0:0:
96,144,2546,1,0,0:0:0:0:
144,192,2754,1,0,0:0:0:0:
168,224,2962,1,0,0:0:0:0:
192,248,3171,2,0,B|216:280|264:312|296:304|336:296,1,140
320,192,4004,5,0,0:0:0:0:
368,48,4212,2,0,P|416:48|448:80,1,70
440,152,4629,5,0,0:0:0:0:
368,240,4837,2,0,P|352:280|376:328,1,70
448,328,5254,5,0,0:0:0:0:
456,240,5462,2,0,P|432:200|384:176,1,70
304,160,5879,5,0,0:0:0:0:
264,240,6087,2,0,P|224:272|176:264,1,70
120,248,6504,1,0,0:0:0:0:
208,40,6921,1,0,0:0:0:0:
320,216,7337,1,0,0:0:0:0:
240,280,7754,2,0,P|280:312|304:312,2,70
176,232,8379,1,0,0:0:0:0:
128,176,8587,1,0,0:0:0:0:
160,80,9004,2,0,P|200:48|224:48,1,70
256,120,9421,6,0,P|280:152|312:152,1,70
344,144,9837,1,0,0:0:0:0:
384,160,10046,1,0,0:0:0:0:
384,160,10150,1,0,0:0:0:0:
384,160,10254,1,0,0:0:0:0:
448,192,10462,2,0,P|480:224|480:280,1,70
456,288,10879,1,0,0:0:0:0:
136,136,11087,2,0,P|128:192|136:216,1,70
160,248,11504,1,0,0:0:0:0:
240,280,11712,2,0,P|288:288|312:264,1,70
304,160,12129,1,0,0:0:0:0:
304,56,12337,6,0,B|368:56|400:64|432:72|424:120|464:128|488:168|472:200|424:216|488:256|448:280|432:304|408:312|368:336|328:328,1,420
96,152,14004,6,0,P|112:96|144:88,1,70
144,80,14316,1,0,0:0:0:0:
176,72,14421,1,0,0:0:0:0:
240,144,14629,2,0,P|256:184|296:200,1,70
336,224,15046,1,0,0:0:0:0:
376,216,15150,1,0,0:0:0:0:
384,128,15254,2,0,B|352:104|328:112|304:120,1,70
192,232,15671,5,0,0:0:0:0:
160,256,15879,2,0,B|128:272|96:256|88:224,1,70
72,160,16296,1,0,0:0:0:0:
128,72,16504,1,0,0:0:0:0:
240,144,16712,1,0,0:0:0:0:
336,296,16921,5,0,0:0:0:0:
416,208,17129,1,0,0:0:0:0:
456,312,17337,1,0,0:0:0:0:
424,288,17546,2,0,P|384:256|368:240,1,70
344,192,17962,5,0,0:0:0:0:
408,120,18171,1,0,0:0:0:0:
400,40,18379,1,0,0:0:0:0:
328,96,18587,1,0,0:0:0:0:
256,40,18796,1,0,0:0:0:0:
192,96,19004,1,0,0:0:0:0:
216,176,19212,6,0,P|224:208|248:240,2,70
120,128,19768,1,0,0:0:0:0:
48,208,20046,2,0,P|72:248|112:248,1,70
208,248,20462,5,0,0:0:0:0:
264,176,20671,1,0,0:0:0:0:
400,80,20879,2,0,P|432:104|448:136,1,70
448,176,21296,1,0,0:0:0:0:
368,224,21504,2,0,P|328:232|320:264,1,70
312,296,21921,1,0,0:0:0:0:
216,288,22129,2,0,P|184:320|136:312,1,70
96,280,22546,1,0,0:0:0:0:
128,192,22754,2,0,P|160:160|184:176,1,70
256,176,23171,5,0,0:0:0:0:
336,176,23379,2,0,L|408:176,2,70
304,160,24004,1,0,0:0:0:0:
360,88,24212,1,0,0:0:0:0:
232,120,24421,1,0,0:0:0:0:
168,56,24629,1,0,0:0:0:0:
160,184,24837,1,0,0:0:0:0:
64,184,25046,1,0,0:0:0:0:
240,224,25254,1,0,0:0:0:0:
240,320,25462,1,0,0:0:0:0:
392,240,25671,6,0,L|472:240,4,70
256,192,26712,1,0,0:0:0:0:
256,192,26921,1,0,0:0:0:0:
72,128,27129,1,0,0:0:0:0:
72,128,27337,2,0,P|96:80|120:80,2,70
96,200,27962,1,0,0:0:0:0:
176,208,28171,1,0,0:0:0:0:
232,152,28379,2,0,P|256:128|288:136,1,70
304,176,28796,5,0,0:0:0:0:
280,248,29004,2,0,P|248:288|264:304,1,70
320,328,29421,1,0,0:0:0:0:
400,336,29629,2,0,L|400:248,1,70
400,208,30046,1,0,0:0:0:0:
400,208,30254,1,0,0:0:0:0:
152,64,30462,5,0,0:0:0:0:
224,64,30671,2,0,P|264:80|264:112,1,70
240,168,31087,1,0,0:0:0:0:
328,168,31296,1,0,0:0:0:0:
192,256,31504,1,0,0:0:0:0:
280,256,31712,1,0,0:0:0:0:
280,256,31921,1,0,0:0:0:0:
408,264,32129,1,0,0:0:0:0:
400,64,32337,1,0,0:0:0:0:
152,184,32546,1,0,0:0:0:0:
152,80,32754,1,0,0:0:0:0:
344,288,32962,1,0,0:0:0:0:
216,288,33171,5,0,0:0:0:0:
320,192,33379,1,0,0:0:0:0:
320,192,33587,1,0,0:0:0:0:
320,120,33796,2,0,P|304:80|272:64,1,70
208,56,34212,5,0,0:0:0:0:
208,56,34316,1,0,0:0:0:0:
208,56,34421,2,0,L|128:56,1,70
112,80,34733,1,0,0:0:0:0:
96,120,34837,1,0,0:0:0:0:
112,160,35046,2,0,P|112:200|152:216,1,70
184,240,35462,5,0,0:0:0:0:
184,240,35566,1,0,0:0:0:0:
184,240,35671,2,0,L|264:240,2,70
112,288,36296,1,0,0:0:0:0:
104,328,36400,1,0,0:0:0:0:
144,352,36504,1,0,0:0:0:0:
256,336,36712,2,0,P|304:320|328:288,1,70
316,306,37129,1,0,0:0:0:0:
316,306,37337,5,0,0:0:0:0:
360,96,37546,2,0,P|400:120|432:160,1,70
360,224,37962,2,0,P|320:200|304:168,1,70
392,64,38379,2,0,P|432:96|448:128,1,70
392,208,38796,2,0,P|352:184|328:160,1,70
280,120,39212,1,0,0:0:0:0:
224,72,39421,1,0,0:0:0:0:
176,120,39629,1,0,0:0:0:0:
72,152,39837,2,0,B|88:192|104:232|104:216,1,70
168,256,40254,1,0,0:0:0:0:
96,288,40671,2,0,P|128:336|160:344,1,70
312,256,41087,2,0,P|304:216|272:200,1,70
168,256,41504,2,0,P|192:288|216:304,1,70
352,200,41921,2,0,P|328:160|296:152,1,70
224,312,42337,6,0,P|256:336|288:328,1,70
320,168,42754,2,0,P|296:136|264:128,1,70
184,104,43171,1,0,0:0:0:0:
144,96,43275,1,0,0:0:0:0:
112,112,43379,1,0,0:0:0:0:
88,176,43587,6,0,P|88:216|112:248,1,70
272,200,44004,2,0,P|264:160|240:136,1,70
168,216,44421,2,0,P|184:256|216:272,1,70
368,184,44837,2,0,P|344:144|312:128,1,70
256,104,45254,1,0,0:0:0:0:
208,88,45358,1,0,0:0:0:0:
176,120,45462,1,0,0:0:0:0:
96,160,45671,6,0,P|64:184|64:224,1,70
120,272,46087,2,0,L|200:272,2,70
120,344,46712,2,0,L|200:344,1,70
272,336,47337,6,0,P|320:320|320:288,1,70
304,248,47754,1,0,0:0:0:0:
320,208,47858,1,0,0:0:0:0:
360,200,47962,1,0,0:0:0:0:
424,248,48171,2,0,P|440:288|424:320,1,70
376,336,48587,1,0,0:0:0:0:
224,224,48796,1,0,0:0:0:0:
224,224,49004,6,0,P|216:176|184:160,1,70
136,144,49421,1,0,0:0:0:0:
64,192,49629,1,0,0:0:0:0:
64,192,49837,1,0,0:0:0:0:
96,264,50046,6,0,P|128:296|160:304,1,70
200,304,50462,1,0,0:0:0:0:
256,240,50671,1,0,0:0:0:0:
304,336,50879,1,0,0:0:0:0:
360,256,51087,1,0,0:0:0:0:
432,336,51296,1,0,0:0:0:0:
392,128,51504,1,0,0:0:0:0:
360,96,51608,1,0,0:0:0:0:
352,152,51712,1,0,0:0:0:0:
320,128,51816,1,0,0:0:0:0:
288,96,51921,1,0,0:0:0:0:
288,160,52025,1,0,0:0:0:0:
248,128,52129,1,0,0:0:0:0:
88,136,52233,1,0,0:0:0:0:
88,136,52337,6,0,L|88:224,5,70
120,264,53587,1,0,0:0:0:0:
208,264,53796,1,0,0:0:0:0:
208,264,54004,2,0,L|288:264,2,70
120,264,54629,1,0,0:0:0:0:
272,176,54941,1,0,0:0:0:0:
296,144,55046,1,0,0:0:0:0:
336,144,55150,1,0,0:0:0:0:
368,168,55254,2,0,L|368:240,1,70
368,272,55671,5,0,0:0:0:0:
320,280,55879,2,0,L|248:280,1,70
216,280,56296,1,0,0:0:0:0:
216,200,56504,1,0,0:0:0:0:
144,232,56712,1,0,0:0:0:0:
144,232,56921,1,0,0:0:0:0:
224,64,57337,6,0,L|304:64,1,70
296,128,57754,2,0,L|208:128,1,70
144,128,58171,1,0,0:0:0:0:
160,208,58379,1,0,0:0:0:0:
200,224,58483,1,0,0:0:0:0:
224,256,58587,1,0,0:0:0:0:
296,288,58796,6,0,P|328:312|376:304,1,70
416,256,59212,1,0,0:0:0:0:
416,184,59421,1,0,0:0:0:0:
344,184,59629,1,0,0:0:0:0:
344,184,59837,1,0,0:0:0:0:
272,184,60046,6,0,P|232:168|216:136,2,70
344,184,60671,1,0,0:0:0:0:
344,112,60879,1,0,0:0:0:0:
344,112,61087,1,0,0:0:0:0:
344,184,61296,1,0,0:0:0:0:
344,248,61504,1,0,0:0:0:0:
328,304,61712,2,0,P|288:312|240:296,1,70
88,248,62129,1,0,0:0:0:0:
176,248,62337,1,0,0:0:0:0:
176,176,62546,1,0,0:0:0:0:
176,312,62754,1,0,0:0:0:0:
232,320,62962,6,0,P|264:344|304:336,1,70
360,280,63275,1,0,0:0:0:0:
384,248,63379,2,0,P|424:232|464:240,1,70
448,160,63796,1,0,0:0:0:0:
448,64,64004,1,0,0:0:0:0:
352,64,64212,1,0,0:0:0:0:
264,64,64421,1,0,0:0:0:0:
224,64,64525,1,0,0:0:0:0:
184,64,64629,1,0,0:0:0:0:
112,104,64837,2,0,P|96:152|104:192,3,70
184,224,65671,1,0,0:0:0:0:
400,128,67337,2,0,P|424:184|416:216,1,70
423,191,67754,1,0,0:0:0:0:
400,256,67962,6,0,P|352:288|312:280,2,70
472,256,68587,1,0,0:0:0:0:
312,256,68796,6,0,L|240:256,1,70
242,256,69212,1,0,0:0:0:0:
176,256,69421,2,0,L|176:176,1,70
312,104,69837,6,0,P|272:72|224:72,2,70
432,72,70462,2,0,L|432:160,1,70
248,136,70879,1,0,0:0:0:0:
248,64,71087,6,0,L|248:144,1,70
432,136,71504,1,0,0:0:0:0:
432,192,71712,6,0,P|432:248|400:264,1,70
304,256,72129,1,0,0:0:0:0:
216,256,72337,2,0,L|128:256,1,70
144,184,72754,2,0,L|144:280,1,70
144,254,73171,1,0,0:0:0:0:
392,56,73379,2,0,P|432:64|448:88,1,70
256,80,74004,2,0,L|256:168,1,70
256,336,74421,2,0,L|256:264,1,70
424,200,74837,2,0,L|344:200,1,70
56,200,75254,6,0,L|136:200,1,70
256,200,75671,1,0,0:0:0:0:
256,200,75879,2,0,L|256:112,1,70
434,61,76296,2,0,L|352:60,2,70
434,61,76921,1,0,0:0:0:0:
433,148,77129,1,0,0:0:0:0:
338,58,77337,1,0,0:0:0:0:
338,148,77546,6,0,L|341:241,1,70
341,217,77962,1,0,0:0:0:0:
341,289,78171,2,0,L|338:201,1,70
196,74,78587,5,0,0:0:0:0:
69,123,78796,1,0,0:0:0:0:
239,290,79004,1,0,0:0:0:0:
241,188,79212,1,0,0:0:0:0:
68,288,79421,1,0,0:0:0:0:
68,288,79629,1,0,0:0:0:0:
68,288,79837,6,0,L|136:220,1,70
126,194,80150,1,0,0:0:0:0:
93,149,80254,1,0,0:0:0:0:
41,139,80358,1,0,0:0:0:0:
185,95,80671,1,0,0:0:0:0:
261,99,80879,2,0,L|341:100,1,70
418,101,81296,1,0,0:0:0:0:
420,191,81504,2,0,L|421:275,1,70
259,327,81921,1,0,0:0:0:0:
210,240,82129,6,0,P|256:227|296:260,1,70
376,324,82546,1,0,0:0:0:0:
456,257,82754,1,0,0:0:0:0:
116,97,82962,1,0,0:0:0:0:
116,189,83171,1,0,0:0:0:0:
115,278,83379,1,0,0:0:0:0:
256,192,83587,1,0,0:0:0:0:
448,96,83796,1,0,0:0:0:0:
280,96,84004,6,0,L|368:96,1,70
448,192,84421,1,0,0:0:0:0:
352,192,84629,2,0,L|272:192,1,70
282,192,85046,1,0,0:0:0:0:
80,112,85254,2,0,L|128:176,1,70
208,80,85671,1,0,0:0:0:0:
80,264,85879,1,0,0:0:0:0:
376,80,86087,1,0,0:0:0:0:
376,192,86296,1,0,0:0:0:0:
208,192,86504,1,0,0:0:0:0:
88,48,86712,2,0,P|48:48|24:80,1,70
456,224,87337,5,0,0:0:0:0:
432,280,87441,1,0,0:0:0:0:
376,280,87546,2,0,L|296:280,1,70
306,280,87962,1,0,0:0:0:0:
64,224,88171,2,0,P|88:184|128:184,1,70
184,184,88587,1,0,0:0:0:0:
64,320,88796,1,0,0:0:0:0:
272,184,89004,1,0,0:0:0:0:
152,320,89212,1,0,0:0:0:0:
360,184,89421,1,0,0:0:0:0:
248,320,89629,2,0,L|344:320,1,70
432,320,90046,1,0,0:0:0:0:
432,320,90254,1,0,0:0:0:0:
168,192,90462,6,0,L|168:112,1,70
168,122,90879,1,0,0:0:0:0:
168,122,91087,1,0,0:0:0:0:
264,120,91296,2,0,L|336:120,1,70
334,120,91712,1,0,0:0:0:0:
334,120,91921,1,0,0:0:0:0:
334,120,92129,1,0,0:0:0:0:
416,224,92233,1,0,0:0:0:0:
400,256,92337,1,0,0:0:0:0:
352,256,92546,2,0,L|272:256,1,70
176,256,92962,5,0,0:0:0:0:
88,168,93171,5,0,0:0:0:0:
