osu file format v9

[General]
AudioFilename: -----------MIX-.mp3
AudioLeadIn: 0
PreviewTime: 52095
Countdown: 0
SampleSet: Soft
StackLeniency: 0.7
Mode: 0
LetterboxInBreaks: 1

[Editor]
DistanceSpacing: 1
BeatDivisor: 4
GridSize: 8

[Metadata]
Title:Sweet Garden
Artist:Haruna Yumi
Creator:jusufkala
Version:Normal
Source:A Kiss For The Petal, The Joy Of Loving You
Tags:

[Difficulty]
HPDrainRate:5
CircleSize:3
OverallDifficulty:4
ApproachRate:4
SliderMultiplier:1.6
SliderTickRate:2

[Events]
//Background and Video events
0,0,"BG(Normal).png"
//Break Periods
2,75864,80773
2,157290,163270
//Storyboard Layer 0 (Background)
//Storyboard Layer 1 (Fail)
//Storyboard Layer 2 (Pass)
//Storyboard Layer 3 (Foreground)
//Storyboard Sound Samples
//Background Colour Transformations
3,100,163,162,255

[TimingPoints]
9239.71874958274,535.693029490617,4,2,0,50,1,0
17810,-133.333333333333,4,2,0,35,0,0
44059,-133.333333333333,4,2,0,60,0,0
52095,-100,4,1,0,60,0,1
73522,-100,4,1,0,60,0,0
82093,-133.333333333333,4,2,0,50,0,0
99236,-133.333333333333,4,2,0,60,0,0
114235,-133.333333333333,4,1,0,60,0,0
116378,-100,4,1,0,60,0,0
139948,-100,4,1,0,60,0,0
157090,-133.333333333333,4,2,0,20,0,0
165662,-100,4,2,0,40,0,0
191911,-100,4,2,0,50,0,0
199946,-100,4,1,0,70,0,0
201285,-133.333333333333,4,1,0,65,0,0
202089,-100,4,1,0,60,0,1
225659,-100,4,1,0,60,0,0

[Colours]
Combo1 : 47,151,255
Combo2 : 255,164,255
Combo3 : 128,128,255
Combo4 : 255,255,255

[HitObjects]
256,192,9239,5,0
256,128,9507,1,0
256,64,9775,1,0
320,64,10043,2,0,B|368:96|320:168,1,80
320,208,10578,1,0
320,272,10846,1,2
160,272,11382,6,0,B|184:304|208:272|208:272|256:272,1,80
264,352,11918,2,0,B|352:352,1,80
424,352,12453,2,0,B|448:328|424:304|424:304|424:264,1,80
344,280,12989,1,2
424,144,13525,5,0
264,144,14060,1,0
344,144,14328,2,0,B|304:144,2,40
424,144,14864,1,2
256,192,15668,12,0,17810
104,72,18614,5,0
152,72,18882,1,0
200,72,19150,1,0
248,72,19417,2,0,B|328:72,2,59.9999982118607,0|0|2
248,168,20489,2,0,B|368:168,1,119.999996423721
416,168,21292,1,2
400,216,22096,6,0,B|376:320|256:312,2,179.999994635582
208,232,24239,2,0,B|232:128|352:136,2,179.999994635582
368,280,26381,1,0
56,48,27185,5,0
56,96,27453,1,0
56,144,27721,2,0,B|56:288,2,119.999996423721
104,144,29060,1,2
224,144,29596,2,0,B|280:200|216:256,1,119.999996423721
336,288,30667,2,0,B|432:200|336:112,1,179.999994635582
296,120,31738,2,0,B|384:248|264:336,2,239.999992847443
232,208,34417,2,0,B|152:208,2,59.9999982118607,0|0|2
248,128,35488,6,0,B|248:208,1,59.9999982118607
200,184,36024,2,0,B|200:256,2,59.9999982118607
200,136,36827,1,2
248,136,37095,2,0,B|304:184|368:184|424:128,2,179.999994635582
200,136,38970,2,0,B|168:136,2,29.9999991059304,2|0|0
256,368,40577,5,0
256,320,40845,1,0
256,272,41113,2,0,B|256:200,1,59.9999982118607
256,112,41916,1,2
160,112,42452,2,0,B|160:192,1,59.9999982118607
112,176,42988,2,0,B|112:256,2,59.9999982118607,0|0|6
192,56,44059,6,0,B|216:88|256:64,3,59.9999982118607
288,112,45131,2,0,B|352:136|384:64,1,119.999996423721
432,64,45934,1,0
480,64,46202,2,0,B|432:136|520:112|480:200,1,119.999996423721
480,280,47273,2,0,B|424:344|360:264,1,119.999996423721,0|2
232,288,48613,5,0
280,288,48881,1,0
328,288,49149,1,0
328,240,49416,1,0
280,240,49684,2,0,B|208:240,1,59.9999982118607,0|4
256,192,50220,12,4,52095
256,192,52630,5,8
256,32,53166,2,0,B|280:96|352:96|376:24,1,160,0|0
432,80,53970,2,0,B|496:120|496:168|432:200,1,160
376,144,54773,1,8
296,144,55041,2,0,B|248:144,4,40
256,72,55845,2,0,B|304:72,4,40,0|0|0|0|4
416,72,56916,6,0,B|496:136|416:232,2,160,8|0|8
288,168,58523,2,0,B|208:232|288:328,2,160,0|8|0
328,240,59862,1,4
424,112,60666,5,0
296,112,61201,2,0,B|392:112,2,80
232,112,62005,2,0,B|136:112,2,80,0|8|0
232,176,62809,2,0,B|320:248|224:328,1,160,0|8
176,304,63612,2,0,B|144:256|208:256,1,80
320,304,64416,5,0
320,240,64683,2,0,B|320:152,1,80
320,104,65487,5,0
384,104,65755,2,0,B|384:192,1,80
384,240,66291,5,0
320,240,66558,2,0,B|208:240,3,80,0|0|8|0
176,240,67630,1,8
112,240,67898,2,0,B|48:160|160:88,1,160
200,104,68701,1,8
264,104,68969,2,0,B|264:184,1,80,0|4
360,104,69773,5,0
440,104,70040,2,0,B|480:176|376:176|440:280,2,160
400,32,71380,1,0
320,48,71647,2,0,B|336:88|280:80|320:152,1,80,0|8
256,192,72451,5,0
184,232,72719,1,0
192,304,72987,1,8
256,336,73255,1,0
264,264,73522,2,0,B|432:264,2,160
104,264,75129,2,0,B|56:200|152:208|96:96,1,160,0|4
256,56,82093,5,0
256,152,82629,2,0,B|256:224,2,59.9999982118607
256,272,83701,2,0,B|256:336,2,59.9999982118607,0|0|2
352,264,84772,2,0,B|408:200|336:152,2,119.999996423721
232,264,86379,2,0,B|200:208|280:208|232:136,2,119.999996423721,0|0|2
152,176,87986,2,0,B|120:200|104:248|152:296,2,119.999996423721
256,112,89593,1,2
416,64,90665,5,0
320,64,91200,2,0,B|200:64,1,119.999996423721
152,64,92004,1,0
104,64,92272,2,0,B|0:112|64:224,2,179.999994635582
152,64,94147,1,0
200,64,94414,2,0,B|304:112|240:224,2,179.999994635582,2|0|0
152,64,96289,2,0,B|152:144,3,59.9999982118607,0|2|0|0
464,344,99236,5,0
424,320,99503,2,0,B|368:272,3,59.9999982118607,0|8|0|0
344,248,100575,1,0
296,248,100843,2,0,B|168:248,2,119.999996423721,8|0|8
392,248,102450,2,0,B|320:248,2,59.9999982118607,0|0|8
392,200,103253,2,0,B|320:200,1,59.9999982118607,0|2
88,192,104860,5,0
136,192,105128,2,0,B|208:192,2,59.9999982118607
136,96,106200,1,2
232,96,106735,2,0,B|232:176,1,59.9999982118607
280,160,107271,2,0,B|280:88,1,59.9999982118607
328,96,107807,1,6
184,88,108878,6,0,B|80:152|152:264,1,179.999994635582,0|8
256,280,110217,1,0
304,256,110485,2,0,B|408:192|336:80,1,179.999994635582
304,80,111557,1,8
256,48,111824,1,0
208,80,112092,1,4
88,80,113699,6,0,B|88:224,1,119.999996423721,8|0
208,200,114771,2,0,B|208:344,2,119.999996423721,8|0|8
328,160,116378,1,4
256,192,116914,6,0,B|352:136|432:216,1,160,0|8
408,256,117717,2,0,B|408:336,2,80
408,192,118521,1,8
408,128,118788,2,0,B|408:24,2,80,0|8|0
344,128,119592,1,8
280,128,119860,2,0,B|280:240,1,80,0|8
216,208,120396,2,0,B|216:256,2,40,0|0|8
216,80,121199,5,0
152,80,121467,2,0,B|104:104|152:152,2,80
216,80,122270,1,8
280,80,122538,2,0,B|376:80|416:184,2,160
280,144,123878,1,0
280,208,124145,1,4
88,208,124949,5,0
88,272,125217,2,0,B|88:352,3,80,0|8|0|0
152,352,126288,2,0,B|152:264,3,80,0|8|0|0
152,208,127360,2,0,B|112:168|168:128,2,80,0|8|0
216,208,128163,1,0
344,208,128699,6,0,B|344:32,1,160
216,48,129770,2,0,B|216:232,1,160
216,272,130574,1,0
152,272,130842,2,0,B|64:272,2,80,8|0|8
152,208,131645,2,0,B|240:208,1,80,0|8
296,208,132181,1,0
296,80,132716,6,0,B|296:168,1,80,0|8
360,168,133252,2,0,B|360:216,2,40,0|0|4
432,272,134056,6,0,B|432:184,1,80
432,128,134591,2,0,B|432:40|320:40,2,160,0|8|0
368,112,135931,1,0
328,160,136198,1,8
240,256,136734,5,0
288,208,137002,1,0
352,208,137270,2,0,B|400:272,1,80,8|0
256,192,137806,12,0,139948
256,192,140484,5,0
384,192,141020,2,0,B|304:192,2,80,0|0|8
384,320,142091,1,0
256,320,142627,1,0
128,320,143162,2,0,B|208:320,2,80,0|0|8
128,192,144234,5,0
256,192,144770,1,8
192,80,145305,2,0,B|192:192,2,80,0|0|8
128,80,146109,2,0,B|128:176,1,80
128,288,146912,1,4
256,288,147448,5,0
320,288,147716,1,0
384,288,147984,1,8
448,288,148252,2,0,B|448:192,1,80
448,80,149055,5,0
384,80,149323,1,0
256,80,149859,2,0,B|344:80,1,80,0|8
336,144,150394,1,0
272,144,150662,1,0
144,144,151198,1,0
144,272,151734,6,0,B|144:192,2,80,0|0|8
208,272,152537,1,0
272,272,152805,1,0
400,272,153341,2,0,B|320:272,1,80,8|0
320,208,153876,1,0
256,208,154144,1,0
192,208,154412,2,0,B|112:208,1,80,8|0
48,208,154948,1,0
48,80,155483,5,0
112,80,155751,1,0
176,80,156019,1,0
240,80,156287,2,0,B|304:144|240:232,1,160
184,224,157090,1,0
256,184,164590,5,0
304,184,164858,1,0
352,184,165126,2,0,B|424:184,1,59.9999982118607,2|0
456,184,165662,5,0
456,248,165929,2,0,B|368:248,1,80,0|2
312,248,166465,1,0
248,248,166733,1,0
184,248,167001,2,0,B|56:160|176:32,1,240
296,48,168340,1,0
424,48,168876,6,0,B|424:160,4,80
424,176,170483,1,2
424,304,171019,2,0,B|424:208,4,80
296,304,172626,2,0,B|400:304,1,80,2|0
72,192,174233,5,0
200,192,174768,2,0,B|104:192,2,80
264,192,175572,1,0
328,192,175840,2,0,B|408:248|336:336,2,160,8|0|0
328,128,177179,1,0
272,160,177447,2,0,B|192:104|264:16,2,160
272,288,179054,2,0,B|272:192,1,80,8|0
376,288,179857,2,0,B|464:288,3,80
16,24,182804,5,0
16,152,183339,2,0,B|184:152,2,160,0|8|0
16,216,184679,2,0,B|120:216,1,80
160,216,185214,1,0
224,216,185482,1,8
224,152,185750,2,0,B|312:152,2,80
160,152,186554,1,8
160,88,186821,6,0,B|160:40,2,40,2|0|0
224,88,187357,2,0,B|224:128,2,40,0|0|2
288,48,187893,2,0,B|288:0,2,40
288,176,188696,1,2
416,144,189232,6,0,B|472:224|408:312,1,160,0|2
288,296,190303,2,0,B|376:296,1,80,2|0
368,232,190839,2,0,B|264:232,1,80,2|0
288,168,191375,1,4
288,40,191911,5,0
224,40,192178,2,0,B|184:72|224:112,2,80,0|2|0
288,40,192982,2,0,B|336:72|288:112,1,80
256,152,193518,1,0
192,152,193785,2,0,B|104:152,2,80,0|8|0
192,216,194589,2,0,B|288:216,2,80,0|0|8
128,216,195393,1,0
64,216,195660,1,4
256,216,196464,5,0
320,216,196732,1,0
320,280,197000,1,0
384,280,197267,1,2
384,344,197535,1,0
256,192,197803,12,0,199946
256,192,200214,5,0
256,192,200482,1,0
256,192,200749,1,0
256,192,201017,1,8
256,144,201285,2,0,B|256:96,6,29.9999991059304
384,144,202624,5,0
224,136,203160,2,0,B|176:216|248:288,2,160,0|0|0
72,200,204767,2,0,B|24:280|96:352,2,160,0|0|0
120,136,206106,2,0,B|80:112|32:136,1,80
384,272,206910,6,0,B|288:272,1,80,8|0
336,216,207446,2,0,B|256:216,1,80
280,160,207981,2,0,B|192:160,1,80,8|0
136,160,208517,1,0
136,96,208785,2,0,B|48:96,2,80,0|8|0
200,96,209588,2,0,B|304:64|336:168,2,160,0|0|4
328,96,211195,5,0
328,160,211463,1,0
328,224,211731,1,8
328,288,211999,2,0,B|288:320|256:288,3,80
256,224,213070,2,0,B|216:192|184:224,3,80,0|8|0|0
248,112,214410,6,0,B|328:56|408:128,1,160
312,216,215481,2,0,B|392:272|472:200,1,160
472,144,216285,2,0,B|472:56,3,80,0|8|0|4
368,144,217624,1,8
240,144,218160,2,0,B|336:144,4,80,0|0|8|0|4
168,256,220034,6,0,B|280:352|400:248,2,240
328,72,222445,1,0
256,40,222713,1,0
184,72,222981,1,0
256,192,223516,12,4,225659
256,72,226195,5,0
256,136,226731,2,0,B|168:208|256:304,2,160
336,136,228338,2,0,B|424:208|336:304,1,160
280,320,229409,2,0,B|280:160,1,160,8|0
192,328,230480,6,0,B|272:328,2,80
192,264,231284,1,0
192,200,231552,2,0,B|288:200,2,80,8|0|0
128,200,232355,2,0,B|48:280|128:352,2,160,0|0|4
320,192,234230,5,0
320,64,234766,1,8
264,96,235034,1,0
320,128,235302,1,0
264,160,235570,1,0
320,192,235837,1,8
264,224,236105,2,0,B|264:320,3,80,0|0|0|8
200,304,237177,2,0,B|200:224,1,80
296,144,237980,6,0,B|296:320,1,160
224,200,239052,2,0,B|224:376,1,160
160,360,239855,1,0
112,320,240123,1,8
64,272,240391,1,0
32,216,240659,2,0,B|0:112|136:80,1,160
256,192,241462,12,4,242801
256,64,243337,5,0
256,192,243873,1,0
256,320,244408,1,8
256,192,244944,2,0,B|416:192,1,160,0|8
408,64,246016,2,0,B|240:64,1,160
256,192,247087,12,4,249230
