osu file format v9

[General]
AudioFilename: -----------MIX-.mp3
AudioLeadIn: 0
PreviewTime: 52095
Countdown: 0
SampleSet: Soft
StackLeniency: 0.7
Mode: 0
LetterboxInBreaks: 1

[Editor]
DistanceSpacing: 1.2
BeatDivisor: 4
GridSize: 8

[Metadata]
Title:Sweet Garden
Artist:Haruna Yumi
Creator:jusufkala
Version:Hard
Source:A Kiss For The Petal, The Joy Of Loving You
Tags:

[Difficulty]
HPDrainRate:6
CircleSize:4
OverallDifficulty:7
ApproachRate:8
SliderMultiplier:1.8
SliderTickRate:2

[Events]
//Background and Video events
0,0,"BG(Hard).png"
//Break Periods
2,157290,164376
//Storyboard Layer 0 (Background)
//Storyboard Layer 1 (Fail)
//Storyboard Layer 2 (Pass)
//Storyboard Layer 3 (Foreground)
//Storyboard Sound Samples
//Background Colour Transformations
3,100,163,162,255

[TimingPoints]
9239.71874958274,535.693029490617,4,2,0,50,1,0
17810,-133.333333333333,4,2,0,35,0,0
44059,-133.333333333333,4,2,0,60,0,0
48345,-133.333333333333,4,2,0,65,0,0
50488,-100,4,1,0,60,0,0
51291,-100,4,1,0,70,0,0
52095,-100,4,1,0,60,0,1
73522,-100,4,2,0,100,0,1
75665,-100,4,2,0,100,0,0
82093,-133.333333333333,4,2,0,50,0,0
99236,-133.333333333333,4,2,0,60,0,0
114235,-133.333333333333,4,1,0,60,0,0
115306,-100,4,1,0,70,0,0
116378,-100,4,1,0,60,0,0
137806,-100,4,2,0,50,0,0
139948,-100,4,1,0,60,0,0
157090,-133.333333333333,4,2,0,20,0,0
165662,-100,4,2,0,40,0,0
191911,-100,4,2,0,50,0,0
197803,-100,4,1,0,60,0,0
199142,-100,4,1,0,70,0,0
200214,-133.333333333333,4,1,0,30,0,0
201151,-100,4,1,0,65,0,0
202089,-100,4,1,0,60,0,1
225659,-100,4,1,0,50,0,0
241730,-100,4,1,0,70,0,0

[Colours]
Combo1 : 47,151,255
Combo2 : 255,164,255
Combo3 : 128,128,255
Combo4 : 255,255,255

[HitObjects]
168,72,9239,1,0
104,104,9507,1,0
144,160,9775,1,0
88,200,10043,1,0
136,256,10311,2,0,B|72:304|168:336,2,90,0|0|2
280,256,11382,6,0,B|408:256,1,90
416,200,11918,2,0,B|320:200,1,90
280,144,12453,2,0,B|376:144,1,90
440,144,12989,1,2
440,288,13525,5,0
368,288,13793,1,0
296,288,14060,1,0
224,288,14328,2,0,B|128:288,3,90
256,192,15400,12,0,17810
256,72,18346,5,0
256,128,18614,1,0
256,184,18882,2,0,B|256:280,1,67.4999979883433,0|0
312,248,19417,1,2
368,248,19685,2,0,B|432:192|352:112,1,134.999995976687,0|0
328,96,20489,1,2
272,96,20757,2,0,B|128:96,2,134.999995976687
328,96,22096,1,0
328,96,22364,6,0,B|384:144|328:224,1,134.999995976687
288,248,23167,1,0
240,216,23435,2,0,B|184:168|240:88,1,134.999995976687
288,88,24239,1,0
288,144,24506,2,0,B|288:216,2,67.4999979883433
344,144,25310,2,0,B|344:88,2,33.7499989941716,0|0|2
400,144,25846,2,0,B|400:192,4,33.7499989941716,2|0|0|0|4
288,144,26917,5,0
232,144,27185,2,0,B|160:144,1,67.4999979883433
112,144,27721,2,0,B|112:288,2,134.999995976687
168,144,29060,1,2
224,144,29328,2,0,B|224:224,2,67.4999979883433
280,144,30131,2,0,B|352:200|272:288,2,134.999995976687,2|0|0
256,192,31470,2,0,B|184:136|264:48,2,134.999995976687,0|0|0
256,192,32810,1,2
360,192,33345,6,0,B|360:112,1,67.4999979883433,0|2
312,96,33881,2,0,B|312:176,1,67.4999979883433,0|2
264,192,34417,2,0,B|264:120,1,67.4999979883433,0|2
216,96,34952,1,4
104,96,35488,5,0
56,120,35756,2,0,B|16:192|80:256,1,134.999995976687
112,208,36560,2,0,B|152:280|88:344,1,134.999995976687
48,336,37363,1,0
48,280,37631,2,0,B|48:208,2,67.4999979883433
152,272,38970,6,2,B|152:224,2,33.7499989941716
208,272,39506,2,0,B|208:192,2,67.4999979883433
264,272,40309,2,0,B|264:112,2,134.999995976687,2|0|0
320,272,41649,2,0,B|320:192,1,67.4999979883433,0|2
320,152,42184,1,0
320,96,42452,1,0
264,96,42720,2,0,B|264:152,2,33.7499989941716
216,128,43256,2,0,B|216:80,6,33.7499989941716,2|0|2|2|0|2|4
216,184,44327,6,0,B|160:240|240:312,2,134.999995976687
272,184,45666,1,0
328,184,45934,2,0,B|384:240|304:312,2,134.999995976687
296,136,47273,1,0
280,112,47407,1,0
264,88,47541,1,0
232,40,47809,1,2
120,40,48345,6,0,B|208:40,1,67.4999979883433
168,88,48881,2,0,B|248:88,1,67.4999979883433
208,136,49416,2,0,B|288:136,1,67.4999979883433
256,184,49952,2,2,B|328:184,1,67.4999979883433,2|0
376,184,50488,1,0
432,184,50755,1,0
488,184,51023,1,0
488,240,51291,5,0
472,264,51425,1,0
448,240,51559,1,0
424,264,51693,1,0
400,240,51827,1,0
376,264,51961,1,0
352,240,52095,1,4
216,248,52630,6,0,B|320:248,1,90
312,176,53166,2,0,B|408:176,1,90
472,176,53702,1,8
472,104,53970,2,0,B|392:48|288:112,1,180
232,112,54773,1,8
160,112,55041,1,0
88,112,55309,1,0
88,184,55577,1,0
160,184,55845,2,0,B|208:184,4,45,8|0|0|0|0
160,328,56916,5,8
232,328,57184,2,0,B|360:328,2,90
232,256,57987,1,8
232,184,58255,2,0,B|144:184,2,90
304,184,59059,1,8
304,256,59327,2,0,B|360:256,2,45
232,256,59862,1,4
224,40,60666,6,0,B|136:112|224:200,1,180,0|8
280,160,61469,2,0,B|328:208|280:248,1,90
224,208,62005,2,0,B|176:256|224:296,1,90,0|8
288,288,62541,1,0
320,288,62675,1,0
352,288,62809,1,0
424,280,63076,2,0,B|424:184,1,90,0|8
424,120,63612,2,0,B|424:64,4,45
352,120,64416,1,8
208,120,64951,5,0
136,120,65219,2,0,B|48:120,1,90,0|8
48,192,65755,2,0,B|48:288,1,90
120,280,66291,2,0,B|120:192,1,90,0|8
184,232,66826,1,0
184,264,66960,1,0
184,296,67094,1,0
256,296,67362,2,0,B|256:208,1,90,0|8
256,136,67898,1,0
328,136,68165,5,0
376,192,68433,1,0
328,248,68701,1,8
384,296,68969,2,0,B|424:328,2,45,0|0|4
248,248,69773,6,0,B|136:248,2,90,0|0|8
248,176,70576,1,0
248,104,70844,2,0,B|144:104,1,90
160,176,71380,1,8
160,248,71647,1,0
192,248,71781,1,0
224,248,71915,1,0
296,248,72183,2,0,B|296:312,4,45,8|0|0|0|0
296,176,72987,2,0,B|296:88,1,90,8|0
256,192,73522,12,0,75665
104,104,76201,5,0
160,144,76469,1,0
224,104,76737,1,0
288,144,77004,1,0
352,104,77272,1,2
400,144,77540,1,0
456,104,77808,1,0
456,248,78344,5,0
400,208,78611,1,0
344,248,78879,1,2
320,272,79013,1,0
296,248,79147,1,0
272,272,79281,1,2
248,248,79415,1,0
224,272,79549,1,0
200,248,79683,1,0
176,272,79817,1,0
256,192,79951,12,0,82093
256,80,82629,6,0,B|256:176,1,67.4999979883433
256,200,83165,1,2
312,200,83433,2,0,B|320:248|264:248,2,67.4999979883433
368,200,84236,2,0,B|432:152|368:72,1,134.999995976687,2|0
320,80,85040,1,0
264,80,85308,6,0,B|128:80,2,134.999995976687,2|0|0
264,136,86647,2,0,B|400:136,2,134.999995976687
208,136,87986,1,2
152,136,88254,2,0,B|152:272,2,134.999995976687
208,136,89593,2,0,B|208:208,1,67.4999979883433,0|2
208,256,90129,1,0
264,256,90397,1,2
288,256,90531,1,0
312,256,90665,1,4
424,136,91468,5,0
464,96,91736,1,0
424,56,92004,1,0
368,56,92272,2,0,B|320:128|376:200,2,134.999995976687,0|2|0
256,56,93879,2,0,B|304:128|248:200,2,134.999995976687,0|0|2
200,56,95218,2,0,B|128:56,2,67.4999979883433
200,168,96289,2,0,B|296:168,2,67.4999979883433
144,168,97093,1,2
144,224,97361,5,0
144,280,97629,1,0
144,336,97896,1,0
200,336,98164,2,0,B|200:272,2,33.7499989941716,0|0|2
224,336,98566,2,0,B|272:336,2,33.7499989941716,0|0|2
200,336,98968,2,0,B|136:336,2,33.7499989941716,0|2|0
312,336,99771,6,0,B|312:240,2,67.4999979883433
256,336,100575,2,0,B|256:248,1,67.4999979883433,0|8
256,216,101111,1,0
256,160,101378,1,0
312,160,101646,2,0,B|376:96|304:40,2,134.999995976687
312,216,102985,1,8
256,216,103253,5,0
232,216,103387,1,0
208,216,103521,2,2,B|152:216,2,33.7499989941716
208,160,104057,2,2,B|208:112,2,33.7499989941716
264,160,104593,1,0
320,160,104860,2,0,B|320:240,2,67.4999979883433,0|8|0
320,104,105664,1,0
208,104,106200,6,0,B|248:144,2,33.7499989941716,0|0|2
160,128,106735,2,0,B|128:96,2,33.7499989941716,0|0|2
208,160,107271,2,0,B|240:192,4,33.7499989941716,0|0|2|0|4
80,256,108610,5,0
80,312,108878,1,0
120,344,109146,1,0
168,328,109414,2,0,B|216:320|192:248,1,67.4999979883433,8|0
216,224,109950,2,0,B|264:232|240:304,1,67.4999979883433
304,272,110485,1,8
360,272,110753,2,0,B|360:200,1,67.4999979883433
304,208,111289,2,0,B|304:112,3,67.4999979883433,0|8|0|4
256,40,112628,6,0,B|176:40,1,67.4999979883433,0|2
216,88,113164,2,0,B|296:88,1,67.4999979883433
256,136,113699,2,0,B|176:136,1,67.4999979883433,0|2
136,136,114235,1,0
88,160,114503,1,0
120,208,114771,1,0
88,248,115039,1,0
136,280,115306,1,0
192,280,115574,5,0
216,272,115708,1,0
240,256,115842,1,0
256,232,115976,1,0
264,208,116110,1,0
264,184,116244,1,0
256,160,116378,1,4
120,120,116914,5,0
48,120,117181,2,0,B|48:232,1,90
120,184,117717,2,0,B|224:184,1,90,0|8
176,248,118253,2,0,B|288:248,1,90
336,248,118788,1,0
368,248,118922,1,0
400,248,119056,1,8
400,176,119324,2,0,B|400:120,4,45
344,136,120128,2,0,B|344:192,4,45,8|0|0|0|0
272,64,121199,5,8
200,64,121467,2,0,B|136:104|208:168,1,90
256,144,122003,2,0,B|320:184|248:248,1,90,0|8
200,216,122538,2,0,B|136:256|208:320,1,90
256,296,123074,2,0,B|288:360|336:296,1,90,0|8
400,296,123610,2,0,B|400:240,2,45
328,296,124145,1,4
328,80,124949,6,0,B|240:16|160:80,1,180,0|8
208,128,125752,1,0
280,128,126020,2,0,B|368:192|448:128,1,180,0|8
448,56,126824,1,0
416,56,126958,1,0
376,56,127092,1,0
304,56,127360,2,0,B|240:56,4,45,0|0|8|0|0
304,88,128029,1,0
304,120,128163,1,4
304,264,128699,5,0
304,232,128833,1,0
304,200,128967,1,0
376,200,129234,1,4
448,200,129502,1,0
448,232,129636,1,0
448,264,129770,1,0
376,272,130038,5,0
376,200,130306,2,0,B|376:112,2,90,0|0|8
376,272,131109,2,0,B|376:360,2,90
304,272,131913,1,8
232,272,132181,2,0,B|176:200|232:96,1,180
304,96,132984,1,8
256,40,133252,1,8
224,24,133386,1,0
192,40,133520,1,4
80,128,134056,5,0
80,200,134324,1,0
80,232,134457,1,0
128,280,134725,1,0
128,280,134859,1,0
128,280,134993,1,0
128,280,135127,1,8
200,280,135395,1,0
200,280,135529,1,0
200,280,135663,1,0
272,280,135931,2,0,B|360:280,1,90,0|8
400,208,136466,6,0,B|312:208,1,90
312,136,137002,2,0,B|432:136,1,90,0|8
400,64,137538,1,0
256,192,137806,12,4,139948
384,72,140484,5,0
312,72,140752,1,0
272,72,140886,1,0
240,72,141020,1,0
168,72,141288,1,0
96,72,141555,1,8
96,144,141823,2,0,B|96:248,1,90
208,144,142627,5,8
280,144,142895,2,0,B|336:144,4,45
280,216,143698,1,8
208,216,143966,2,0,B|104:216,1,90
40,336,144770,5,8
88,288,145037,1,0
184,184,145573,2,0,B|120:256,1,90,0|8
184,288,146109,1,0
232,240,146377,1,0
336,344,146912,1,8
448,256,147448,5,0
472,224,147582,1,0
488,192,147716,1,8
480,152,147850,1,0
456,128,147984,1,8
384,128,148252,2,0,B|280:128,1,90
160,120,149055,5,0
88,120,149323,2,0,B|88:240,1,90,8|0
160,208,149859,1,0
232,208,150126,1,8
376,208,150662,1,4
376,64,151198,6,0,B|376:144,2,45
304,64,151734,1,0
272,64,151867,1,0
240,64,152001,1,8
168,64,152269,2,0,B|80:64,2,90,8|0|0
128,200,153341,6,0,B|168:88,1,90,0|8
208,168,153876,2,0,B|240:80,1,90
296,128,154412,2,0,B|328:32,1,90,8|0
376,96,154948,2,0,B|408:8,1,90,0|4
472,48,155483,5,0
472,88,155617,1,0
472,128,155751,1,8
472,168,155885,1,0
472,208,156019,1,8
472,280,156287,2,0,B|472:328,6,45,0|0|0|0|0|0|6
256,112,165126,6,0,B|256:208,1,67.4999979883433,2|0
256,248,165662,1,0
328,248,165929,2,0,B|328:160,1,90,0|2
328,88,166465,1,0
472,88,167001,2,0,B|512:192|432:256,2,180
400,88,168340,1,2
328,88,168608,2,0,B|224:88,3,90,0|0|0|2
168,88,169679,2,0,B|72:160|152:256,2,180
240,88,171019,2,0,B|336:160|256:256,2,180,2|0|0
224,160,172358,1,0
224,160,172626,2,0,B|128:216|200:320,1,180,2|0
264,312,173429,5,0
264,240,173697,1,2
336,240,173965,2,0,B|336:296,2,45
392,280,174501,2,0,B|392:232,4,45,0|0|2|0|0
464,288,175304,1,0
464,216,175572,2,0,B|464:112,2,90,0|2|0
392,216,176375,2,0,B|312:288|224:216,2,180,0|2|0
320,200,177715,2,0,B|400:128|488:200,2,180
248,200,179054,1,2
176,200,179322,2,0,B|120:160|184:112,2,90
248,200,180125,2,0,B|304:240|240:288,2,90,2|0|0
72,72,181197,5,0
120,128,181465,1,2
176,176,181732,2,0,B|248:240,1,90
304,280,182268,1,2
328,304,182402,1,0
360,328,182536,2,0,B|408:376,2,45
424,288,183072,5,0
424,216,183339,2,0,B|424:128,1,90,0|2
368,80,183875,2,0,B|368:184,1,90
312,216,184411,2,0,B|312:112,1,90,0|2
256,80,184947,2,0,B|168:144|224:240,2,180
328,80,186286,1,0
328,152,186554,1,2
184,152,187089,6,0,B|240:152,2,45,0|2|0
184,224,187625,1,2
184,224,187759,1,2
152,224,187893,1,0
152,224,188027,1,0
152,224,188161,1,0
80,224,188429,2,0,B|80:128,3,90,0|2|0|0
208,72,189768,5,2
352,72,190303,1,2
320,72,190437,1,0
280,72,190571,1,0
280,144,190839,1,2
248,144,190973,1,0
208,144,191107,1,0
136,144,191375,1,4
72,272,191911,5,2
72,304,192044,1,0
104,320,192178,2,0,B|200:368|296:320,1,180
344,304,192982,1,2
416,304,193250,2,0,B|416:208,2,90
344,304,194053,1,2
272,304,194321,2,0,B|184:248|88:304,1,180
32,296,195125,1,2
32,224,195393,2,0,B|120:224,1,90
336,224,196464,6,0,B|216:224,1,90
176,224,197000,1,0
176,152,197267,2,0,B|280:152,1,90,2|0
336,152,197803,1,0
400,112,198071,1,0
464,152,198339,1,0
400,192,198607,2,0,B|400:288,1,90
328,280,199142,6,0,B|328:336,2,45
328,240,199544,1,0
304,208,199678,1,0
272,192,199812,1,0
232,192,199946,1,4
184,160,200214,5,0
176,136,200348,1,0
184,112,200482,1,8
200,88,200616,1,0
224,72,200749,1,0
248,72,200883,1,0
272,88,201017,1,8
288,104,201151,2,0,B|320:136,7,45,0|0|0|0|0|0|0|4
376,184,202357,5,8
320,232,202624,2,0,B|264:304|144:272,1,180
96,240,203428,1,0
96,168,203696,2,0,B|192:168,1,90,8|0
184,240,204231,1,0
256,240,204499,2,0,B|256:152,1,90,0|8
256,80,205035,1,0
288,80,205169,1,0
320,80,205303,1,0
392,80,205571,2,0,B|440:80,6,45,0|0|8|0|0|0|4
392,152,206642,5,0
320,152,206910,2,0,B|256:232|320:320,1,180,8|0
248,320,207713,2,0,B|184:240|248:152,1,180,0|0
296,96,208517,1,0
224,96,208785,2,0,B|112:96,1,90,0|8
112,160,209321,2,0,B|168:160,2,45
184,160,209856,1,4
408,96,210660,6,0,B|304:96|256:184,1,180,0|8
216,240,211463,1,0
288,240,211731,2,0,B|344:272|288:336,1,90
376,320,212267,2,0,B|432:288|376:224,1,90,8|0
464,240,212803,2,0,B|520:272|464:336,1,90
408,320,213338,1,8
336,320,213606,2,0,B|280:320,4,45
336,248,214410,1,8
336,176,214677,5,0
336,104,214945,2,0,B|240:104,1,90
176,104,215481,1,8
104,104,215749,2,0,B|40:136|104:208,1,90
152,184,216285,2,0,B|200:184,4,45,0|0|8|0|0
80,184,217088,1,0
80,256,217356,2,0,B|80:352,3,90,0|8|0|0
152,344,218427,2,0,B|152:256,1,90,0|8
224,256,218963,2,0,B|224:304,2,45,0|0|4
368,256,219767,5,0
368,184,220034,1,0
368,144,220168,1,0
368,112,220302,1,8
296,112,220570,2,0,B|256:152|304:200,1,90,0|8
368,216,221106,1,0
368,288,221374,2,0,B|288:344|192:280,2,180,0|8|0
416,232,222713,1,0
416,160,222981,2,0,B|312:160,1,90,8|0
184,160,223784,6,0,B|296:160,1,90,0|8
272,88,224320,1,0
240,64,224454,1,0
208,56,224588,1,8
176,56,224722,1,0
144,64,224856,1,0
112,80,224990,1,8
80,96,225124,2,8,B|40:128,4,45
88,168,225927,5,0
32,216,226195,1,8
48,288,226463,1,0
96,344,226731,2,0,B|208:344,1,90
256,344,227266,1,8
256,344,227400,1,0
256,344,227534,1,0
328,344,227802,2,0,B|416:344,1,90
416,272,228338,1,8
344,272,228606,2,0,B|280:272,4,45
344,200,229409,2,0,B|400:200,4,45,8|0|0|0|0
200,200,230480,5,8
128,200,230748,2,0,B|128:104,1,90
200,112,231284,1,0
272,112,231552,1,8
296,144,231686,1,0
280,176,231820,1,0
240,232,232088,2,0,B|192:272|240:320,1,90
304,312,232623,2,0,B|360:312,2,45,8|0|0
232,312,233159,1,0
160,312,233427,1,4
160,96,234230,6,0,B|72:176|176:248,1,180,0|8
240,248,235034,1,0
272,248,235168,1,0
312,248,235302,1,0
384,248,235570,1,0
384,176,235837,2,0,B|384:224,2,45,8|0|0
384,104,236373,2,0,B|384:160,4,45,0|0|0|0|8
312,104,237177,2,0,B|264:104,4,45
240,104,237980,1,8
168,104,238248,6,0,B|168:208,1,90
168,264,238784,1,0
240,264,239052,2,0,B|240:168,1,90,8|0
240,104,239587,1,0
312,104,239855,2,0,B|384:176|320:272,1,180
272,320,240659,1,0
200,320,240926,1,0
128,320,241194,2,0,B|32:320,1,90,8|0
40,248,241730,5,0
40,176,241998,1,0
40,104,242266,1,8
72,104,242400,1,0
104,104,242534,1,0
136,104,242667,1,0
168,104,242801,1,4
240,104,243069,5,0
312,104,243337,2,0,B|416:104,1,90,8|0
432,168,243873,2,0,B|336:168,1,90
312,232,244408,2,0,B|424:232,1,90,8|0
472,232,244944,2,0,B|472:280,2,45
416,280,245480,2,0,B|360:280,4,45,8|0|0|0|0
344,280,246283,2,0,B|232:280,1,90,0|8
256,192,246819,12,4,249230
