osu file format v9

[General]
AudioFilename: -----------MIX-.mp3
AudioLeadIn: 0
PreviewTime: 52095
Countdown: 0
SampleSet: Soft
StackLeniency: 0.7
Mode: 0
LetterboxInBreaks: 1

[Editor]
DistanceSpacing: 0.8
BeatDivisor: 2
GridSize: 16

[Metadata]
Title:Sweet Garden
Artist:Haruna Yumi
Creator:jusufkala
Version:Easy
Source:A Kiss For The Petal, The Joy Of Loving You
Tags:

[Difficulty]
HPDrainRate:3
CircleSize:3
OverallDifficulty:3
ApproachRate:2
SliderMultiplier:1.2
SliderTickRate:2

[Events]
//Background and Video events
0,0,"BG(Easy).png"
//Break Periods
2,75865,80533
2,157290,164102
//Storyboard Layer 0 (Background)
//Storyboard Layer 1 (Fail)
//Storyboard Layer 2 (Pass)
//Storyboard Layer 3 (Foreground)
//Storyboard Sound Samples
//Background Colour Transformations
3,100,163,162,255

[TimingPoints]
9239.71874958274,535.693029490617,4,2,0,50,1,0
17810,-100,4,2,0,35,0,0
44059,-100,4,2,0,60,0,0
52095,-100,4,1,0,60,0,1
75665,-100,4,1,0,60,0,0
82093,-100,4,2,0,50,0,0
114235,-100,4,1,0,60,0,0
139948,-100,4,1,0,60,0,0
157090,-100,4,2,0,20,0,0
165662,-100,4,2,0,40,0,0
199946,-100,4,1,0,70,0,0
202089,-100,4,1,0,60,0,1
225659,-100,4,1,0,60,0,0

[Colours]
Combo1 : 47,151,255
Combo2 : 255,164,255
Combo3 : 128,128,255
Combo4 : 255,255,255

[HitObjects]
256,192,15668,12,0,17810
256,192,18882,5,0
448,192,19953,1,0
256,192,21024,1,0
64,192,22096,2,0,B|0:288|64:384,2,180
160,192,24239,2,0,B|224:128|160:0,2,180
256,192,26381,6,0,B|192:256|288:320,2,120,2|0|0
352,192,27988,1,0
448,192,28524,2,0,B|512:256|416:320,2,120
352,192,30131,2,0,B|96:192,2,240
256,128,32810,2,0,B|512:128,2,240,0|0|6
256,224,35488,5,0
160,224,36024,1,0
160,128,36560,2,0,B|160:192,2,60
352,64,38167,2,0,B|256:160|416:192|352:288,1,240
128,192,40577,6,0,B|64:288|128:384,1,180
288,352,41916,1,2
448,352,42452,2,0,B|448:256,1,60,0|0
400,208,42988,2,0,B|400:144,2,60
352,224,44595,5,0
256,224,45131,1,0
160,224,45666,2,0,B|96:224,2,60
160,176,46470,2,0,B|160:48,2,120,0|0|0
352,128,48613,6,0,B|448:128,1,60
352,192,49148,1,0
352,192,49416,2,0,B|256:192,1,60,2|0
256,192,49952,12,4,52095
256,64,52630,6,0,B|160:128|288:192,2,120,0|0|8
320,160,54237,2,0,B|416:224|288:288,2,120
224,160,55845,2,0,B|96:160,1,120,8|0
128,256,56916,5,0
224,256,57452,1,0
320,256,57987,2,0,B|448:256,2,120,8|0|8
224,256,59594,2,0,B|128:224|224:128,2,120,0|8|0
320,256,61201,5,8
320,160,61737,2,0,B|320:32,2,120
384,128,63344,1,8
384,128,63880,2,0,B|384:256,1,120
288,320,64951,6,0,B|160:320,1,120,0|8
128,256,66023,2,0,B|256:256,1,120,0|8
320,192,67094,2,4,B|192:192,2,120,4|0|4
384,128,68701,2,0,B|256:128,1,120,8|12
160,128,69773,5,0
64,128,70308,2,0,B|0:192|96:256,1,120,0|8
160,224,71380,2,0,B|224:288|128:352,1,120,0|8
64,288,72451,1,0
64,288,72719,1,0
64,288,72987,2,0,B|64:128,3,120,8|0|8|0
64,64,75129,1,4
160,64,75665,1,4
256,192,82093,5,0
64,192,83165,1,0
256,192,84236,2,0,B|320:224|384:192,2,120
64,192,86379,2,0,B|160:320|320:288,1,240,0|2
448,320,88522,2,0,B|352:192|192:224,1,240,0|2
256,32,90665,5,0
256,224,91736,2,0,B|256:96,1,120,0|2
352,160,92807,2,0,B|352:320,1,120
256,288,93879,2,0,B|128:352|0:256,2,240
256,192,96557,2,0,B|384:192,1,120
32,32,99236,6,0,B|160:32,2,120,0|2|0
32,128,100843,1,2
128,128,101378,2,0,B|256:128,2,120,0|2|0
128,224,102985,1,2
224,224,103521,6,0,B|224:384,1,120,0|2
320,288,104593,2,0,B|320:160,1,120,0|2
320,64,105664,1,0
416,64,106200,2,0,B|416:192,2,120,2|0|2
320,64,107807,1,4
224,64,108342,6,0,B|128:160|192:288,1,240
224,384,109950,2,0,B|320:288|256:160,1,240
160,160,111557,1,0
64,160,112092,1,6
64,256,112628,6,0,B|192:256,1,120
288,256,113699,1,0
384,256,114235,1,0
384,160,114771,2,0,B|384:64,6,60,0|0|0|0|0|0|4
288,160,116914,5,0
192,160,117449,2,0,B|32:160,2,120
256,224,119056,2,0,B|96:224,2,120,8|0|0
352,224,120663,1,0
352,320,121199,5,8
288,256,121735,1,0
224,320,122270,1,8
160,256,122806,1,0
96,320,123342,2,0,B|32:240|96:144,2,180,0|8|0
192,304,125485,5,0
288,272,126020,1,0
256,160,126556,2,0,B|224:224|128:192,2,120,8|0|0
176,112,128163,1,0
224,32,128699,6,0,B|64:32,1,120,8|0
176,112,129770,2,0,B|304:112,1,120,8|0
368,176,130842,2,0,B|368:336|208:304,2,240
464,176,133520,1,4
352,96,134056,6,0,B|224:32|96:128,2,240
416,160,136734,1,0
416,256,137270,2,0,B|384:320|288:288,1,120,8|0
224,256,138341,2,0,B|96:256,3,120,0|0|0|4
96,64,141020,5,0
288,64,142091,1,0
480,64,143162,2,0,B|352:64,2,120,0|8|0
480,256,145305,5,0
288,256,146377,1,0
96,256,147448,2,0,B|128:192|224:224,2,120,0|8|0
96,64,149591,5,0
288,64,150662,1,0
288,256,151734,2,0,B|288:176,2,60
288,160,152805,1,4
448,192,153876,6,0,B|448:64,1,120,0|8
384,160,154948,2,0,B|384:320,1,120,0|8
320,224,156019,2,0,B|320:128,4,60,0|0|0|0|6
256,32,165662,5,0
448,32,166733,2,0,B|512:160|384:256,2,240
256,32,169947,2,0,B|416:32,2,120
256,224,172090,2,0,B|256:96,3,120
160,288,174233,6,0,B|208:160|80:160|160:32,2,240
160,288,176911,1,2
256,288,177447,2,0,B|352:352|512:288,2,240
160,288,180125,2,0,B|160:160,1,120
256,32,182804,5,0
256,128,183339,2,0,B|256:256,2,120,0|0|2
352,128,184947,1,0
352,224,185482,2,0,B|352:352,2,120,0|0|2
256,224,187089,6,0,B|128:224,1,120,0|2
64,160,188161,2,0,B|192:160,1,120,0|2
288,160,189232,1,0
384,160,189768,2,0,B|384:288,1,120,2|0
288,288,190839,2,0,B|192:288,2,60
192,288,191911,6,0,B|96:192|192:64,1,240,4|0
288,64,193518,2,0,B|192:160|288:288,1,240
416,160,195660,1,4
416,256,196196,6,0,B|320:256,2,60,2|0|0
416,160,197267,2,0,B|416:64,2,60,2|0|0
320,160,198339,2,0,B|320:256,2,60,0|0|2
320,64,199410,2,2,B|416:64,2,60,2|2|4
224,64,200482,5,0
128,64,201017,1,0
128,112,201285,2,0,B|128:208,3,60,0|0|0|4
224,192,202624,6,0,B|384:192|448:320,2,240
128,224,205303,1,0
128,128,205839,2,0,B|128:64,2,60,8|0|0
224,128,206910,6,0,B|224:208,2,60,0|0|0
320,128,207981,2,0,B|384:96|448:144,3,120,8|0|0|0
368,192,210124,2,0,B|416:240|368:336,1,120
288,192,211195,5,0
288,192,211731,2,0,B|288:320,2,120,0|8|0
352,128,213338,2,0,B|352:256,2,120,0|0|8
352,32,214945,1,0
160,32,216017,5,0
256,32,216552,2,0,B|256:192,2,120,0|0|8
160,32,218160,2,0,B|32:128|128:256,1,240
224,256,219767,5,0
320,256,220302,2,0,B|352:288|400:256|400:256|448:256,2,120,0|8|0
320,160,221909,1,0
320,64,222445,2,0,B|224:64,4,60,0|0|8|0|0
416,64,224052,5,0
416,160,224588,1,0
416,256,225124,1,0
416,352,225659,1,4
320,352,226195,6,0,B|320:256|224:224|160:256|128:352,1,240,0|8
96,224,227802,2,0,B|96:128|192:96|256:128|288:224,1,240
320,256,229409,2,0,B|384:288|448:224,1,120,8|0
448,128,230480,5,0
448,32,231016,2,0,B|400:16|368:48|368:48|320:32,1,120,0|8
400,112,232088,2,0,B|368:128|368:128|336:96|272:112,1,120,0|8
304,208,233159,2,0,B|256:240|176:208,1,120,0|8
96,160,234230,1,0
96,256,234766,5,0
192,256,235302,2,0,B|448:256,2,240,0|0|0
192,160,237980,6,0,B|192:96,2,60,8|0|0
288,160,239052,2,0,B|288:256,2,60,8|0|0
384,160,240123,1,0
480,160,240659,2,0,B|416:240|512:256|480:352,2,180
480,64,242801,1,4
384,64,243337,5,0
288,64,243873,1,0
192,64,244408,1,8
96,64,244944,1,0
96,160,245480,5,0
192,160,246016,1,0
288,160,246551,1,8
256,192,247087,12,4,249230
