osu file format v14

[General]
AudioFilename: ost.mp3
AudioLeadIn: 0
PreviewTime: 55817
Countdown: 0
SampleSet: Soft
StackLeniency: 0.7
Mode: 0
LetterboxInBreaks: 0
WidescreenStoryboard: 0

[Editor]
DistanceSpacing: 2
BeatDivisor: 4
GridSize: 4
TimelineZoom: 1.9

[Metadata]
Title:TRUE STORY
TitleUnicode:TRUE STORY
Artist:Haruna Luna
ArtistUnicode:春奈るな
Creator:- Suwako -
Version:Extra
Source:アキバズトリップ2
Tags:akiba's trip 2 undead and undressed opening アキバズトリップ video game [ shana yami ] noz1995 [-AKiTOSHi-]
BeatmapID:760178
BeatmapSetID:344057

[Difficulty]
HPDrainRate:7
CircleSize:4
OverallDifficulty:8
ApproachRate:9
SliderMultiplier:1.8
SliderTickRate:1

[Events]
//Background and Video events
0,0,"bg.jpg",0,0
//Break Periods
2,53401,54694
//Storyboard Layer 0 (Background)
//Storyboard Layer 1 (Fail)
//Storyboard Layer 2 (Pass)
//Storyboard Layer 3 (Foreground)
//Storyboard Sound Samples

[TimingPoints]
-171,348.837209302326,4,2,0,70,1,0
8549,-100,4,2,0,70,0,0
9247,-100,4,2,0,75,0,0
9945,-100,4,2,0,80,0,0
10642,-100,4,2,0,85,0,0
11340,-100,4,2,0,70,0,0
15526,-100,4,2,0,50,0,0
16922,-100,4,2,0,50,0,0
35061,-100,4,2,0,60,0,0
36456,-100,4,2,0,70,0,0
39247,-133.333333333333,4,2,0,60,0,0
44829,-100,4,2,0,70,0,0
55294,-100,4,2,0,40,0,0
55991,-100,4,2,0,70,0,1
66456,-100,4,2,0,50,0,1
66805,-100,4,2,0,50,0,0
67154,-100,4,2,0,70,0,1
72735,-100,4,2,0,70,0,0
83549,-200,4,2,0,40,0,0
83898,-100,4,2,0,70,0,0
87212,-83.3333333333333,4,2,0,70,0,0

[Colours]
Combo1 : 255,0,0
Combo2 : 53,238,99
Combo3 : 255,255,0
Combo4 : 0,255,255

[HitObjects]
256,192,2968,12,0,5410,0:0:0:0:
64,188,5759,6,0,L|172:188,1,90
308,92,6108,2,0,L|208:92,1,90,8|0,0:0|0:0,0:0:0:0:
36,88,6456,1,0,0:0:0:0:
160,32,6631,1,0,0:0:0:0:
164,256,6805,1,8,0:0:0:0:
36,212,6980,1,0,0:0:0:0:
230,203,7154,6,0,B|270:203|270:203|274:207|274:207|334:207,1,90
459,96,7503,2,0,B|417:96|417:96|412:100|412:100|365:100,1,90,8|0,0:0|0:0,0:0:0:0:
189,106,7852,1,0,0:0:0:0:
350,26,8026,1,0,0:0:0:0:
88,84,8201,1,8,0:0:0:0:
252,9,8375,1,0,0:0:0:0:
136,148,8549,6,0,L|116:248,1,90
296,212,8898,1,8,0:0:0:0:
184,72,9073,1,0,0:0:0:0:
56,192,9247,6,0,L|88:296,1,90
272,180,9596,1,8,0:0:0:0:
88,68,9770,1,0,0:0:0:0:
36,268,9945,6,0,L|132:360,1,90
256,140,10294,1,8,0:0:0:0:
4,128,10468,1,0,0:0:0:0:
196,292,10642,5,0,0:0:0:0:
164,44,10817,1,0,0:0:0:0:
352,244,10991,1,8,0:0:0:0:
396,224,11079,1,0,0:0:0:0:
424,188,11166,1,0,0:0:0:0:
428,140,11253,1,0,0:0:0:0:
416,96,11340,6,0,P|360:48|312:44,1,90
256,200,11689,2,0,P|316:160|332:132,1,90,8|0,0:0|0:0,0:0:0:0:
184,36,12038,1,0,0:0:0:0:
152,168,12212,1,0,0:0:0:0:
268,104,12387,2,0,P|296:52|292:12,1,90,8|0,0:0|0:0,0:0:0:0:
80,48,12735,5,0,0:0:0:0:
216,44,12910,1,0,0:0:0:0:
120,140,13084,2,0,P|72:148|20:132,1,90,8|0,0:0|0:0,0:0:0:0:
208,96,13433,2,0,P|220:152|200:204,1,90
32,138,13782,1,8,0:0:0:0:
164,16,13956,1,0,0:0:0:0:
301,121,14131,6,0,L|397:120,1,90
236,8,14480,1,8,0:0:0:0:
390,120,14654,1,0,0:0:0:0:
212,164,14829,1,0,0:0:0:0:
390,120,15003,1,0,0:0:0:0:
144,28,15177,1,8,0:0:0:0:
340,188,15352,1,0,0:0:0:0:
92,144,15526,5,8,0:0:0:0:
324,44,15701,1,0,0:0:0:0:
204,264,15875,1,0,0:0:0:0:
128,24,16049,1,0,0:0:0:0:
128,24,16398,5,0,0:0:0:0:
296,88,16573,1,0,0:0:0:0:
320,116,16660,1,0,0:0:0:0:
336,148,16747,1,0,0:0:0:0:
336,184,16834,1,0,0:0:0:0:
332,220,16922,6,0,B|276:224|256:236|256:236|236:216,1,90,4|0,0:0|0:0,0:0:0:0:
144,140,17270,2,0,B|192:136|224:148|224:148|232:132,1,90,8|0,0:0|0:0,0:0:0:0:
332,52,17619,2,0,B|288:40|252:48|252:48|232:24,1,90
112,24,17968,1,8,0:0:0:0:
52,144,18142,1,0,0:0:0:0:
152,232,18317,6,0,L|180:136,1,90
296,48,18666,2,0,L|336:152,1,90,8|0,0:0|0:0,0:0:0:0:
400,268,19015,1,0,0:0:0:0:
461,118,19189,1,0,0:0:0:0:
315,225,19363,1,8,0:0:0:0:
452,340,19538,1,0,0:0:0:0:
396,168,19712,6,0,P|384:112|400:64,1,90
448,252,20061,2,0,P|384:264|332:232,1,90,8|0,0:0|0:0,0:0:0:0:
256,172,20410,1,0,0:0:0:0:
232,304,20584,1,0,0:0:0:0:
148,200,20759,2,0,P|88:184|44:196,1,90,8|0,0:0|0:0,0:0:0:0:
64,360,21108,6,0,P|96:308|88:268,1,90
28,164,21456,1,8,0:0:0:0:
12,296,21631,1,0,0:0:0:0:
168,204,21805,1,0,0:0:0:0:
260,360,21980,1,0,0:0:0:0:
344,252,22154,2,0,L|364:160,1,90,8|0,0:0|0:0,0:0:0:0:
272,32,22416,1,0,0:0:0:0:
272,32,22503,6,0,L|280:148,1,90,4|0,0:0|0:0,0:0:0:0:
200,232,22852,1,8,0:0:0:0:
168,112,23026,1,0,0:0:0:0:
60,204,23201,1,0,0:0:0:0:
100,28,23375,1,0,0:0:0:0:
272,76,23549,1,8,0:0:0:0:
232,252,23724,1,0,0:0:0:0:
232,252,23811,1,0,0:0:0:0:
232,252,23898,6,0,L|356:268,1,90
212,168,24247,2,0,P|160:200|144:248,1,90,8|0,0:0|0:0,0:0:0:0:
248,328,24596,2,0,P|244:264|228:240,1,90
104,172,24945,1,8,0:0:0:0:
172,300,25119,1,0,0:0:0:0:
172,300,25206,1,0,0:0:0:0:
172,300,25294,6,0,L|272:272,1,90
400,164,25642,2,0,L|300:120,1,90,8|0,0:0|0:0,0:0:0:0:
164,28,25991,2,0,B|112:96|164:164|164:164|128:192,1,180,0|8,0:0|0:0,0:0:0:0:
40,92,26515,1,0,0:0:0:0:
220,96,26689,6,0,L|320:96,1,90
236,260,27038,2,0,L|264:160,1,90,8|0,0:0|0:0,0:0:0:0:
328,4,27387,1,0,0:0:0:0:
420,160,27561,1,0,0:0:0:0:
452,0,27735,1,8,0:0:0:0:
316,116,27910,1,0,0:0:0:0:
468,228,28084,6,0,L|480:332,2,90,4|0|8,0:0|0:0|0:0,0:0:0:0:
296,280,28608,2,0,P|236:280|200:256,1,90
288,104,28956,1,0,0:0:0:0:
392,248,29131,1,8,0:0:0:0:
204,100,29305,6,0,B|240:-4|360:44,1,180
348,40,29829,1,8,0:0:0:0:
476,100,30003,2,0,P|496:164|452:288,1,180
307,171,30526,1,8,0:0:0:0:
312,176,30701,1,0,0:0:0:0:
256,264,30875,5,0,0:0:0:0:
312,176,31049,1,0,0:0:0:0:
364,268,31224,1,8,0:0:0:0:
256,264,31398,2,0,L|156:292,1,90
311,176,31747,2,0,L|311:72,1,90,0|8,0:0|0:0,0:0:0:0:
364,268,32096,2,0,L|451:300,1,90
255,262,32445,5,0,0:0:0:0:
311,176,32619,1,8,0:0:0:0:
364,268,32794,1,0,0:0:0:0:
168,288,32968,5,0,0:0:0:0:
311,86,33142,1,0,0:0:0:0:
448,299,33317,1,8,0:0:0:0:
300,196,33491,1,0,0:0:0:0:
172,236,33666,6,0,P|112:248|24:176,1,180,4|8,0:0|0:0,0:0:0:0:
164,64,34189,2,0,L|116:168,1,90
44,304,34538,1,0,0:0:0:0:
220,268,34712,1,8,0:0:0:0:
380,348,34887,1,0,0:0:0:0:
380,348,34974,1,0,0:0:0:0:
380,348,35061,6,0,L|428:240,1,90
336,108,35410,2,0,L|336:216,1,90,8|0,0:0|0:0,0:0:0:0:
476,316,35759,1,0,0:0:0:0:
428,140,35933,1,0,0:0:0:0:
304,268,36108,1,8,0:0:0:0:
280,300,36195,1,0,0:0:0:0:
244,316,36282,1,0,0:0:0:0:
204,320,36369,1,0,0:0:0:0:
164,308,36456,6,0,L|104:216,1,90,12|0,0:0|0:0,0:0:0:0:
280,164,36805,1,0,0:0:0:0:
100,284,36980,6,0,L|84:176,1,90,12|0,0:0|0:0,0:0:0:0:
296,212,37329,1,0,0:0:0:0:
48,260,37503,6,0,L|48:132,1,90,12|0,0:0|0:0,0:0:0:0:
276,248,37852,1,0,0:0:0:0:
212,4,38026,1,12,0:0:0:0:
212,4,38375,6,0,L|316:36,1,90
424,156,38724,1,0,0:0:0:0:
424,156,38811,1,0,0:0:0:0:
424,156,38898,1,8,0:0:0:0:
424,20,39073,1,0,0:0:0:0:
288,144,39247,6,0,P|208:152|144:120,1,135.000005149842,4|0,0:0|0:0,0:0:0:0:
284,188,39770,2,0,P|224:172|180:104,1,135.000005149842,2|0,0:0|0:0,0:0:0:0:
296,40,40294,1,8,0:0:0:0:
388,140,40468,1,0,0:0:0:0:
268,272,40642,6,0,P|244:204|264:132,1,135.000005149842,4|0,0:0|0:0,0:0:0:0:
224,276,41166,2,0,P|248:200|296:168,1,135.000005149842,2|0,0:0|0:0,0:0:0:0:
368,280,41689,1,8,0:0:0:0:
384,144,41863,1,0,0:0:0:0:
164,168,42038,6,0,P|96:172|24:136,1,135.000005149842,2|0,0:0|0:0,0:0:0:0:
116,88,42561,2,0,B|100:132|100:132|112:160|112:160|96:180|104:240,1,135.000005149842,2|0,0:0|0:0,0:0:0:0:
96,352,43084,1,8,0:0:0:0:
96,352,43259,1,0,0:0:0:0:
220,292,43433,6,0,P|280:308|296:328,2,67.5000025749208,4|0|0,0:0|0:0|0:0,0:0:0:0:
220,292,43956,2,0,P|200:224|244:144,1,135.000005149842,2|0,0:0|0:0,0:0:0:0:
340,228,44480,1,8,0:0:0:0:
320,92,44654,1,0,0:0:0:0:
148,144,44829,6,0,L|44:152,1,90
200,40,45177,1,8,0:0:0:0:
204,220,45352,2,0,L|312:224,1,90
412,88,45701,1,0,0:0:0:0:
236,136,45875,1,8,0:0:0:0:
312,24,46049,1,0,0:0:0:0:
352,200,46224,6,0,L|368:296,1,90
192,248,46573,1,8,0:0:0:0:
304,104,46747,2,0,P|356:92|412:124,1,90
380,284,47096,1,0,0:0:0:0:
500,148,47270,1,8,0:0:0:0:
500,108,47358,1,0,0:0:0:0:
488,72,47445,1,0,0:0:0:0:
460,44,47532,1,0,0:0:0:0:
420,36,47619,6,0,L|312:36,1,90
220,180,47968,1,8,0:0:0:0:
232,36,48142,1,0,0:0:0:0:
332,200,48317,6,0,L|440:212,1,90
248,104,48666,1,8,0:0:0:0:
256,248,48840,1,0,0:0:0:0:
128,192,49015,6,0,P|84:192|28:232,1,90
380,192,49363,2,0,P|432:200|472:240,1,90,8|0,0:0|0:0,0:0:0:0:
284,276,49712,1,0,0:0:0:0:
228,104,49887,1,0,0:0:0:0:
220,324,50061,1,8,0:0:0:0:
292,56,50235,1,0,0:0:0:0:
120,184,50410,5,0,0:0:0:0:
324,120,50584,1,0,0:0:0:0:
120,180,50759,1,8,0:0:0:0:
360,264,50933,1,0,0:0:0:0:
120,184,51108,5,0,0:0:0:0:
392,96,51282,1,0,0:0:0:0:
120,184,51456,1,8,0:0:0:0:
424,272,51631,1,0,0:0:0:0:
112,184,51805,5,0,0:0:0:0:
460,88,51980,1,0,0:0:0:0:
256,348,52154,1,8,0:0:0:0:
264,24,52329,1,0,0:0:0:0:
456,284,52503,1,8,0:0:0:0:
144,188,52677,5,0,0:0:0:0:
144,188,52765,1,0,0:0:0:0:
144,188,52852,1,8,0:0:0:0:
460,88,53026,1,0,0:0:0:0:
460,88,53113,1,0,0:0:0:0:
460,88,53201,1,8,0:0:0:0:
320,176,55294,5,0,0:0:0:0:
320,176,55381,1,0,0:0:0:0:
320,176,55468,1,0,0:0:0:0:
320,176,55555,1,0,0:0:0:0:
320,176,55642,2,0,L|304:104,1,45
264,40,55817,2,0,L|248:96,1,45
188,212,55991,6,0,L|80:196,1,90,4|0,0:0|0:0,0:0:0:0:
148,24,56340,1,8,0:0:0:0:
256,168,56515,2,0,P|272:228|248:280,1,90
98,198,56863,1,0,0:0:0:0:
196,92,57038,1,8,0:0:0:0:
332,164,57212,1,0,0:0:0:0:
332,164,57299,1,0,0:0:0:0:
332,164,57387,6,0,L|440:172,1,90
260,252,57735,1,8,0:0:0:0:
336,68,57910,1,0,0:0:0:0:
268,256,58084,1,0,0:0:0:0:
444,168,58259,1,0,0:0:0:0:
268,256,58433,2,0,P|204:252|164:220,1,90,8|0,0:0|0:0,0:0:0:0:
352,172,58782,6,0,P|396:256|352:356,1,180,0|8,0:0|0:0,0:0:0:0:
212,256,59305,1,0,0:0:0:0:
212,256,59392,1,0,0:0:0:0:
212,256,59480,2,0,L|96:256,1,90
276,160,59829,1,8,0:0:0:0:
192,64,60003,1,0,0:0:0:0:
192,64,60090,1,0,0:0:0:0:
192,64,60177,5,0,0:0:0:0:
124,192,60352,1,0,0:0:0:0:
116,40,60526,1,8,0:0:0:0:
200,200,60701,1,0,0:0:0:0:
204,20,60875,1,0,0:0:0:0:
112,224,61049,1,0,0:0:0:0:
280,168,61224,2,0,L|392:168,1,90,8|0,0:0|0:0,0:0:0:0:
464,240,61573,6,0,L|336:272,1,90,4|0,0:0|0:0,0:0:0:0:
232,368,61922,2,0,L|344:344,1,90,8|0,0:0|0:0,0:0:0:0:
320,168,62270,1,0,0:0:0:0:
428,312,62445,1,0,0:0:0:0:
252,268,62619,1,8,0:0:0:0:
272,88,62794,1,0,0:0:0:0:
272,88,62881,1,0,0:0:0:0:
272,88,62968,6,0,L|164:100,1,90
320,216,63317,1,8,0:0:0:0:
182,97,63491,1,0,0:0:0:0:
208,276,63666,1,0,0:0:0:0:
182,97,63840,1,0,0:0:0:0:
356,132,64015,1,8,0:0:0:0:
300,304,64189,1,0,0:0:0:0:
128,144,64363,5,0,0:0:0:0:
328,60,64538,1,0,0:0:0:0:
376,272,64712,1,8,0:0:0:0:
120,220,64887,5,0,0:0:0:0:
256,52,65061,1,0,0:0:0:0:
412,204,65235,1,0,0:0:0:0:
156,288,65410,5,8,0:0:0:0:
184,76,65584,1,0,0:0:0:0:
392,132,65759,1,0,0:0:0:0:
228,304,65933,5,0,0:0:0:0:
120,116,66108,1,8,0:0:0:0:
332,88,66282,1,0,0:0:0:0:
268,196,66456,5,8,0:0:0:0:
232,220,66544,1,0,0:0:0:0:
188,228,66631,1,0,0:0:0:0:
144,216,66718,1,0,0:0:0:0:
108,188,66805,1,8,0:0:0:0:
92,148,66892,1,0,0:0:0:0:
96,104,66980,1,0,0:0:0:0:
116,64,67067,1,0,0:0:0:0:
156,44,67154,6,0,L|252:36,1,90,4|0,0:0|0:0,0:0:0:0:
388,144,67503,1,8,0:0:0:0:
388,144,67677,2,0,P|376:88|396:36,1,90
500,196,68026,1,0,0:0:0:0:
320,200,68201,1,8,0:0:0:0:
468,100,68375,1,0,0:0:0:0:
468,100,68462,1,0,0:0:0:0:
468,100,68549,5,0,0:0:0:0:
236,140,68724,1,0,0:0:0:0:
416,164,68898,1,8,0:0:0:0:
208,60,69073,1,0,0:0:0:0:
324,200,69247,1,0,0:0:0:0:
120,112,69422,1,0,0:0:0:0:
300,104,69596,2,0,P|344:92|388:48,1,90,8|0,0:0|0:0,0:0:0:0:
352,144,69858,1,0,0:0:0:0:
352,144,69945,6,0,P|340:212|356:256,1,90
472,332,70294,1,8,0:0:0:0:
472,332,70468,2,0,P|484:276|464:216,1,90
324,292,70817,2,0,P|248:288|224:300,1,90,0|8,0:0|0:0,0:0:0:0:
384,360,71166,6,0,P|416:296|356:200,1,180
208,224,71689,1,8,0:0:0:0:
320,108,71863,1,0,0:0:0:0:
280,284,72038,1,8,0:0:0:0:
224,112,72212,1,0,0:0:0:0:
360,228,72387,1,8,0:0:0:0:
180,204,72561,1,0,0:0:0:0:
408,76,72735,6,0,B|428:112|428:112|448:120|448:120|448:152|448:152|492:180|496:240,1,180,12|0,0:0|0:0,0:0:0:0:
396,372,73259,1,0,0:0:0:0:
248,272,73433,2,0,P|188:264|144:280,2,90,8|0|0,0:0|0:0|0:0,0:0:0:0:
336,332,73956,1,0,0:0:0:0:
328,224,74131,2,0,B|266:173|200:179|200:179|176:131,1,180,8|0,0:0|0:0,0:0:0:0:
263,70,74654,1,0,0:0:0:0:
420,196,74829,2,0,P|428:248|408:296,1,90,8|0,0:0|0:0,0:0:0:0:
360,112,75177,2,0,P|416:96|464:112,1,90
300,208,75526,6,0,P|256:160|276:48,1,180,8|0,0:0|0:0,0:0:0:0:
444,124,76049,1,0,0:0:0:0:
444,124,76137,1,0,0:0:0:0:
444,124,76224,2,0,B|460:168|460:168|456:224,1,90,8|0,0:0|0:0,0:0:0:0:
288,268,76573,2,0,B|312:228|312:228|360:204,1,90
264,368,76922,2,0,B|192:312|192:312|176:188,1,180,8|0,0:0|0:0,0:0:0:0:
312,100,77445,5,0,0:0:0:0:
312,100,77532,1,0,0:0:0:0:
312,100,77619,2,0,B|336:144|336:144|340:216,1,90,8|0,0:0|0:0,0:0:0:0:
204,304,77968,1,0,0:0:0:0:
168,284,78055,1,0,0:0:0:0:
128,284,78142,1,0,0:0:0:0:
92,300,78230,1,0,0:0:0:0:
64,328,78317,6,0,L|64:216,1,90,4|0,0:0|0:0,0:0:0:0:
32,108,78666,2,0,L|140:152,1,90,8|0,0:0|0:0,0:0:0:0:
196,248,79015,2,0,P|248:196|224:80,1,180,0|8,0:0|0:0,0:0:0:0:
238,96,79538,1,0,0:0:0:0:
384,192,79712,6,0,L|508:192,1,90
312,272,80061,1,8,0:0:0:0:
476,192,80235,1,0,0:0:0:0:
276,108,80410,1,8,0:0:0:0:
476,192,80584,1,0,0:0:0:0:
236,272,80759,1,8,0:0:0:0:
484,200,80933,1,0,0:0:0:0:
108,88,81108,5,12,0:0:0:0:
272,328,81282,1,0,0:0:0:0:
384,84,81456,1,8,0:0:0:0:
112,180,81631,5,0,0:0:0:0:
360,332,81805,1,12,0:0:0:0:
300,52,81980,1,0,0:0:0:0:
128,268,82154,5,8,0:0:0:0:
416,268,82329,1,0,0:0:0:0:
212,64,82503,1,12,0:0:0:0:
256,164,83549,6,0,L|256:244,1,67.5
212,312,83898,6,0,P|264:320|312:304,1,90,4|0,0:0|0:0,0:0:0:0:
480,336,84247,2,0,P|460:272|468:220,1,90,8|0,0:0|0:0,0:0:0:0:
492,128,84596,1,0,0:0:0:0:
368,160,84770,1,0,0:0:0:0:
372,36,84945,1,8,0:0:0:0:
213,145,85119,1,0,0:0:0:0:
312,276,85294,6,0,L|304:176,1,90
304,52,85642,1,8,0:0:0:0:
212,148,85817,1,0,0:0:0:0:
196,12,85991,1,0,0:0:0:0:
324,136,86166,1,0,0:0:0:0:
164,220,86340,1,8,0:0:0:0:
264,72,86515,5,0,0:0:0:0:
264,72,86602,1,0,0:0:0:0:
264,72,86689,2,0,L|368:120,1,90,4|0,0:0|0:0,0:0:0:0:
228,248,87038,1,8,0:0:0:0:
320,52,87212,6,0,L|364:172,1,107.999996704102,4|8,0:0|0:0,0:0:0:0:
144,200,87561,1,0,0:0:0:0:
256,16,87735,1,0,0:0:0:0:
340,212,87910,1,4,0:0:0:0:
256,192,88084,12,0,89480,0:0:0:0:
