osu file format v13

[General]
AudioFilename: HUE.mp3
AudioLeadIn: 2000
PreviewTime: 48795
Countdown: 0
SampleSet: Normal
StackLeniency: 0.3
Mode: 1
LetterboxInBreaks: 0
WidescreenStoryboard: 1

[Editor]
DistanceSpacing: 0.5
BeatDivisor: 4
GridSize: 8
TimelineZoom: 1.4

[Metadata]
Title:Startear -TV size ver.-
TitleUnicode:Startear -TV size ver.-
Artist:Haruna Luna
ArtistUnicode:春奈るな
Creator:MMzz
Version:Muzukashii
Source:ソードアート・オンライン II
Tags:ED ending Sword Art Online SAO
BeatmapID:484574
BeatmapSetID:205248

[Difficulty]
HPDrainRate:5
CircleSize:4
OverallDifficulty:5
ApproachRate:8.3
SliderMultiplier:1.4
SliderTickRate:1

[Events]
//Background and Video events
0,0,"bg.jpg",0,0
//Break Periods
//Storyboard Layer 0 (Background)
//Storyboard Layer 1 (Fail)
//Storyboard Layer 2 (Pass)
//Storyboard Layer 3 (Foreground)
//Storyboard Sound Samples
//Background Colour Transformations
3,100,163,162,255

[TimingPoints]
1781,447.761194029851,4,1,1,70,1,0
12515,447.761194029851,4,1,1,70,1,0
50126,-100,4,1,1,70,0,1
85947,-100,4,1,1,50,0,0

[Colours]
Combo1 : 102,251,203
Combo2 : 228,163,103
Combo3 : 153,80,235
Combo4 : 231,114,199
Combo5 : 155,170,227
Combo6 : 128,255,128
Combo7 : 255,168,125
Combo8 : 231,255,155

[HitObjects]
256,192,1781,5,8,0:0:0:0:
256,192,2452,1,0,0:0:0:0:
256,192,3348,1,0,0:0:0:0:
256,192,3572,1,8,0:0:0:0:
256,192,4243,1,0,0:0:0:0:
256,192,5139,1,0,0:0:0:0:
256,192,5363,1,8,0:0:0:0:
256,192,6034,1,8,0:0:0:0:
256,192,6482,1,0,0:0:0:0:
256,192,6930,1,8,0:0:0:0:
256,192,7378,1,8,0:0:0:0:
256,192,7601,1,8,0:0:0:0:
256,192,7825,1,8,0:0:0:0:
256,192,8497,1,8,0:0:0:0:
256,192,8945,1,0,0:0:0:0:
256,192,9616,1,8,0:0:0:0:
256,192,10064,1,8,0:0:0:0:
256,192,10512,12,0,11631,0:0:0:0:
288,128,12515,5,4,0:0:0:0:
168,144,12962,1,8,0:0:0:0:
168,144,13297,1,0,0:0:0:0:
168,144,13409,1,0,0:0:0:0:
168,144,13633,1,0,0:0:0:0:
168,144,13857,1,8,0:0:0:0:
168,144,14305,1,0,0:0:0:0:
168,144,14753,1,8,0:0:0:0:
152,144,15088,1,0,0:0:0:0:
168,144,15200,1,0,0:0:0:0:
168,144,15424,1,0,0:0:0:0:
168,144,15648,1,8,0:0:0:0:
168,144,16096,1,0,0:0:0:0:
168,144,16544,1,8,0:0:0:0:
168,144,16879,1,0,0:0:0:0:
168,144,16991,1,0,0:0:0:0:
168,144,17215,1,0,0:0:0:0:
168,144,17439,1,8,0:0:0:0:
168,144,17663,1,12,0:0:0:0:
168,144,18111,1,8,0:0:0:0:
168,144,18335,1,0,0:0:0:0:
168,144,18559,1,12,0:0:0:0:
168,144,19006,1,4,0:0:0:0:
72,112,19678,1,0,0:0:0:0:
72,112,20350,1,8,0:0:0:0:
144,104,20797,1,0,0:0:0:0:
72,112,21021,1,8,0:0:0:0:
72,112,21469,1,0,0:0:0:0:
144,104,22141,1,8,0:0:0:0:
144,104,22812,1,8,0:0:0:0:
144,104,23260,1,0,0:0:0:0:
144,104,23932,1,8,0:0:0:0:
144,104,24379,1,0,0:0:0:0:
144,104,24603,1,8,0:0:0:0:
144,104,25051,1,0,0:0:0:0:
144,104,25723,1,8,0:0:0:0:
144,104,26394,1,8,0:0:0:0:
144,104,26618,1,8,0:0:0:0:
144,104,26842,1,0,0:0:0:0:
144,104,27514,1,8,0:0:0:0:
144,104,27962,1,0,0:0:0:0:
144,104,28185,1,8,0:0:0:0:
144,104,28633,1,0,0:0:0:0:
144,104,29305,1,8,0:0:0:0:
144,104,29976,1,8,0:0:0:0:
144,104,30424,1,0,0:0:0:0:
72,176,31096,1,8,0:0:0:0:
144,104,31544,1,0,0:0:0:0:
144,104,31768,1,8,0:0:0:0:
144,104,32215,1,0,0:0:0:0:
216,24,32887,1,8,0:0:0:0:
128,104,33111,1,8,0:0:0:0:
168,72,33335,1,0,0:0:0:0:
168,72,33559,1,0,0:0:0:0:
168,72,34006,1,0,0:0:0:0:
168,72,35797,1,0,0:0:0:0:
168,72,36469,1,8,0:0:0:0:
128,16,36917,1,0,0:0:0:0:
152,40,37141,1,0,0:0:0:0:
152,40,37588,1,0,0:0:0:0:
152,40,39379,1,0,0:0:0:0:
152,40,40051,1,8,0:0:0:0:
152,40,40499,1,0,0:0:0:0:
152,40,40723,1,0,0:0:0:0:
152,40,41170,1,4,0:0:0:0:
152,40,41618,1,0,0:0:0:0:
152,40,41842,1,8,0:0:0:0:
152,40,42066,1,0,0:0:0:0:
152,40,42290,1,0,0:0:0:0:
152,40,42514,1,8,0:0:0:0:
152,40,42962,1,0,0:0:0:0:
152,40,43409,1,0,0:0:0:0:
128,64,43633,1,8,0:0:0:0:
104,88,43857,1,0,0:0:0:0:
96,104,44081,1,0,0:0:0:0:
96,104,44305,1,8,0:0:0:0:
152,40,44529,1,0,0:0:0:0:
152,40,44641,1,0,0:0:0:0:
152,40,44753,1,0,0:0:0:0:
152,40,45200,1,8,0:0:0:0:
200,48,45648,1,8,0:0:0:0:
200,48,45872,1,8,0:0:0:0:
200,48,46320,1,4,0:0:0:0:
184,48,46768,1,0,0:0:0:0:
184,48,46991,1,8,0:0:0:0:
200,48,47439,1,0,0:0:0:0:
176,24,47887,1,0,0:0:0:0:
176,24,48111,1,12,0:0:0:0:
176,24,48559,1,12,0:0:0:0:
176,24,48782,1,12,0:0:0:0:
360,120,50126,1,4,0:0:0:0:
296,88,50573,1,8,0:0:0:0:
248,64,50909,1,0,0:0:0:0:
248,64,51021,1,0,0:0:0:0:
248,64,51245,1,0,0:0:0:0:
248,64,51469,1,8,0:0:0:0:
216,80,51693,1,0,0:0:0:0:
248,64,51917,1,0,0:0:0:0:
248,64,52365,1,8,0:0:0:0:
248,64,52700,1,0,0:0:0:0:
248,64,52812,1,0,0:0:0:0:
248,64,53036,1,0,0:0:0:0:
248,64,53260,1,8,0:0:0:0:
248,64,53484,1,0,0:0:0:0:
248,64,53708,1,0,0:0:0:0:
248,64,54156,1,8,0:0:0:0:
248,64,54379,1,0,0:0:0:0:
248,64,54827,1,0,0:0:0:0:
248,64,55051,1,8,0:0:0:0:
248,64,55500,1,0,0:0:0:0:
248,64,55947,1,8,0:0:0:0:
248,64,56170,1,0,0:0:0:0:
320,48,56618,1,0,0:0:0:0:
288,56,56842,1,8,0:0:0:0:
288,56,57066,1,8,0:0:0:0:
288,56,57290,1,0,0:0:0:0:
288,56,57738,1,8,0:0:0:0:
288,56,57962,1,0,0:0:0:0:
288,56,58409,1,0,0:0:0:0:
288,56,58633,1,8,0:0:0:0:
288,56,59082,1,0,0:0:0:0:
288,56,60200,1,0,0:0:0:0:
288,56,60424,1,8,0:0:0:0:
256,48,60648,1,0,0:0:0:0:
248,64,60761,1,0,0:0:0:0:
256,48,60872,1,0,0:0:0:0:
200,88,61320,1,8,0:0:0:0:
168,104,61544,1,0,0:0:0:0:
112,144,61991,1,0,0:0:0:0:
112,144,62215,1,8,0:0:0:0:
112,144,62439,1,4,0:0:0:0:
176,112,62887,1,0,0:0:0:0:
160,120,63111,1,8,0:0:0:0:
160,120,63559,1,8,0:0:0:0:
160,120,64006,1,8,0:0:0:0:
160,120,64118,1,8,0:0:0:0:
160,120,64230,1,8,0:0:0:0:
160,120,64454,1,4,0:0:0:0:
160,120,64902,1,8,0:0:0:0:
160,120,65238,1,0,0:0:0:0:
160,120,65350,1,0,0:0:0:0:
160,120,65573,1,0,0:0:0:0:
160,120,65797,1,8,0:0:0:0:
160,120,66021,1,0,0:0:0:0:
160,120,66245,1,0,0:0:0:0:
160,120,66693,1,8,0:0:0:0:
160,120,67029,1,0,0:0:0:0:
160,120,67141,1,0,0:0:0:0:
160,120,67365,1,0,0:0:0:0:
160,120,67588,1,8,0:0:0:0:
160,120,67812,1,8,0:0:0:0:
160,120,68036,1,0,0:0:0:0:
224,88,68484,1,8,0:0:0:0:
224,88,68708,1,0,0:0:0:0:
224,88,69156,1,0,0:0:0:0:
224,88,69379,1,8,0:0:0:0:
224,88,69828,1,0,0:0:0:0:
224,88,70275,1,8,0:0:0:0:
224,88,70499,1,0,0:0:0:0:
224,88,70947,1,0,0:0:0:0:
224,88,71170,1,8,0:0:0:0:
208,96,71283,1,8,0:0:0:0:
200,64,71395,1,8,0:0:0:0:
224,88,71618,1,4,0:0:0:0:
152,96,72290,1,4,0:0:0:0:
152,96,72738,1,0,0:0:0:0:
152,96,72962,1,8,0:0:0:0:
152,96,73185,1,4,0:0:0:0:
128,128,73857,1,8,0:0:0:0:
152,104,74305,1,0,0:0:0:0:
88,88,74753,1,8,0:0:0:0:
224,24,74976,1,0,0:0:0:0:
216,40,75088,1,0,0:0:0:0:
200,48,75200,1,0,0:0:0:0:
176,72,75424,1,0,0:0:0:0:
176,72,75648,1,8,0:0:0:0:
176,72,75872,1,4,0:0:0:0:
128,120,76320,1,8,0:0:0:0:
128,120,76544,1,8,0:0:0:0:
128,120,76768,1,4,0:0:0:0:
208,56,77439,1,8,0:0:0:0:
208,56,77887,1,0,0:0:0:0:
176,72,78335,1,8,0:0:0:0:
160,80,78447,1,8,0:0:0:0:
144,88,78559,1,8,0:0:0:0:
152,56,78782,1,4,0:0:0:0:
112,88,79118,1,0,0:0:0:0:
200,112,79230,1,0,0:0:0:0:
224,136,79454,1,0,0:0:0:0:
224,136,79678,1,8,0:0:0:0:
224,136,79902,1,0,0:0:0:0:
224,136,80126,1,0,0:0:0:0:
168,96,80573,1,0,0:0:0:0:
120,112,80909,1,0,0:0:0:0:
104,120,81021,1,0,0:0:0:0:
104,120,81245,1,0,0:0:0:0:
104,120,81469,1,8,0:0:0:0:
104,120,81693,1,0,0:0:0:0:
104,120,81917,1,8,0:0:0:0:
104,120,82365,1,0,0:0:0:0:
104,120,82700,1,0,0:0:0:0:
104,120,82812,1,0,0:0:0:0:
104,120,83036,1,0,0:0:0:0:
72,120,83260,1,8,0:0:0:0:
72,120,83484,1,0,0:0:0:0:
72,120,83596,1,0,0:0:0:0:
72,120,83708,1,0,0:0:0:0:
72,120,83932,1,0,0:0:0:0:
104,120,84156,2,0,B|272:296|272:296|424:200,1,420
256,192,85947,12,0,89081,0:0:0:0:
