osu file format v13

[General]
AudioFilename: II ED - Startear (TV Size Ver.).mp3
AudioLeadIn: 0
PreviewTime: 48908
Countdown: 0
SampleSet: Soft
StackLeniency: 0.7
Mode: 3
LetterboxInBreaks: 0
SpecialStyle: 0
WidescreenStoryboard: 0

[Editor]
Bookmarks: 36147
DistanceSpacing: 2
BeatDivisor: 4
GridSize: 4
TimelineZoom: 1.8

[Metadata]
Title:Startear (TV Size Ver.)
TitleUnicode:Startear (TV Size Ver.)
Artist:Haruna Luna
ArtistUnicode:Haruna Luna
Creator:Soldsaga KunG
Version:Hard
Source:ソードアート・オンラインⅡ
Tags:sword art online ii sao 2nd season ending phantom bullet ggo
BeatmapID:488608
BeatmapSetID:207359

[Difficulty]
HPDrainRate:7
CircleSize:7
OverallDifficulty:7
ApproachRate:8
SliderMultiplier:1.4
SliderTickRate:1

[Events]
//Background and Video events
0,0,"BG.jpg",0,0
Video,0,"SAOIIEnding.avi"
//Break Periods
//Storyboard Layer 0 (Background)
//Storyboard Layer 1 (Fail)
//Storyboard Layer 2 (Pass)
//Storyboard Layer 3 (Foreground)
//Storyboard Sound Samples
//Background Colour Transformations
3,100,163,162,255

[TimingPoints]
1894,447.761194029851,4,2,1,100,1,0
1894,-100,4,2,0,100,0,0
12584,-100,4,2,1,100,0,0
19804,-133.333333333333,4,2,1,100,0,0
34132,-200,4,2,0,100,0,0
41296,-166.666666666667,4,2,1,100,0,0
43088,-142.857142857143,4,2,1,100,0,0
44879,-125,4,2,1,100,0,0
45326,-111.111111111111,4,2,1,100,0,0
45774,-100,4,2,1,100,0,0
45998,-200,4,2,1,100,0,0
46446,-100,4,2,1,100,0,0
48125,-400,4,2,1,100,0,0
48237,-100,4,2,1,100,0,0
48349,-66.6666666666667,4,2,1,100,0,0
48629,-400,4,2,1,100,0,0
48685,-100,4,2,1,100,0,0
48741,-66.6666666666667,4,2,1,100,0,0
48852,-400,4,2,1,100,0,0
48908,-100,4,2,1,100,0,0
48964,-66.6666666666667,4,2,1,100,0,0
49020,-100,4,2,1,100,0,0
50252,-100,4,2,1,100,0,1
86073,-100,4,2,1,100,0,0

[HitObjects]
475,192,1894,5,0,0:0:0:0:
36,192,1894,128,0,2565:0:0:0:0:
402,192,2117,1,0,0:0:0:0:
329,192,2341,1,0,0:0:0:0:
182,192,2565,128,0,3685:0:0:0:0:
475,192,3685,128,0,4356:0:0:0:0:
36,192,3685,1,0,0:0:0:0:
109,192,3908,1,0,0:0:0:0:
182,192,4132,1,0,0:0:0:0:
329,192,4356,128,0,5476:0:0:0:0:
256,192,5476,128,0,7267:0:0:0:0:
402,192,5923,1,0,0:0:0:0:
36,192,6147,128,0,7267:0:0:0:0:
109,192,6595,1,0,0:0:0:0:
182,192,7043,1,0,0:0:0:0:
402,192,7267,128,0,9058:0:0:0:0:
182,192,7491,1,0,0:0:0:0:
256,192,7714,1,0,0:0:0:0:
109,192,7938,128,0,9058:0:0:0:0:
256,192,8386,128,0,8834:0:0:0:0:
36,192,8610,1,0,0:0:0:0:
475,192,8834,1,0,0:0:0:0:
182,192,9058,128,0,9729:0:0:0:0:
256,192,9505,1,0,0:0:0:0:
329,192,9729,128,0,10401:0:0:0:0:
109,192,10177,5,0,0:0:0:0:
475,192,10625,128,0,11744:0:0:0:0:
36,192,10625,128,0,11744:0:0:0:0:
182,192,12192,1,0,0:0:0:0:
256,192,12304,1,0,0:0:0:0:
329,192,12416,5,0,0:0:0:0:
402,192,12528,1,0,0:0:0:0:
475,192,12640,1,4,0:0:0:0:
36,192,12640,1,0,0:0:0:0:
109,192,12864,1,2,0:0:0:0:
256,192,13088,1,8,0:0:0:0:
475,192,13088,1,0,0:0:0:0:
36,192,13311,1,2,0:0:0:0:
109,192,13423,1,8,0:0:0:0:
182,192,13535,1,2,0:0:0:0:
109,192,13759,1,2,0:0:0:0:
329,192,13983,1,8,0:0:0:0:
475,192,13983,1,0,0:0:0:0:
256,192,14207,1,2,0:0:0:0:
182,192,14319,1,8,0:0:0:0:
109,192,14431,1,2,0:0:0:0:
329,192,14655,1,2,0:0:0:0:
475,192,14879,1,0,0:0:0:0:
256,192,14879,1,8,0:0:0:0:
36,192,15102,1,2,0:0:0:0:
109,192,15214,1,8,0:0:0:0:
182,192,15326,1,2,0:0:0:0:
475,192,15438,1,8,0:0:0:0:
402,192,15550,1,2,0:0:0:0:
182,192,15774,1,8,0:0:0:0:
36,192,15774,1,0,0:0:0:0:
109,192,15998,1,2,0:0:0:0:
256,192,16222,1,2,0:0:0:0:
402,192,16222,1,0,0:0:0:0:
36,192,16446,1,2,0:0:0:0:
182,192,16670,1,8,0:0:0:0:
329,192,16670,1,0,0:0:0:0:
475,192,16894,1,8,0:0:0:0:
402,192,17005,1,8,0:0:0:0:
329,192,17117,1,0,0:0:0:0:
256,192,17229,1,2,0:0:0:0:
182,192,17341,1,8,0:0:0:0:
36,192,17565,1,2,0:0:0:0:
256,192,17789,1,4,0:0:0:0:
475,192,17789,1,0,0:0:0:0:
36,192,18013,1,2,0:0:0:0:
402,192,18237,1,8,0:0:0:0:
329,192,18349,1,8,0:0:0:0:
256,192,18461,1,2,0:0:0:0:
475,192,18685,1,4,0:0:0:0:
109,192,18685,1,0,0:0:0:0:
329,192,18685,1,0,0:0:0:0:
36,192,19132,1,0,0:0:0:0:
182,192,19132,1,4,0:0:0:0:
402,192,19132,1,0,0:0:0:0:
475,192,19580,1,8,0:0:0:0:
402,192,19692,1,8,0:0:0:0:
329,192,19804,1,2,0:0:0:0:
109,192,19804,128,2,20923:0:0:0:0:
36,192,20252,1,2,0:0:0:0:
182,192,20476,1,8,0:0:0:0:
256,192,20476,1,0,0:0:0:0:
475,192,20923,1,2,0:0:0:0:
256,192,20923,128,2,21147:0:0:0:0:
329,192,21147,1,8,0:0:0:0:
109,192,21147,1,0,0:0:0:0:
36,192,21371,1,2,0:0:0:0:
109,192,21483,1,8,0:0:0:0:
182,192,21595,1,2,0:0:0:0:
475,192,21595,128,2,22491:0:0:0:0:
402,192,22043,1,2,0:0:0:0:
256,192,22267,1,8,0:0:0:0:
109,192,22267,1,0,0:0:0:0:
182,192,22491,128,2,22714:0:0:0:0:
475,192,22714,1,2,0:0:0:0:
402,192,22938,1,8,0:0:0:0:
256,192,22938,1,0,0:0:0:0:
36,192,23162,1,8,0:0:0:0:
109,192,23274,1,2,0:0:0:0:
182,192,23386,1,2,0:0:0:0:
256,192,23386,128,0,24505:0:0:0:0:
402,192,23610,1,2,0:0:0:0:
329,192,23834,1,2,0:0:0:0:
475,192,24058,1,0,0:0:0:0:
182,192,24058,1,8,0:0:0:0:
36,192,24505,1,2,0:0:0:0:
475,192,24505,128,2,24729:0:0:0:0:
256,192,24729,1,8,0:0:0:0:
402,192,24729,1,0,0:0:0:0:
182,192,24953,1,8,0:0:0:0:
329,192,24953,128,0,25177:0:0:0:0:
109,192,25065,1,8,0:0:0:0:
36,192,25177,1,2,0:0:0:0:
109,192,25177,128,0,26520:0:0:0:0:
475,192,25401,1,2,0:0:0:0:
329,192,25625,1,2,0:0:0:0:
182,192,25849,1,8,0:0:0:0:
36,192,25849,1,0,0:0:0:0:
402,192,26073,1,2,0:0:0:0:
402,192,26296,1,2,0:0:0:0:
329,192,26520,1,8,0:0:0:0:
182,192,26520,1,0,0:0:0:0:
475,192,26744,128,0,26968:0:0:0:0:
36,192,26744,1,8,0:0:0:0:
109,192,26856,1,8,0:0:0:0:
182,192,26968,1,2,0:0:0:0:
36,192,26968,128,0,28088:0:0:0:0:
475,192,27416,1,2,0:0:0:0:
402,192,27640,1,8,0:0:0:0:
256,192,27640,1,0,0:0:0:0:
182,192,28088,1,2,0:0:0:0:
329,192,28088,128,2,28311:0:0:0:0:
36,192,28311,1,0,0:0:0:0:
109,192,28311,1,8,0:0:0:0:
402,192,28535,1,2,0:0:0:0:
475,192,28647,1,8,0:0:0:0:
402,192,28759,1,2,0:0:0:0:
109,192,28759,128,0,29431:0:0:0:0:
256,192,28983,1,2,0:0:0:0:
256,192,29207,1,2,0:0:0:0:
182,192,29431,1,8,0:0:0:0:
329,192,29431,1,0,0:0:0:0:
475,192,29431,128,2,29655:0:0:0:0:
256,192,29655,1,2,0:0:0:0:
109,192,29879,1,2,0:0:0:0:
329,192,29879,128,2,30102:0:0:0:0:
36,192,29991,1,8,0:0:0:0:
109,192,30102,1,8,0:0:0:0:
256,192,30326,1,2,0:0:0:0:
256,192,30550,1,2,0:0:0:0:
402,192,30774,1,2,0:0:0:0:
109,192,30774,128,2,30998:0:0:0:0:
475,192,30886,1,8,0:0:0:0:
402,192,30998,1,8,0:0:0:0:
256,192,31222,1,8,0:0:0:0:
256,192,31446,1,2,0:0:0:0:
36,192,31670,1,2,0:0:0:0:
256,192,31670,128,2,32117:0:0:0:0:
475,192,31894,1,8,0:0:0:0:
109,192,32117,1,2,0:0:0:0:
402,192,32341,1,2,0:0:0:0:
36,192,32341,128,2,32789:0:0:0:0:
182,192,32565,1,2,0:0:0:0:
329,192,32789,1,8,0:0:0:0:
256,192,33013,1,2,0:0:0:0:
475,192,33013,128,2,33237:0:0:0:0:
36,192,33237,1,2,0:0:0:0:
475,192,33461,1,0,0:0:0:0:
109,192,33461,128,8,33685:0:0:0:0:
402,192,33573,1,8,0:0:0:0:
329,192,33685,1,2,0:0:0:0:
36,192,34132,128,0,35923:0:0:0:0:
256,192,34356,128,0,34580:0:0:0:0:
402,192,34580,128,0,34804:0:0:0:0:
182,192,34580,1,8,0:0:0:0:
109,192,34804,128,0,35028:0:0:0:0:
475,192,35028,128,0,35252:0:0:0:0:
256,192,35252,128,0,35476:0:0:0:0:
402,192,35252,1,8,0:0:0:0:
402,192,35476,128,0,35699:0:0:0:0:
182,192,35699,128,0,35923:0:0:0:0:
256,192,35923,128,0,36819:0:0:0:0:
329,192,35923,1,8,0:0:0:0:
402,192,36147,128,0,36371:0:0:0:0:
109,192,36371,128,0,36595:0:0:0:0:
36,192,36595,128,0,36819:0:0:0:0:
182,192,36595,1,8,0:0:0:0:
475,192,36819,128,0,37714:0:0:0:0:
402,192,36819,1,2,0:0:0:0:
109,192,37043,1,8,0:0:0:0:
109,192,37155,1,8,0:0:0:0:
109,192,37267,1,2,0:0:0:0:
109,192,37714,128,0,39505:0:0:0:0:
256,192,37714,1,2,0:0:0:0:
182,192,37938,128,0,38162:0:0:0:0:
402,192,38162,128,0,38386:0:0:0:0:
36,192,38386,128,0,38610:0:0:0:0:
329,192,38386,1,8,0:0:0:0:
256,192,38610,128,0,38834:0:0:0:0:
475,192,38834,128,0,39058:0:0:0:0:
329,192,39058,128,0,39282:0:0:0:0:
182,192,39058,1,8,0:0:0:0:
182,192,39282,128,0,39505:0:0:0:0:
402,192,39505,128,0,40625:0:0:0:0:
329,192,39505,1,8,0:0:0:0:
36,192,39729,128,0,39953:0:0:0:0:
182,192,39953,128,0,40177:0:0:0:0:
109,192,40177,128,0,40401:0:0:0:0:
329,192,40177,1,8,0:0:0:0:
256,192,40625,128,0,40849:0:0:0:0:
182,192,40625,1,8,0:0:0:0:
109,192,40737,1,2,0:0:0:0:
36,192,40849,1,2,0:0:0:0:
36,192,41296,128,0,43088:0:0:0:0:
329,192,41296,1,4,0:0:0:0:
475,192,41296,1,0,0:0:0:0:
182,192,41520,1,2,0:0:0:0:
329,192,41744,1,2,0:0:0:0:
109,192,41744,1,0,0:0:0:0:
256,192,41968,1,8,0:0:0:0:
475,192,41968,1,0,0:0:0:0:
329,192,42192,1,2,0:0:0:0:
182,192,42416,1,2,0:0:0:0:
329,192,42640,1,4,0:0:0:0:
475,192,42640,1,0,0:0:0:0:
402,192,42864,1,2,0:0:0:0:
182,192,43088,128,0,44431:0:0:0:0:
329,192,43088,1,4,0:0:0:0:
36,192,43311,1,2,0:0:0:0:
329,192,43535,1,2,0:0:0:0:
256,192,43647,1,2,0:0:0:0:
329,192,43759,1,8,0:0:0:0:
402,192,43983,1,8,0:0:0:0:
475,192,44095,1,8,0:0:0:0:
402,192,44207,1,8,0:0:0:0:
36,192,44431,1,8,0:0:0:0:
256,192,44655,1,2,0:0:0:0:
475,192,44879,1,0,0:0:0:0:
329,192,44879,1,8,0:0:0:0:
109,192,44879,1,8,0:0:0:0:
256,192,45326,1,8,0:0:0:0:
182,192,45326,1,8,0:0:0:0:
402,192,45326,1,0,0:0:0:0:
109,192,45774,1,0,0:0:0:0:
329,192,45774,1,8,0:0:0:0:
475,192,45774,1,8,0:0:0:0:
182,192,45998,1,0,0:0:0:0:
402,192,45998,1,8,0:0:0:0:
475,192,45998,1,8,0:0:0:0:
182,192,46446,128,0,48013:0:0:0:0:
329,192,46446,1,12,0:0:0:0:
36,192,46446,1,0,0:0:0:0:
329,192,46894,1,2,0:0:0:0:
402,192,47117,1,8,0:0:0:0:
256,192,47341,1,2,0:0:0:0:
329,192,47453,1,8,0:0:0:0:
402,192,47565,1,2,0:0:0:0:
36,192,47789,1,8,0:0:0:0:
329,192,48013,1,2,0:0:0:0:
182,192,48237,1,4,0:0:0:0:
36,192,48237,1,0,0:0:0:0:
402,192,48237,1,0,0:0:0:0:
36,192,48685,1,0,0:0:0:0:
182,192,48685,1,4,0:0:0:0:
402,192,48685,1,0,0:0:0:0:
36,192,48908,1,0,0:0:0:0:
182,192,48908,1,0,0:0:0:0:
402,192,48908,1,4,0:0:0:0:
475,192,49804,128,0,50252:0:0:0:0:
402,192,50252,128,2,52043:0:0:0:0:
256,192,50252,1,4,0:0:0:0:
109,192,50252,1,0,0:0:0:0:
182,192,50252,1,0,0:0:0:0:
36,192,50476,1,2,0:0:0:0:
329,192,50699,1,8,0:0:0:0:
475,192,50699,1,0,0:0:0:0:
182,192,50923,1,2,0:0:0:0:
109,192,51035,1,8,0:0:0:0:
36,192,51147,1,2,0:0:0:0:
109,192,51259,1,8,0:0:0:0:
182,192,51371,1,2,0:0:0:0:
475,192,51595,1,0,0:0:0:0:
329,192,51595,1,8,0:0:0:0:
109,192,51819,1,2,0:0:0:0:
36,192,52043,1,2,0:0:0:0:
256,192,52043,1,2,0:0:0:0:
109,192,52043,128,0,53834:0:0:0:0:
256,192,52267,1,2,0:0:0:0:
36,192,52491,1,0,0:0:0:0:
182,192,52491,1,8,0:0:0:0:
475,192,52714,1,2,0:0:0:0:
402,192,52826,1,8,0:0:0:0:
329,192,52938,1,2,0:0:0:0:
402,192,53050,1,8,0:0:0:0:
475,192,53162,1,2,0:0:0:0:
329,192,53386,1,8,0:0:0:0:
182,192,53386,1,0,0:0:0:0:
256,192,53610,1,2,0:0:0:0:
36,192,53834,1,2,0:0:0:0:
182,192,53834,128,0,54282:0:0:0:0:
329,192,53834,1,0,0:0:0:0:
475,192,54058,1,2,0:0:0:0:
402,192,54170,1,2,0:0:0:0:
329,192,54282,1,8,0:0:0:0:
256,192,54282,128,0,54505:0:0:0:0:
36,192,54505,1,8,0:0:0:0:
329,192,54505,128,0,54729:0:0:0:0:
182,192,54729,1,2,0:0:0:0:
402,192,54729,1,0,0:0:0:0:
109,192,54953,1,2,0:0:0:0:
36,192,54953,128,0,55401:0:0:0:0:
256,192,54953,1,0,0:0:0:0:
475,192,54953,1,0,0:0:0:0:
182,192,55177,1,8,0:0:0:0:
402,192,55177,1,0,0:0:0:0:
329,192,55401,1,0,0:0:0:0:
256,192,55401,1,8,0:0:0:0:
109,192,55401,128,0,55849:0:0:0:0:
36,192,55625,1,2,0:0:0:0:
475,192,55849,1,8,0:0:0:0:
256,192,55849,128,0,56073:0:0:0:0:
402,192,55961,1,2,0:0:0:0:
329,192,56073,1,8,0:0:0:0:
182,192,56073,1,0,0:0:0:0:
109,192,56073,128,0,56296:0:0:0:0:
36,192,56296,1,0,0:0:0:0:
402,192,56296,1,8,0:0:0:0:
256,192,56296,128,0,56744:0:0:0:0:
475,192,56520,1,2,0:0:0:0:
36,192,56744,1,8,0:0:0:0:
109,192,56856,1,8,0:0:0:0:
182,192,56968,1,8,0:0:0:0:
256,192,57080,1,2,0:0:0:0:
329,192,57192,1,8,0:0:0:0:
402,192,57304,1,8,0:0:0:0:
475,192,57416,1,4,0:0:0:0:
36,192,57416,1,0,0:0:0:0:
256,192,57416,1,0,0:0:0:0:
109,192,57640,1,2,0:0:0:0:
182,192,57752,1,2,0:0:0:0:
256,192,57864,1,8,0:0:0:0:
475,192,57864,1,0,0:0:0:0:
36,192,57864,128,0,58759:0:0:0:0:
329,192,58088,1,8,0:0:0:0:
256,192,58199,1,8,0:0:0:0:
182,192,58311,1,2,0:0:0:0:
475,192,58311,1,0,0:0:0:0:
256,192,58423,1,8,0:0:0:0:
329,192,58535,1,2,0:0:0:0:
402,192,58647,1,2,0:0:0:0:
475,192,58759,1,8,0:0:0:0:
109,192,58759,1,0,0:0:0:0:
182,192,58983,1,8,0:0:0:0:
256,192,59095,1,8,0:0:0:0:
329,192,59207,1,2,0:0:0:0:
402,192,59207,128,0,60998:0:0:0:0:
475,192,59431,1,2,0:0:0:0:
182,192,59655,1,8,0:0:0:0:
36,192,59655,1,0,0:0:0:0:
256,192,59879,1,2,0:0:0:0:
329,192,59991,1,8,0:0:0:0:
36,192,60102,1,2,0:0:0:0:
182,192,60214,1,8,0:0:0:0:
109,192,60326,1,2,0:0:0:0:
475,192,60550,1,0,0:0:0:0:
329,192,60550,1,8,0:0:0:0:
256,192,60774,1,2,0:0:0:0:
182,192,60886,1,8,0:0:0:0:
109,192,60998,1,12,0:0:0:0:
36,192,60998,1,0,0:0:0:0:
329,192,61222,1,2,0:0:0:0:
402,192,61334,1,2,0:0:0:0:
475,192,61446,1,8,0:0:0:0:
256,192,61446,1,0,0:0:0:0:
182,192,61670,1,2,0:0:0:0:
109,192,61782,1,2,0:0:0:0:
36,192,61894,1,2,0:0:0:0:
329,192,62005,1,2,0:0:0:0:
402,192,62117,1,8,0:0:0:0:
36,192,62117,128,0,62341:0:0:0:0:
475,192,62229,1,8,0:0:0:0:
256,192,62341,1,2,0:0:0:0:
402,192,62341,128,0,62565:0:0:0:0:
182,192,62565,1,0,0:0:0:0:
329,192,62565,1,4,0:0:0:0:
256,192,62565,128,0,62789:0:0:0:0:
109,192,62789,1,2,0:0:0:0:
329,192,63013,1,2,0:0:0:0:
402,192,63125,1,2,0:0:0:0:
475,192,63237,1,8,0:0:0:0:
36,192,63237,1,0,0:0:0:0:
402,192,63349,1,2,0:0:0:0:
329,192,63461,1,2,0:0:0:0:
256,192,63573,1,8,0:0:0:0:
475,192,63573,1,0,0:0:0:0:
182,192,63685,1,10,0:0:0:0:
475,192,63685,1,0,0:0:0:0:
109,192,63796,1,2,0:0:0:0:
36,192,63908,1,8,0:0:0:0:
109,192,64020,1,8,0:0:0:0:
182,192,64132,1,4,0:0:0:0:
329,192,64132,1,0,0:0:0:0:
256,192,64244,1,8,0:0:0:0:
402,192,64244,1,0,0:0:0:0:
329,192,64356,1,2,0:0:0:0:
475,192,64356,1,0,0:0:0:0:
402,192,64468,1,8,0:0:0:0:
475,192,64580,1,4,0:0:0:0:
36,192,64580,1,0,0:0:0:0:
329,192,64580,128,0,65699:0:0:0:0:
182,192,64580,1,0,0:0:0:0:
109,192,64580,1,0,0:0:0:0:
36,192,64804,1,2,0:0:0:0:
402,192,64804,1,0,0:0:0:0:
256,192,64804,1,0,0:0:0:0:
109,192,64916,1,0,0:0:0:0:
182,192,64916,1,2,0:0:0:0:
256,192,65028,1,8,0:0:0:0:
475,192,65028,1,0,0:0:0:0:
36,192,65028,1,0,0:0:0:0:
182,192,65252,1,2,0:0:0:0:
109,192,65364,1,2,0:0:0:0:
36,192,65476,1,2,0:0:0:0:
109,192,65588,1,8,0:0:0:0:
182,192,65699,1,2,0:0:0:0:
402,192,65699,128,0,65923:0:0:0:0:
256,192,65811,1,2,0:0:0:0:
329,192,65923,1,8,0:0:0:0:
109,192,65923,1,2,0:0:0:0:
36,192,66147,1,8,0:0:0:0:
36,192,66259,1,8,0:0:0:0:
329,192,66371,1,2,0:0:0:0:
402,192,66371,1,0,0:0:0:0:
36,192,66371,128,0,67491:0:0:0:0:
475,192,66595,1,2,0:0:0:0:
475,192,66707,1,2,0:0:0:0:
109,192,66819,1,0,0:0:0:0:
182,192,66819,1,8,0:0:0:0:
329,192,67043,1,2,0:0:0:0:
256,192,67155,1,2,0:0:0:0:
182,192,67267,1,2,0:0:0:0:
475,192,67267,1,0,0:0:0:0:
256,192,67379,1,8,0:0:0:0:
329,192,67491,1,2,0:0:0:0:
109,192,67491,128,0,67714:0:0:0:0:
256,192,67602,1,2,0:0:0:0:
182,192,67714,1,8,0:0:0:0:
36,192,67714,1,0,0:0:0:0:
329,192,67938,1,8,0:0:0:0:
109,192,67938,128,0,68162:0:0:0:0:
402,192,68050,1,8,0:0:0:0:
475,192,68162,1,2,0:0:0:0:
256,192,68162,1,0,0:0:0:0:
402,192,68162,128,0,68610:0:0:0:0:
36,192,68386,1,2,0:0:0:0:
109,192,68498,1,2,0:0:0:0:
182,192,68610,1,8,0:0:0:0:
329,192,68610,1,0,0:0:0:0:
475,192,68834,1,2,0:0:0:0:
256,192,68834,128,0,69058:0:0:0:0:
402,192,68946,1,8,0:0:0:0:
182,192,69058,1,8,0:0:0:0:
109,192,69170,1,2,0:0:0:0:
36,192,69282,1,2,0:0:0:0:
475,192,69282,128,0,69505:0:0:0:0:
256,192,69394,1,2,0:0:0:0:
402,192,69505,1,0,0:0:0:0:
109,192,69505,1,8,0:0:0:0:
182,192,69729,1,8,0:0:0:0:
36,192,69729,128,0,69953:0:0:0:0:
402,192,69729,128,0,69953:0:0:0:0:
256,192,69841,1,8,0:0:0:0:
329,192,69953,1,2,0:0:0:0:
475,192,69953,1,0,0:0:0:0:
182,192,70177,1,8,0:0:0:0:
109,192,70401,1,2,0:0:0:0:
329,192,70401,1,0,0:0:0:0:
256,192,70513,1,8,0:0:0:0:
182,192,70625,1,2,0:0:0:0:
402,192,70625,1,2,0:0:0:0:
329,192,70849,1,2,0:0:0:0:
475,192,70849,128,0,71296:0:0:0:0:
36,192,71073,1,8,0:0:0:0:
109,192,71185,1,8,0:0:0:0:
182,192,71296,1,8,0:0:0:0:
256,192,71408,1,2,0:0:0:0:
329,192,71520,1,8,0:0:0:0:
402,192,71632,1,8,0:0:0:0:
475,192,71744,1,4,0:0:0:0:
36,192,71744,1,0,0:0:0:0:
182,192,71744,1,0,0:0:0:0:
109,192,71744,1,0,0:0:0:0:
182,192,72192,1,8,0:0:0:0:
109,192,72416,1,4,0:0:0:0:
402,192,72416,1,0,0:0:0:0:
475,192,72416,1,0,0:0:0:0:
329,192,72416,1,0,0:0:0:0:
36,192,72640,1,2,0:0:0:0:
256,192,72864,1,8,0:0:0:0:
402,192,73088,1,2,0:0:0:0:
329,192,73311,1,0,0:0:0:0:
475,192,73311,1,0,0:0:0:0:
109,192,73311,1,4,0:0:0:0:
36,192,73311,1,0,0:0:0:0:
256,192,73759,1,2,0:0:0:0:
475,192,73983,1,0,0:0:0:0:
329,192,73983,1,8,0:0:0:0:
36,192,74207,1,8,0:0:0:0:
109,192,74319,1,8,0:0:0:0:
256,192,74431,1,8,0:0:0:0:
402,192,74543,1,2,0:0:0:0:
475,192,74655,1,2,0:0:0:0:
329,192,74767,1,2,0:0:0:0:
182,192,74879,1,8,0:0:0:0:
36,192,74879,1,0,0:0:0:0:
256,192,75102,1,8,0:0:0:0:
329,192,75214,1,8,0:0:0:0:
402,192,75326,1,0,0:0:0:0:
109,192,75326,1,4,0:0:0:0:
36,192,75326,1,0,0:0:0:0:
475,192,75326,1,0,0:0:0:0:
182,192,75550,1,8,0:0:0:0:
256,192,75774,1,2,0:0:0:0:
475,192,75998,1,0,0:0:0:0:
329,192,75998,1,0,0:0:0:0:
182,192,75998,1,4,0:0:0:0:
36,192,75998,1,0,0:0:0:0:
36,192,76446,1,8,0:0:0:0:
182,192,76670,1,2,0:0:0:0:
402,192,76670,1,0,0:0:0:0:
256,192,76894,1,4,0:0:0:0:
36,192,76894,1,0,0:0:0:0:
329,192,76894,1,0,0:0:0:0:
475,192,76894,1,0,0:0:0:0:
109,192,77117,1,2,0:0:0:0:
182,192,77341,1,2,0:0:0:0:
475,192,77565,1,8,0:0:0:0:
36,192,77789,1,8,0:0:0:0:
109,192,77901,1,8,0:0:0:0:
182,192,78013,1,8,0:0:0:0:
256,192,78125,1,2,0:0:0:0:
329,192,78237,1,2,0:0:0:0:
475,192,78237,1,0,0:0:0:0:
109,192,78237,1,0,0:0:0:0:
329,192,78461,1,8,0:0:0:0:
475,192,78461,1,0,0:0:0:0:
109,192,78461,1,0,0:0:0:0:
256,192,78573,1,8,0:0:0:0:
182,192,78685,1,8,0:0:0:0:
109,192,78796,1,2,0:0:0:0:
36,192,78908,1,4,0:0:0:0:
256,192,78908,1,0,0:0:0:0:
402,192,78908,1,0,0:0:0:0:
182,192,79132,1,2,0:0:0:0:
475,192,79132,1,2,0:0:0:0:
36,192,79356,1,4,0:0:0:0:
256,192,79356,1,0,0:0:0:0:
402,192,79356,1,0,0:0:0:0:
329,192,79580,1,2,0:0:0:0:
182,192,79580,1,2,0:0:0:0:
36,192,79804,1,0,0:0:0:0:
109,192,79804,1,4,0:0:0:0:
475,192,79804,1,0,0:0:0:0:
182,192,80028,1,2,0:0:0:0:
256,192,80028,1,2,0:0:0:0:
329,192,80252,1,4,0:0:0:0:
402,192,80252,1,0,0:0:0:0:
475,192,80252,1,0,0:0:0:0:
182,192,80476,1,2,0:0:0:0:
475,192,80476,1,2,0:0:0:0:
36,192,80699,1,0,0:0:0:0:
329,192,80699,1,4,0:0:0:0:
109,192,80699,1,0,0:0:0:0:
475,192,80923,1,2,0:0:0:0:
256,192,80923,1,2,0:0:0:0:
329,192,81147,1,0,0:0:0:0:
182,192,81147,1,4,0:0:0:0:
109,192,81147,1,0,0:0:0:0:
256,192,81371,1,2,0:0:0:0:
402,192,81371,1,2,0:0:0:0:
329,192,81595,1,4,0:0:0:0:
475,192,81595,1,0,0:0:0:0:
36,192,81595,1,0,0:0:0:0:
109,192,81819,1,2,0:0:0:0:
402,192,81819,1,2,0:0:0:0:
182,192,82043,1,0,0:0:0:0:
256,192,82043,1,4,0:0:0:0:
329,192,82043,1,0,0:0:0:0:
475,192,82267,1,10,0:0:0:0:
36,192,82491,1,0,0:0:0:0:
329,192,82491,1,0,0:0:0:0:
182,192,82491,128,4,83386:0:0:0:0:
256,192,82714,1,2,0:0:0:0:
475,192,82938,1,8,0:0:0:0:
256,192,83162,1,2,0:0:0:0:
329,192,83274,1,2,0:0:0:0:
402,192,83386,1,8,0:0:0:0:
36,192,83610,1,8,0:0:0:0:
475,192,83834,1,8,0:0:0:0:
402,192,83946,1,8,0:0:0:0:
36,192,84132,5,2,0:0:0:0:
475,192,84282,1,0,0:0:0:0:
402,192,84282,128,0,86073:0:0:0:0:
182,192,84282,1,4,0:0:0:0:
329,192,84729,128,8,84953:0:0:0:0:
182,192,84953,1,2,0:0:0:0:
109,192,85401,128,2,85625:0:0:0:0:
256,192,85625,1,8,0:0:0:0:
36,192,85849,1,8,0:0:0:0:
256,192,86073,128,4,89655:0:0:0:0:
182,192,86073,128,0,89655:0:0:0:0:
