osu file format v12

[General]
AudioFilename: Overfly.mp3
AudioLeadIn: 0
PreviewTime: 160586
Countdown: 0
SampleSet: Normal
StackLeniency: 0.7
Mode: 0
LetterboxInBreaks: 0
WidescreenStoryboard: 0

[Editor]
Bookmarks: 17318,45527,202691
DistanceSpacing: 1
BeatDivisor: 4
GridSize: 4

[Metadata]
Title:Overfly
TitleUnicode:Overfly
Artist:Haruna Luna
ArtistUnicode:春奈るな
Creator:Xinely
Version:Hard
Source:Sword Art Online
Tags:Ending Hinsvar Natsu Lundlerol SAO ALfheim ALO ソードアート・オンライン アルヴヘイム・オンライン
BeatmapID:235491
BeatmapSetID:85812

[Difficulty]
HPDrainRate:6
CircleSize:4
OverallDifficulty:6
ApproachRate:7
SliderMultiplier:1.5
SliderTickRate:2

[Events]
//Background and Video events
0,0,"xinely bg.jpg",0,0
//Break Periods
2,34517,42149
2,118696,129686
2,202875,216999
//Storyboard Layer 0 (Background)
//Storyboard Layer 1 (Fail)
//Storyboard Layer 2 (Pass)
//Storyboard Layer 3 (Foreground)
Sprite,Foreground,Centre,"xinely.png",463,377 S,0,34333,,0.75 F,0,34333,34557,0,1 F,0,37691,37915,1,0
//Storyboard Sound Samples
//Background Colour Transformations
3,100,163,162,255

[TimingPoints]
3870,447.761194029851,4,2,1,25,1,0
3870,-133.333333333333,4,2,1,25,0,0
17302,-133.333333333333,4,2,1,35,0,0
28944,-100,4,2,1,35,0,0
45511,-114.942528735632,4,1,1,40,0,0
73720,-100,4,1,1,50,0,0
87377,-133.333333333333,4,1,1,50,0,0
88944,-100,4,1,1,50,0,0
89840,-100,4,1,1,60,0,1
103272,-100,4,1,1,50,0,0
104168,-100,4,1,1,60,0,1
116705,-100,4,1,1,50,0,0
131034,-100,4,2,1,40,0,0
131258,-133.333333333333,4,1,1,40,0,0
145362,-100,4,1,1,40,0,0
159019,-133.333333333333,4,1,1,40,0,0
160138,-100,4,1,1,40,0,0
161481,-100,4,1,1,60,0,1
174914,-100,4,1,1,50,0,0
175810,-100,4,1,1,60,0,1
188347,-100,4,1,1,40,0,0
218795,-133.333333333333,4,1,1,30,0,0
219243,-100,4,1,1,60,0,1
227526,-100,4,1,1,50,0,1
227974,-100,4,1,1,60,0,1
232228,-100,4,1,1,50,0,0
233123,-100,4,1,1,60,0,1
245661,-100,4,1,1,50,0,0
248347,-100,4,1,1,30,0,0
248795,-100,4,1,1,20,0,0
249243,-100,4,1,1,50,0,0
259989,-100,4,1,1,40,0,0
261780,-100,4,1,1,30,0,0
263571,-100,4,1,1,20,0,0
264690,-100,4,1,1,10,0,0
265362,-100,4,1,1,5,0,0

[Colours]
Combo1 : 237,231,112
Combo2 : 67,203,78
Combo3 : 163,197,239
Combo4 : 251,57,57
SliderBorder : 255,255,255

[HitObjects]
92,100,3870,1,2,0:0:0:0:
132,140,4093,1,0,0:0:0:0:
176,176,4317,2,0,P|228:140|224:28,2,168.750006437302,2|0|2,0:0|0:0|0:0,0:0:0:0:
128,204,5884,2,0,L|80:248,1,56.2500021457673,0|0,0:0|0:0,0:0:0:0:
164,232,6332,2,0,L|144:294,1,56.2500021457673,0|2,0:0|0:0,0:0:0:0:
212,240,6780,2,0,L|226:303,1,56.2500021457673
252,220,7228,2,0,L|300:264,1,56.2500021457673,0|2,0:0|0:0,0:0:0:0:
380,184,7899,6,0,B|392:116|392:116|348:84|360:16,2,168.750006437302,2|0|2,0:0|0:0|0:0,0:0:0:0:
424,216,9467,2,0,L|392:284,1,56.2500021457673,0|2,0:0|0:0,0:0:0:0:
376,316,9914,2,0,L|312:292,1,56.2500021457673,0|2,0:0|0:0,0:0:0:0:
268,296,10362,2,0,L|200:307,1,56.2500021457673,0|2,0:0|0:0,0:0:0:0:
156,296,10810,2,0,L|92:272,1,56.2500021457673,0|2,0:0|0:0,0:0:0:0:
52,176,11481,6,0,P|24:108|72:28,1,168.750006437302,2|2,0:0|0:0,0:0:0:0:
116,56,12377,1,0,0:0:0:0:
168,72,12601,2,0,L|244:72,1,56.2500021457673,0|2,0:0|0:0,0:0:0:0:
284,72,13049,1,0,0:0:0:0:
328,108,13272,2,0,P|372:185|344:253,1,168.750006437302,2|2,0:0|0:0,0:0:0:0:
300,292,14168,2,0,P|272:272|232:276,1,56.2500021457673
196,256,14616,5,2,0:0:0:0:
144,236,14840,1,0,0:0:0:0:
96,208,15064,2,0,P|66:163|72:106,1,112.500004291535,2|0,0:0|0:0,0:0:0:0:
120,76,15735,2,0,P|170:59|224:79,1,112.500004291535,2|0,0:0|0:0,0:0:0:0:
272,112,16407,1,2,0:0:0:0:
272,112,17302,2,0,P|230:94|172:96,2,84.3750032186509,2|0|0,0:0|0:0|0:0,0:0:0:0:
264,168,18198,6,0,P|264:216|316:268,1,112.500004291535,2|0,0:0|0:0,0:0:0:0:
404,212,19093,2,0,P|444:216|504:208,2,84.3750032186509,2|0|0,0:0|0:0|0:0,0:0:0:0:
348,224,19989,2,0,P|324:272|252:296,2,112.500004291535,2|0|2,0:0|0:0|0:0,0:0:0:0:
344,168,21108,1,0,0:0:0:0:
296,80,21332,1,0,0:0:0:0:
232,144,21556,1,0,0:0:0:0:
156,216,21780,6,0,P|108:240|108:300,1,112.500004291535,2|0,0:0|0:0,0:0:0:0:
152,328,22452,2,0,P|166:340|201:353,1,56.2500021457673,2|0,0:0|0:0,0:0:0:0:
256,336,22899,1,0,0:0:0:0:
308,316,23123,1,0,0:0:0:0:
356,288,23347,2,0,P|376:208|328:140,1,168.750006437302,2|0,0:0|0:0,0:0:0:0:
228,92,24467,2,0,P|188:72|144:72,1,84.3750032186509,2|0,0:0|0:0,0:0:0:0:
128,80,24914,2,0,P|108:124|108:156,1,56.2500021457673
120,188,25362,6,0,P|176:212|232:176,1,112.500004291535,2|0,0:0|0:0,0:0:0:0:
416,224,26258,2,0,P|376:204|332:204,1,84.3750032186509,2|0,0:0|0:0,0:0:0:0:
316,208,26705,2,0,P|296:252|296:284,1,56.2500021457673
328,308,27153,6,0,P|384:332|440:296,1,112.500004291535,2|0,0:0|0:0,0:0:0:0:
468,272,27825,1,0,0:0:0:0:
496,224,28049,2,0,P|516:172|480:108,1,112.500004291535,2|0,0:0|0:0,0:0:0:0:
448,92,28720,1,0,0:0:0:0:
380,64,28944,5,4,0:0:0:0:
304,56,29168,2,0,L|208:56,2,75,4|0|0,0:0|0:0|0:0,0:0:0:0:
304,132,29840,1,0,0:0:0:0:
304,132,29952,1,0,0:0:0:0:
304,132,30064,2,0,L|396:132,2,75,4|0|0,0:0|0:0|0:0,0:0:0:0:
156,188,30735,5,4,0:0:0:0:
256,192,30847,12,2,34317,0:0:0:0:
256,192,43049,12,4,45064,0:0:0:0:
204,124,45511,6,0,P|268:120|324:176,1,130.5000010952,2|2,0:0|0:0,0:0:0:0:
288,220,46183,1,0,0:0:0:0:
244,268,46407,2,0,L|268:340,2,65.2500005475998,2|0|2,0:0|0:0|0:0,0:0:0:0:
148,244,47078,5,0,0:0:0:0:
92,212,47302,2,0,P|60:196|40:168,1,65.2500005475998,2|0,0:0|0:0,0:0:0:0:
120,156,47750,2,0,P|100:126|96:92,1,65.2500005475998,2|0,0:0|0:0,0:0:0:0:
168,124,48198,2,0,P|165:88|184:60,1,65.2500005475998,2|0,0:0|0:0,0:0:0:0:
264,16,48646,5,2,0:0:0:0:
364,104,49093,2,0,P|432:112|484:160,1,130.5000010952,2|2,0:0|0:0,0:0:0:0:
460,216,49765,2,0,P|436:240|392:256,1,65.2500005475998,0|2,0:0|0:0,0:0:0:0:
344,252,50213,1,0,0:0:0:0:
300,204,50437,6,0,P|284:148|200:128,1,130.5000010952,2|2,0:0|0:0,0:0:0:0:
160,148,51108,2,0,L|88:120,1,65.2500005475998,0|2,0:0|0:0,0:0:0:0:
44,212,51556,2,0,P|32:248|40:284,1,65.2500005475998,0|2,0:0|0:0,0:0:0:0:
96,304,52004,1,0,0:0:0:0:
116,288,52116,1,0,0:0:0:0:
136,272,52228,5,2,0:0:0:0:
260,312,52675,2,0,P|321:308|392:264,1,130.5000010952,2|2,0:0|0:0,0:0:0:0:
344,220,53347,1,0,0:0:0:0:
296,176,53571,2,0,P|304:140|300:96,2,65.2500005475998,2|0|2,0:0|0:0|0:0,0:0:0:0:
196,180,54243,5,0,0:0:0:0:
136,156,54467,1,2,0:0:0:0:
140,92,54690,2,0,P|128:64|136:16,2,65.2500005475998,0|2|0,0:0|0:0|0:0,0:0:0:0:
204,84,55362,1,2,0:0:0:0:
268,92,55586,6,0,P|284:64|332:36,1,65.2500005475998,0|2,0:0|0:0,0:0:0:0:
320,136,56034,2,0,P|351:142|393:179,1,65.2500005475998,0|2,0:0|0:0,0:0:0:0:
296,200,56481,2,0,P|299:232|277:282,1,65.2500005475998,0|2,0:0|0:0,0:0:0:0:
228,196,56929,2,0,P|198:209|143:203,1,65.2500005475998,0|2,0:0|0:0,0:0:0:0:
216,132,57377,6,0,P|194:108|182:53,1,65.2500005475998,0|2,0:0|0:0,0:0:0:0:
124,48,57825,1,0,0:0:0:0:
68,80,58049,2,0,P|44:52|36:24,2,65.2500005475998,2|0|2,0:0|0:0|0:0,0:0:0:0:
36,140,58720,2,0,B|72:196|72:196|60:264|140:292,1,195.750001642799,0|2,0:0|0:0,0:0:0:0:
268,280,59840,6,0,P|328:252|340:232,2,65.2500005475998,8|0|2,0:0|0:0|0:0,0:0:0:0:
204,264,60511,1,0,0:0:0:0:
164,212,60735,2,8,L|200:144,1,65.2500005475998,8|0,0:0|0:0,0:0:0:0:
284,128,61183,6,0,L|248:196,1,65.2500005475998,2|0,0:0|0:0,0:0:0:0:
284,272,61631,2,0,L|320:204,1,65.2500005475998,8|0,0:0|0:0,0:0:0:0:
404,188,62078,2,0,L|368:256,1,65.2500005475998,2|0,0:0|0:0,0:0:0:0:
408,308,62526,1,8,0:0:0:0:
460,260,62750,1,0,0:0:0:0:
460,260,62862,1,0,0:0:0:0:
460,260,62974,5,2,0:0:0:0:
468,92,63422,2,0,P|471:124|467:156,1,65.2500005475998,8|0,0:0|0:0,0:0:0:0:
432,212,63870,1,2,0:0:0:0:
380,172,64093,1,0,0:0:0:0:
328,208,64317,2,0,P|264:212|200:188,1,130.5000010952,8|2,0:0|0:0,0:0:0:0:
132,268,64989,5,0,0:0:0:0:
224,315,65213,2,0,P|200:255|203:187,1,130.5000010952,8|2,0:0|0:0,0:0:0:0:
208,124,65884,2,0,L|152:92,1,65.2500005475998,8|8,0:0|0:0,0:0:0:0:
21,116,66332,2,0,L|85:92,1,65.2500005475998,0|2,0:0|0:0,0:0:0:0:
208,124,67004,5,8,0:0:0:0:
272,104,67228,1,0,0:0:0:0:
308,160,67452,1,2,0:0:0:0:
272,212,67675,2,0,P|300:236|334:239,2,65.2500005475998,0|8|0,0:0|0:0|0:0,0:0:0:0:
208,192,68347,6,0,P|156:204|104:188,1,97.8750008213997,2|0,0:0|0:0,0:0:0:0:
96,188,68795,2,0,L|40:140,1,65.2500005475998,8|0,0:0|0:0,0:0:0:0:
84,64,69243,2,0,P|157:45|205:65,1,130.5000010952,2|8,0:0|0:0,0:0:0:0:
296,100,69914,1,0,0:0:0:0:
216,128,70138,6,0,P|216:64|254:12,1,130.5000010952,2|8,0:0|0:0,0:0:0:0:
320,24,70810,1,0,0:0:0:0:
372,60,71034,2,0,P|376:96|372:132,1,65.2500005475998,2|0,0:0|0:0,0:0:0:0:
380,212,71481,2,0,P|448:184|488:124,1,130.5000010952,8|2,0:0|0:0,0:0:0:0:
436,92,72153,5,0,0:0:0:0:
380,124,72377,1,8,0:0:0:0:
328,164,72601,2,0,L|302:224,1,65.2500005475998,0|2,0:0|0:0,0:0:0:0:
280,288,73049,1,0,0:0:0:0:
280,288,73161,1,0,0:0:0:0:
280,288,73272,1,8,0:0:0:0:
196,320,73496,2,0,P|160:308|132:284,1,65.2500005475998,0|6,0:0|0:0,0:0:0:0:
60,100,74168,6,0,L|148:116,1,75,8|0,0:0|0:0,0:0:0:0:
160,100,74504,1,0,0:0:0:0:
188,88,74616,2,0,L|276:104,1,75,4|0,0:0|0:0,0:0:0:0:
336,84,75064,1,8,0:0:0:0:
336,160,75287,1,0,0:0:0:0:
247,246,75511,6,0,B|195:266|195:266|187:322|140:336,1,150,6|10,0:0|0:0,0:0:0:0:
64,336,76183,2,0,P|36:308|36:264,2,75,0|2|0,0:0|0:0|0:0,0:0:0:0:
140,336,76855,1,8,0:0:0:0:
140,336,76967,1,0,0:0:0:0:
140,336,77078,1,0,0:0:0:0:
196,240,77302,5,4,0:0:0:0:
320,328,77750,2,0,P|364:296|380:228,1,112.5,8|0,0:0|0:0,0:0:0:0:
388,212,78198,2,0,P|348:204|304:212,1,75,2|0,0:0|0:0,0:0:0:0:
240,212,78646,2,0,P|225:249|225:283,1,75,8|0,0:0|0:0,0:0:0:0:
156,172,79093,6,0,P|144:104|184:36,1,150,6|8,0:0|0:0,0:0:0:0:
256,48,79765,2,0,P|312:72|400:36,1,150,2|0,0:0|0:0,0:0:0:0:
456,128,80437,1,8,0:0:0:0:
456,128,80549,1,0,0:0:0:0:
456,128,80661,1,0,0:0:0:0:
432,232,80884,5,4,0:0:0:0:
356,360,81332,2,0,P|339:308|279:272,1,112.5,8|0,0:0|0:0,0:0:0:0:
264,272,81780,2,0,P|224:276|176:264,1,75,2|0,0:0|0:0,0:0:0:0:
116,280,82228,1,8,0:0:0:0:
52,176,82452,6,0,P|44:124|60:88,1,75,0|4,0:0|0:0,0:0:0:0:
124,104,82899,2,0,P|132:156|116:192,1,75,0|8,0:0|0:0,0:0:0:0:
184,224,83347,2,4,P|252:244|344:212,1,150
464,160,84243,1,0,0:0:0:0:
400,120,84467,6,0,P|376:52|305:38,1,150,4|8,0:0|0:0,0:0:0:0:
240,72,85138,1,0,0:0:0:0:
220,208,85362,2,0,L|336:101,1,150,4|8,0:0|0:0,0:0:0:0:
404,100,86034,1,0,0:0:0:0:
351,240,86258,6,0,P|284:196|220:208,1,150,4|8,0:0|0:0,0:0:0:0:
216,284,86929,1,2,0:0:0:0:
260,344,87153,1,0,0:0:0:0:
364,340,87377,6,0,P|424:288|356:128,1,281.250010728836,4|0,0:0|0:0,0:0:0:0:
104,124,88944,6,0,P|112:72|160:28,2,112.5,2|2|0,0:0|0:0|0:0,0:0:0:0:
136,192,89840,6,4,P|204:220|296:180,1,150,4|8,0:0|0:0,0:0:0:0:
344,172,90511,1,0,0:0:0:0:
408,132,90735,2,0,P|444:96|464:20,2,112.5,2|2|0,0:0|0:0|0:0,0:0:0:0:
340,96,91631,6,0,B|288:64|288:64|240:92|180:56,2,150,2|8|2,0:0|0:0|0:0,0:0:0:0:
392,148,92750,2,0,L|468:188,1,75,0|8,0:0|0:0,0:0:0:0:
490,282,93198,2,0,L|420:248,1,75,0|2,0:0|0:0,0:0:0:0:
352,276,93646,5,0,0:0:0:0:
300,328,93870,2,0,P|268:304|220:300,1,75,8|0,0:0|0:0,0:0:0:0:
160,316,94317,1,2,0:0:0:0:
112,256,94541,1,0,0:0:0:0:
152,192,94765,1,8,0:0:0:0:
268,168,94989,6,0,B|316:136|368:172|368:172|436:152|456:72,1,225,2|8,0:0|0:0,0:0:0:0:
388,52,95884,1,0,0:0:0:0:
312,60,96108,2,0,P|240:32|160:68,2,150,2|8|4,0:0|0:0|0:0,0:0:0:0:
388,52,97228,5,0,0:0:0:0:
444,112,97452,1,8,0:0:0:0:
456,184,97675,1,0,0:0:0:0:
408,240,97899,2,0,P|340:224|260:264,1,150,2|8,0:0|0:0,0:0:0:0:
256,176,98571,6,0,P|264:251|308:308,1,150,2|0,0:0|0:0,0:0:0:0:
380,328,99243,2,0,P|416:336|476:320,2,75,8|0|2,0:0|0:0|0:0,0:0:0:0:
388,224,99914,1,0,0:0:0:0:
284,116,100138,1,8,0:0:0:0:
388,116,100362,1,0,0:0:0:0:
284,224,100586,5,2,0:0:0:0:
164,304,101034,2,0,P|136:276|128:236,1,75,8|0,0:0|0:0,0:0:0:0:
148,128,101481,2,0,L|200:112,2,37.5,2|8|0,0:0|0:0|0:0,0:0:0:0:
80,156,101929,1,8,0:0:0:0:
48,224,102153,1,0,0:0:0:0:
48,224,102265,1,0,0:0:0:0:
48,224,102377,6,0,P|80:272|166:303,1,150,2|8,0:0|0:0,0:0:0:0:
276,332,103049,1,0,0:0:0:0:
336,288,103272,2,0,L|376:240,3,37.5,2|0|0|0,0:0|0:0|0:0|0:0,0:0:0:0:
380,236,103720,2,0,L|408:180,3,37.5,8|0|0|0,0:0|0:0|0:0|0:0,0:0:0:0:
412,176,104168,5,4,0:0:0:0:
352,40,104616,1,8,0:0:0:0:
276,52,104840,2,0,B|236:44|236:44|192:52,2,75,0|2|0,0:0|0:0|0:0,0:0:0:0:
328,108,105511,1,8,0:0:0:0:
376,164,105735,6,0,P|328:212|228:236,1,150,2|0,0:0|0:0,0:0:0:0:
176,220,106407,2,0,L|100:168,1,75,8|2,0:0|0:0,0:0:0:0:
96,64,106855,2,0,L|157:106,1,75,2|0,0:0|0:0,0:0:0:0:
114,178,107302,2,0,P|164:112|256:88,1,150,8|2,0:0|0:0,0:0:0:0:
376,104,108198,5,8,0:0:0:0:
404,172,108422,2,0,P|448:116|420:44,2,150,0|2|0,0:0|0:0|0:0,0:0:0:0:
352,228,109541,5,2,0:0:0:0:
256,188,109765,1,0,0:0:0:0:
256,188,109877,1,0,0:0:0:0:
256,188,109989,1,8,0:0:0:0:
402,134,110437,2,0,P|350:110|282:122,1,112.5,2|0,0:0|0:0,0:0:0:0:
266,118,110884,2,0,P|250:158|262:198,1,75,8|0,0:0|0:0,0:0:0:0:
404,254,111332,6,0,P|325:285|269:261,1,150,4|8,0:0|0:0,0:0:0:0:
120,309,112228,2,0,P|173:303|225:327,1,112.5,2|0,0:0|0:0,0:0:0:0:
264,332,112675,2,0,P|276:296|264:252,1,75,8|0,0:0|0:0,0:0:0:0:
356,87,113123,6,0,P|372:156|336:224,1,150,4|8,0:0|0:0,0:0:0:0:
187,223,113795,1,0,0:0:0:0:
187,223,114019,2,0,L|347:223,1,150,2|8,0:0|0:0,0:0:0:0:
484,136,114690,1,0,0:0:0:0:
432,192,114914,6,0,P|376:164|384:80,1,150,4|8,0:0|0:0,0:0:0:0:
432,32,115586,2,0,P|356:16|304:68,1,150,4|0,0:0|0:0,0:0:0:0:
296,176,116258,1,8,0:0:0:0:
192,112,116481,1,0,0:0:0:0:
256,192,116705,12,2,118496,0:0:0:0:
120,116,130586,6,0,L|152:60,4,37.5,8|0|8|0|4,0:0|0:0|0:0|0:0|0:0,0:0:0:0:
228,84,131481,2,0,P|276:72|340:84,1,112.500004291535,8|2,0:0|0:0,0:0:0:0:
352,136,132153,1,0,0:0:0:0:
336,192,132377,2,0,P|274:202|226:190,1,112.500004291535,8|2,0:0|0:0,0:0:0:0:
172,176,133049,6,0,P|140:148|124:116,2,56.2500021457673,0|8|0,0:0|0:0|0:0,0:0:0:0:
208,132,133720,2,0,P|205:89|216:55,2,56.2500021457673,2|0|8,0:0|0:0|0:0,0:0:0:0:
244,176,134392,1,0,0:0:0:0:
280,220,134616,5,2,0:0:0:0:
408,116,135064,2,0,B|396:156|420:184|420:184|408:236,1,112.500004291535,8|2,0:0|0:0,0:0:0:0:
344,252,135735,1,0,0:0:0:0:
280,220,135959,2,0,B|270:180|270:180|294:152|282:112,1,112.500004291535,8|2,0:0|0:0,0:0:0:0:
212,80,136631,6,0,L|136:80,1,56.2500021457673,0|8,0:0|0:0,0:0:0:0:
159,192,137078,2,0,L|216:192,1,56.2500021457673,0|2,0:0|0:0,0:0:0:0:
216,136,137526,2,0,L|160:136,1,56.2500021457673,0|8,0:0|0:0,0:0:0:0:
160,248,137974,2,0,L|216:248,1,56.2500021457673,0|2,0:0|0:0,0:0:0:0:
348,292,138646,6,0,P|400:296|448:260,2,112.500004291535,8|2|8,0:0|0:0|0:0,0:0:0:0:
292,292,139765,2,0,L|236:256,1,56.2500021457673,0|2,0:0|0:0,0:0:0:0:
196,236,140213,5,0,0:0:0:0:
192,180,140437,2,0,P|220:120|208:56,1,112.500004291535,8|2,0:0|0:0,0:0:0:0:
268,20,141108,2,0,P|208:4|148:32,1,112.500004291535,0|2,0:0|0:0,0:0:0:0:
120,56,141780,5,2,0:0:0:0:
84,100,142004,2,0,L|40:164,1,56.2500021457673,0|8,0:0|0:0,0:0:0:0:
48,204,142452,2,0,L|56:272,1,56.2500021457673,0|2,0:0|0:0,0:0:0:0:
96,296,142899,1,0,0:0:0:0:
148,320,143123,6,0,P|200:336|276:320,1,112.500004291535,8|2,0:0|0:0,0:0:0:0:
308,308,143795,1,0,0:0:0:0:
356,280,144019,1,8,0:0:0:0:
404,252,144243,2,0,L|403:189,1,56.2500021457673
400,116,144690,1,0,0:0:0:0:
400,116,144802,1,0,0:0:0:0:
400,116,144914,1,8,0:0:0:0:
336,200,145138,1,0,0:0:0:0:
216,200,145362,5,4,0:0:0:0:
312,92,145810,2,0,P|264:56|200:60,2,112.5,8|0|2,0:0|0:0|0:0,0:0:0:0:
400,116,146705,2,0,L|400:208,1,75,8|0,0:0|0:0,0:0:0:0:
400,328,147153,6,0,P|456:344|505:327,2,112.5,2|0|2,0:0|0:0|0:0,0:0:0:0:
328,348,148049,1,2,0:0:0:0:
256,328,148272,1,0,0:0:0:0:
224,260,148496,1,8,0:0:0:0:
224,260,148608,1,0,0:0:0:0:
224,260,148720,1,0,0:0:0:0:
264,196,148944,5,4,0:0:0:0:
344,324,149392,2,0,P|416:336|484:284,1,150,8|2,0:0|0:0,0:0:0:0:
468,220,150064,1,0,0:0:0:0:
320,220,150511,1,0,0:0:0:0:
340,72,150735,6,0,P|272:36|188:48,1,150,2|8,0:0|0:0,0:0:0:0:
136,84,151407,2,0,P|92:84|44:112,2,75,0|2|0,0:0|0:0|0:0,0:0:0:0:
204,120,152078,1,8,0:0:0:0:
224,136,152190,1,0,0:0:0:0:
244,152,152302,1,0,0:0:0:0:
320,220,152526,5,4,0:0:0:0:
428,112,152974,2,0,P|440:56|492:24,2,112.5,8|0|2,0:0|0:0|0:0,0:0:0:0:
408,184,153870,2,0,B|393:249|393:249|416:282|405:339,1,150,8|2,0:0|0:0,0:0:0:0:
312,344,154541,5,0,0:0:0:0:
244,312,154765,2,0,P|208:296|164:260,2,75,8|4|2,0:0|0:0|0:0,0:0:0:0:
304,268,155437,1,4,0:0:0:0:
256,68,155884,1,0,0:0:0:0:
328,88,156108,6,8,P|396:80|448:136,1,150,4|8,0:0|0:0,0:0:0:0:
459,254,156780,1,0,0:0:0:0:
320,288,157004,2,0,L|380:132,1,150,4|8,0:0|0:0,0:0:0:0:
328,88,157675,1,0,0:0:0:0:
151,93,157899,6,0,P|200:146|272:136,1,150,4|8,0:0|0:0,0:0:0:0:
328,88,158571,1,0,0:0:0:0:
352,160,158795,1,8,0:0:0:0:
300,212,159019,6,0,B|180:268|116:168|20:216,1,281.250010728836,2|0,0:0|0:0,0:0:0:0:
104,344,160586,6,0,P|61:372|1:376,2,112.5,2|0|0,0:0|0:0|0:0,0:0:0:0:
84,232,161481,6,0,P|95:157|155:121,1,150,4|8,0:0|0:0,0:0:0:0:
228,104,162153,1,0,0:0:0:0:
288,60,162377,2,0,P|332:32|408:28,2,112.5,2|2|0,0:0|0:0|0:0,0:0:0:0:
228,104,163272,6,0,P|160:132|72:104,2,150,2|8|2,0:0|0:0|0:0,0:0:0:0:
304,96,164392,2,0,L|376:132,1,75,0|8,0:0|0:0,0:0:0:0:
436,268,164840,2,0,L|364:232,1,75,0|2,0:0|0:0,0:0:0:0:
300,212,165287,5,0,0:0:0:0:
230,188,165511,2,0,P|201:182|161:201,1,75,8|0,0:0|0:0,0:0:0:0:
212,256,165959,1,2,0:0:0:0:
268,304,166183,1,0,0:0:0:0:
212,356,166407,1,8,0:0:0:0:
104,324,166631,6,0,P|40:232|88:124,1,225,2|8,0:0|0:0,0:0:0:0:
136,88,167526,1,0,0:0:0:0:
192,140,167750,1,2,0:0:0:0:
248,88,167974,1,0,0:0:0:0:
300,140,168198,2,0,P|368:116|448:148,1,150,8|6,0:0|0:0,0:0:0:0:
492,192,168870,5,0,0:0:0:0:
448,256,169093,1,8,0:0:0:0:
376,276,169317,1,0,0:0:0:0:
308,248,169541,2,0,P|216:300|156:280,1,150,2|8,0:0|0:0,0:0:0:0:
116,336,170213,6,0,P|172:290|178:217,1,150,2|2,0:0|0:0,0:0:0:0:
164,144,170884,1,8,0:0:0:0:
220,96,171108,1,2,0:0:0:0:
288,128,171332,1,0,0:0:0:0:
232,176,171556,2,0,P|223:216|226:249,2,75,0|8|0,0:0|0:0|0:0,0:0:0:0:
344,180,172228,6,0,P|364:120|304:48,1,150,2|8,0:0|0:0,0:0:0:0:
244,60,172899,2,0,L|152:72,1,75,0|2,0:0|0:0,0:0:0:0:
156,188,173347,2,0,L|144:96,1,75,0|8,0:0|0:0,0:0:0:0:
196,224,173795,6,0,L|270:214,1,75,0|2,0:0|0:0,0:0:0:0:
292,96,174243,2,0,L|301:170,1,75,0|8,0:0|0:0,0:0:0:0:
316,268,174690,1,0,0:0:0:0:
388,240,174914,2,0,L|428:192,3,37.5,2|0|0|0,0:0|0:0|0:0|0:0,0:0:0:0:
432,188,175362,2,0,L|460:132,3,37.5,8|0|0|0,0:0|0:0|0:0|0:0,0:0:0:0:
464,128,175810,5,4,0:0:0:0:
416,68,176034,1,0,0:0:0:0:
340,56,176258,1,8,0:0:0:0:
264,56,176481,2,0,L|180:60,1,75,0|2,0:0|0:0,0:0:0:0:
124,96,176929,1,0,0:0:0:0:
152,168,177153,1,8,0:0:0:0:
272,244,177377,6,0,P|340:236|384:152,1,150,2|2,0:0|0:0,0:0:0:0:
348,104,178049,1,8,0:0:0:0:
276,84,178272,1,0,0:0:0:0:
208,120,178496,1,2,0:0:0:0:
152,168,178720,2,0,L|68:168,1,75,0|8,0:0|0:0,0:0:0:0:
155,244,179168,2,0,L|80:244,2,75,0|2|0,0:0|0:0|0:0,0:0:0:0:
272,332,179840,6,0,L|176:332,1,75,8|0,0:0|0:0,0:0:0:0:
300,256,180287,2,0,P|364:248|400:168,1,150,2|8,0:0|0:0,0:0:0:0:
424,108,180959,6,0,P|360:116|324:196,1,150,2|0,0:0|0:0,0:0:0:0:
300,256,181631,1,8,0:0:0:0:
196,152,182078,2,0,P|140:120|88:132,2,112.5,2|2|0,0:0|0:0|0:0,0:0:0:0:
216,224,182974,6,0,P|268:170|248:94,1,150,4|8,0:0|0:0,0:0:0:0:
132,192,183870,2,0,P|76:188|28:144,2,112.5,2|2|0,0:0|0:0|0:0,0:0:0:0:
164,344,184765,6,0,P|219:296|216:224,1,150,4|8,0:0|0:0,0:0:0:0:
224,148,185437,1,0,0:0:0:0:
240,76,185661,2,0,L|160:48,2,75,2|0|8,0:0|0:0|0:0,0:0:0:0:
304,112,186332,1,0,0:0:0:0:
372,144,186556,6,0,P|440:132|472:60,1,150,4|8,0:0|0:0,0:0:0:0:
396,72,187228,1,4,0:0:0:0:
372,144,187452,2,0,L|372:232,2,75,2|0|8,0:0|0:0|0:0,0:0:0:0:
396,72,188123,1,0,0:0:0:0:
320,76,188347,6,0,P|236:88|172:48,2,150,4|8|2,0:0|0:0|0:0,0:0:0:0:
376,124,189467,1,0,0:0:0:0:
444,156,189690,2,0,L|420:252,1,75,8|0,0:0|0:0,0:0:0:0:
329,292,190138,6,0,L|348:220,1,75,2|0,0:0|0:0,0:0:0:0:
252,284,190586,2,0,L|228:380,1,75,8|2,0:0|0:0,0:0:0:0:
160,340,191034,2,0,P|96:324|80:308,2,75,0|0|8,0:0|0:0|0:0,0:0:0:0:
252,284,191705,1,0,0:0:0:0:
320,236,191929,6,0,P|380:216|412:120,1,150,2|8,0:0|0:0,0:0:0:0:
360,92,192601,1,2,0:0:0:0:
288,76,192825,2,0,P|252:96|188:104,2,75,0|0|8,0:0|0:0|0:0,0:0:0:0:
360,92,193496,1,0,0:0:0:0:
380,164,193720,6,0,P|412:240|364:304,1,150,2|8,0:0|0:0,0:0:0:0:
340,232,194392,2,0,L|244:208,1,75,2|0,0:0|0:0,0:0:0:0:
224,276,194840,1,0,0:0:0:0:
160,236,195064,1,8,0:0:0:0:
200,172,195287,1,0,0:0:0:0:
256,124,195511,6,0,P|320:104|396:136,2,150,4|8|0,0:0|0:0|0:0,0:0:0:0:
200,172,196631,2,0,P|164:192|108:176,1,75,0|8,0:0|0:0,0:0:0:0:
68,152,197078,2,0,P|56:192|76:244,1,75,0|6,0:0|0:0,0:0:0:0:
128,260,197526,5,0,0:0:0:0:
148,280,197638,1,0,0:0:0:0:
164,304,197750,2,0,P|120:336|68:352,1,75,8|2,0:0|0:0,0:0:0:0:
40,300,198198,2,0,P|24:256|48:200,1,75,0|2,0:0|0:0,0:0:0:0:
60,160,198646,1,8,0:0:0:0:
128,128,198870,1,0,0:0:0:0:
236,76,199093,6,0,P|289:80|345:64,1,112.5,4|0,0:0|0:0,0:0:0:0:
364,88,199541,2,0,L|316:168,1,75,8|2,0:0|0:0,0:0:0:0:
284,216,199989,1,0,0:0:0:0:
204,348,200213,2,2,L|249:275,1,75,8|8,0:0|0:0,0:0:0:0:
256,192,200661,12,4,202675,0:0:0:0:
256,112,217899,6,0,P|196:88|132:116,1,112.5,2|0,0:0|0:0,0:0:0:0:
124,112,218347,2,0,P|112:156|120:188,1,75,8|0,0:0|0:0,0:0:0:0:
152,256,218795,6,0,P|212:272|272:244,1,112.500004291535,2|4,0:0|0:0,0:0:0:0:
340,92,219690,6,0,P|400:68|444:80,1,112.5,2|0,0:0|0:0,0:0:0:0:
476,84,220138,2,0,P|488:128|481:155,1,75,8|0,0:0|0:0,0:0:0:0:
420,204,220586,6,0,P|344:224|284:182,2,150,2|8|2,0:0|0:0|0:0,0:0:0:0:
476,296,221705,1,0,0:0:0:0:
404,324,221929,1,8,0:0:0:0:
332,336,222153,2,0,L|248:336,1,75,0|2,0:0|0:0,0:0:0:0:
180,336,222601,5,0,0:0:0:0:
48,284,222825,2,0,L|148:284,1,75,8|0,0:0|0:0,0:0:0:0:
180,336,223272,1,2,0:0:0:0:
240,292,223496,2,0,P|240:252|264:208,1,75,0|8,0:0|0:0,0:0:0:0:
328,232,223944,6,0,P|388:188|376:48,1,225,0|8,0:0|0:0,0:0:0:0:
304,72,224840,1,0,0:0:0:0:
228,68,225064,2,0,L|204:97,3,37.5,2|0|0|0,0:0|0:0|0:0|0:0,0:0:0:0:
184,120,225511,2,0,L|160:152,3,37.5,8|0|0|0,0:0|0:0|0:0|0:0,0:0:0:0:
144,176,225959,5,4,0:0:0:0:
392,52,226407,1,8,0:0:0:0:
448,104,226631,1,0,0:0:0:0:
408,168,226855,2,0,B|348:176|348:176|304:156|260:184,1,150,2|8,0:0|0:0,0:0:0:0:
252,108,227526,6,0,P|260:183|304:240,1,150
344,304,228198,2,0,P|380:312|440:296,2,75,10|2|2,0:0|0:0|0:0,0:0:0:0:
380,236,228870,2,0,P|392:196|376:152,1,75,0|8,0:0|0:0,0:0:0:0:
304,84,229317,2,0,P|296:115|308:155,1,75,0|2,0:0|0:0,0:0:0:0:
304,232,229765,5,0,0:0:0:0:
248,280,229989,2,0,P|196:304|152:288,1,75,8|0,0:0|0:0,0:0:0:0:
160,280,230325,1,0,0:0:0:0:
140,256,230437,1,2,0:0:0:0:
140,180,230661,2,0,P|192:156|207:157,1,75,0|8,0:0|0:0,0:0:0:0:
304,232,231108,1,0,0:0:0:0:
304,232,231220,1,0,0:0:0:0:
304,232,231332,6,0,P|359:216|415:144,1,150,2|8,0:0|0:0,0:0:0:0:
424,72,232004,1,0,0:0:0:0:
320,72,232228,2,0,L|272:80,3,37.5,2|0|0|0,0:0|0:0|0:0|0:0,0:0:0:0:
252,84,232675,2,0,L|208:92,3,37.5,8|0|0|0,0:0|0:0|0:0|0:0,0:0:0:0:
188,100,233123,5,4,0:0:0:0:
120,128,233347,1,0,0:0:0:0:
80,192,233571,1,8,0:0:0:0:
88,268,233795,2,0,L|160:324,1,75,0|2,0:0|0:0,0:0:0:0:
224,304,234243,1,0,0:0:0:0:
300,292,234467,1,8,0:0:0:0:
392,80,234690,6,0,P|415:152|375:208,1,150,2|2,0:0|0:0,0:0:0:0:
340,140,235362,1,8,0:0:0:0:
264,140,235586,1,2,0:0:0:0:
200,176,235810,1,2,0:0:0:0:
156,236,236034,2,0,P|120:244|92:272,2,75,0|8|0,0:0|0:0|0:0,0:0:0:0:
224,268,236705,6,0,P|300:304|376:268,1,150,2|8,0:0|0:0,0:0:0:0:
420,240,237377,1,0,0:0:0:0:
440,216,237489,1,0,0:0:0:0:
456,192,237601,1,2,0:0:0:0:
452,116,237825,1,0,0:0:0:0:
408,56,238049,1,8,0:0:0:0:
332,52,238272,6,0,L|236:68,1,75
188,36,238720,1,0,0:0:0:0:
188,36,238832,1,0,0:0:0:0:
188,36,238944,1,8,0:0:0:0:
132,284,239392,2,0,P|224:296|244:280,1,112.5,2|0,0:0|0:0,0:0:0:0:
264,276,239840,1,8,0:0:0:0:
308,216,240064,1,0,0:0:0:0:
252,164,240287,6,0,P|183:142|111:166,1,150,4|8,0:0|0:0,0:0:0:0:
224,260,241183,2,0,P|316:272|336:256,1,112.5,2|0,0:0|0:0,0:0:0:0:
348,244,241631,1,8,0:0:0:0:
408,196,241855,1,0,0:0:0:0:
388,124,242078,6,0,P|320:88|252:120,1,150,6|8,0:0|0:0,0:0:0:0:
184,192,242750,1,0,0:0:0:0:
120,272,242974,2,0,L|68:352,2,75,2|0|8,0:0|0:0|0:0,0:0:0:0:
192,288,243646,1,0,0:0:0:0:
264,276,243870,6,0,P|344:280|396:232,1,150,4|0,0:0|0:0,0:0:0:0:
440,176,244541,1,0,0:0:0:0:
464,104,244765,2,0,P|468:64|452:32,2,75,2|0|0,0:0|0:0|0:0,0:0:0:0:
388,116,245437,1,0,0:0:0:0:
260,136,245661,5,4,0:0:0:0:
256,192,245772,12,2,249243,0:0:0:0:
408,144,249690,5,8,0:0:0:0:
344,104,249914,2,0,P|304:80|248:80,2,75,0|2|0,0:0|0:0|0:0,0:0:0:0:
336,180,250586,2,0,P|296:204|248:216,1,75,8|0,0:0|0:0,0:0:0:0:
296,280,251034,6,0,P|216:264|200:184,1,150,2|8,0:0|0:0,0:0:0:0:
124,228,251705,1,0,0:0:0:0:
84,164,251929,2,0,L|84:80,1,75,2|0,0:0|0:0,0:0:0:0:
236,88,252377,2,0,L|236:172,1,75,10|2,0:0|0:0,0:0:0:0:
304,200,252825,6,0,P|232:164|152:184,1,150,4|8,0:0|0:0,0:0:0:0:
92,180,253496,1,2,0:0:0:0:
96,256,253720,2,0,P|56:276|16:276,2,75,0|2|8,0:0|0:0|0:0,0:0:0:0:
92,180,254392,1,0,0:0:0:0:
164,200,254616,6,0,P|228:220|324:184,1,150,2|8,0:0|0:0,0:0:0:0:
380,180,255287,1,0,0:0:0:0:
400,160,255399,1,0,0:0:0:0:
424,136,255511,1,2,0:0:0:0:
416,60,255735,2,0,L|456:24,2,37.5,0|0|8,0:0|0:0|0:0,0:0:0:0:
268,88,256183,1,0,0:0:0:0:
268,88,256295,1,0,0:0:0:0:
268,88,256407,6,0,P|232:96|196:124,1,75,6|0,0:0|0:0,0:0:0:0:
144,216,256855,1,8,0:0:0:0:
144,216,256967,1,0,0:0:0:0:
144,216,257078,1,0,0:0:0:0:
252,248,257302,2,0,P|296:236|332:200,2,75,2|4|8,0:0|0:0|0:0,0:0:0:0:
172,328,257974,1,4,0:0:0:0:
256,192,258198,12,0,266258,0:0:0:0:
