osu file format v10

[General]
AudioFilename: overfly.mp3
AudioLeadIn: 1500
PreviewTime: 58318
Countdown: 0
SampleSet: Soft
StackLeniency: 0.3
Mode: 0
LetterboxInBreaks: 0

[Editor]
DistanceSpacing: 1.2
BeatDivisor: 4
GridSize: 64

[Metadata]
Title:Overfly (TV Size)
TitleUnicode:Overfly (TV Size)
Artist:Haruna Luna
ArtistUnicode:Haruna Luna
Creator:kanpakyin
Version:Insane
Source:Sword Art Online
Tags:No_Gu NoHitter Kawayi Rika SAO aincrad alfheim online ALO kirito yuuki asuna lyfa suguha yui ed2 ending gudbye
BeatmapID:184267
BeatmapSetID:61441

[Difficulty]
HPDrainRate:7
CircleSize:4
OverallDifficulty:7
ApproachRate:8
SliderMultiplier:1.6
SliderTickRate:1

[Events]
//Background and Video events
Video,-141,"Video.avi"
0,0,"BG.jpg"
//Break Periods
//Storyboard Layer 0 (Background)
//Storyboard Layer 1 (Fail)
//Storyboard Layer 2 (Pass)
//Storyboard Layer 3 (Foreground)
//Storyboard Sound Samples
//Background Colour Transformations
3,100,163,162,255

[TimingPoints]
98,447.761194029851,4,2,1,30,1,0
993,-200,4,2,1,35,0,0
12635,-100,4,1,1,40,0,0
14426,-100,4,1,0,40,0,0
14650,-100,4,1,1,45,0,0
14986,-100,4,2,1,45,0,0
15433,-100,4,1,1,45,0,0
15657,-100,4,2,1,45,0,0
15769,-100,4,1,1,45,0,0
15993,-100,4,2,1,45,0,0
16217,-100,4,1,1,45,0,0
16553,-100,4,2,1,45,0,0
16665,-100,4,1,1,45,0,0
16889,-100,4,2,1,45,0,0
17112,-100,4,1,1,45,0,0
18008,-100,4,1,0,45,0,0
18344,-100,4,2,1,45,0,0
18456,-100,4,1,1,45,0,0
18680,-100,4,2,1,45,0,0
19015,-100,4,1,1,45,0,0
19127,-100,4,2,1,45,0,0
19351,-100,4,1,1,45,0,0
19575,-100,4,2,1,45,0,0
19799,-100,4,1,0,45,0,0
20023,-100,4,2,1,45,0,0
20247,-100,4,1,1,45,0,0
20471,-100,4,2,1,45,0,0
20695,-100,4,1,1,45,0,0
20918,-100,4,2,1,45,0,0
21142,-100,4,1,1,45,0,0
21590,-100,4,1,0,45,0,0
21926,-100,4,2,1,45,0,0
22038,-100,4,1,1,45,0,0
22262,-100,4,2,1,45,0,0
22598,-100,4,1,1,45,0,0
22709,-100,4,2,1,45,0,0
22933,-100,4,1,1,45,0,0
23045,-100,4,2,1,45,0,0
23381,-100,4,1,1,45,0,0
23717,-100,4,2,1,45,0,0
23829,-100,4,1,1,45,0,0
24053,-100,4,2,1,45,0,0
24277,-100,4,1,1,45,0,0
24500,-100,4,2,1,45,0,0
24724,-100,4,1,1,45,0,0
26292,-125,4,1,1,45,0,0
26739,-100,4,2,1,45,0,0
27187,-100,4,1,1,45,0,0
28754,-133.333333333333,4,2,2,55,0,0
41739,-133.333333333333,4,2,2,70,0,0
42075,-133.333333333333,4,1,1,50,0,0
42299,-133.333333333333,4,2,1,50,0,0
43083,-133.333333333333,4,1,1,50,0,0
43195,-133.333333333333,4,2,1,50,0,0
43754,-133.333333333333,4,1,1,50,0,0
43866,-133.333333333333,4,2,1,50,0,0
43978,-100,4,2,1,50,0,0
44202,-100,4,1,1,50,0,0
44538,-100,4,2,1,50,0,0
44874,-100,4,1,1,50,0,0
45098,-100,4,2,1,50,0,0
45321,-100,4,1,1,50,0,0
45769,-100,4,2,1,50,0,0
46217,-100,4,1,1,50,0,0
47448,-100,4,2,1,50,0,0
48008,-100,4,1,1,50,0,0
48680,-100,4,2,1,50,0,0
48903,-100,4,1,1,50,0,0
49351,-100,4,2,1,50,0,0
49799,-100,4,1,1,50,0,0
50359,-100,4,2,1,50,0,0
50695,-100,4,1,1,50,0,0
50806,-100,4,2,1,50,0,0
50918,-100,4,1,1,50,0,0
51030,-100,4,2,1,50,0,0
51590,-100,4,1,1,50,0,0
52374,-100,4,2,1,50,0,0
52486,-100,4,1,1,50,0,0
52933,-100,4,2,1,50,0,0
53269,-100,4,1,1,50,0,0
53493,-100,4,2,1,50,0,0
53829,-100,4,1,1,50,0,0
54165,-100,4,2,1,50,0,0
54612,-100,4,1,1,50,0,0
55060,-100,4,2,1,50,0,0
55172,-100,4,1,1,50,0,0
56739,-200,4,2,1,50,0,0
57187,-100,4,2,1,5,0,0
58306,-100,4,2,1,30,0,0
58530,-100,4,1,1,40,0,0
58978,-100,4,2,1,40,0,0
59202,-100,4,2,1,55,0,1
59650,-100,4,1,1,50,0,1
59762,-100,4,2,1,50,0,1
60098,-100,4,1,1,50,0,1
60769,-100,4,2,1,50,0,1
60881,-100,4,1,1,50,0,1
61329,-100,4,2,1,50,0,1
61441,-100,4,1,1,50,0,1
61777,-100,4,2,1,50,0,1
61889,-100,4,1,1,50,0,1
62000,-100,4,2,1,50,0,1
62224,-100,4,1,1,50,0,1
62448,-100,4,2,1,50,0,1
62672,-100,4,1,1,50,0,1
63008,-100,4,2,1,50,0,1
63232,-100,4,1,1,50,0,1
63792,-100,4,2,1,50,0,1
64015,-100,4,1,1,50,0,1
64351,-100,4,2,1,50,0,1
64575,-100,4,1,1,50,0,1
64687,-100,4,2,1,50,0,1
65023,-100,4,1,1,50,0,1
65247,-100,4,2,1,50,0,1
65471,-100,4,1,1,50,0,1
65695,-100,4,2,1,50,0,1
65918,-100,4,1,1,50,0,1
66254,-100,4,2,1,50,0,1
66366,-100,4,1,1,50,0,1
66590,-100,4,2,1,50,0,1
66814,-100,4,1,1,50,0,1
67374,-100,4,1,1,35,0,1
67486,-100,4,1,1,50,0,1
67821,-100,4,2,1,50,0,1
68045,-100,4,1,1,50,0,1
68269,-100,4,2,1,50,0,1
68493,-100,4,1,1,50,0,1
68829,-100,4,2,1,50,0,1
69500,-100,4,1,1,50,0,1
69612,-100,4,2,1,50,0,1
69948,-100,4,1,1,50,0,1
70060,-100,4,2,1,50,0,1
70396,-100,4,1,1,50,0,1
70620,-100,4,2,1,50,0,1
70956,-100,4,1,1,50,0,1
71068,-100,4,2,1,50,0,1
71292,-100,4,1,1,50,0,1
71515,-100,4,2,1,50,0,1
71739,-100,4,1,1,50,0,1
71851,-100,4,2,1,50,0,1
72187,-100,4,1,1,50,0,1
72299,-100,4,2,1,50,0,1
72635,-100,4,1,1,50,0,1
72747,-100,4,2,1,50,0,1
73083,-100,4,1,1,50,0,1
73195,-100,4,2,1,50,0,1
73418,-100,4,2,1,50,0,0
73530,-100,4,2,1,55,0,1
73754,-100,4,2,1,50,0,1
73866,-100,4,1,1,50,0,1
74090,-100,4,2,1,50,0,1
74538,-100,4,1,1,50,0,1
74650,-100,4,2,1,50,0,1
74874,-100,4,1,1,50,0,1
74986,-100,4,2,1,50,0,1
75321,-100,4,1,1,50,0,1
75433,-100,4,2,1,50,0,1
75657,-100,4,1,1,50,0,1
75881,-100,4,2,1,50,0,1
76217,-100,4,1,1,50,0,1
76329,-100,4,2,1,50,0,1
76665,-100,4,1,1,50,0,1
76777,-100,4,2,1,50,0,1
77560,-100,4,1,1,50,0,1
77672,-100,4,2,1,50,0,1
77896,-100,4,1,1,50,0,1
78120,-100,4,2,1,50,0,1
78456,-100,4,1,1,50,0,1
78568,-100,4,2,1,50,0,1
78903,-100,4,1,1,50,0,1
79687,-100,4,2,1,50,0,1
79799,-100,4,1,1,50,0,1
80023,-100,4,2,1,50,0,1
80247,-100,4,1,1,50,0,1
80359,-100,4,2,1,50,0,1
80695,-100,4,1,0,40,0,1
80806,-100,4,2,1,50,0,1
81142,-100,4,1,1,50,0,1
81254,-100,4,2,1,50,0,1
81590,-100,4,1,1,50,0,1
81926,-100,4,2,1,50,0,1
82038,-100,4,1,1,50,0,1
82150,-100,4,2,1,50,0,1
82486,-100,4,1,0,40,0,1
82821,-100,4,2,1,50,0,1
82933,-100,4,1,1,50,0,1
83045,-100,4,2,1,50,0,1
83269,-100,4,1,1,50,0,1
83493,-100,4,2,1,50,0,1
83829,-100,4,1,1,50,0,1
84053,-100,4,2,1,50,0,1
84277,-100,4,1,1,45,0,1
86068,-100,4,2,1,30,0,0
86180,-100,4,2,1,5,0,0

[Colours]
Combo1 : 155,170,227
Combo2 : 228,163,103
Combo3 : 153,80,235
Combo4 : 231,114,199

[HitObjects]
97,305,993,2,0,B|81:238,2,60,2|0|0,0:0|0:0|0:0,0:0:0
154,360,1889,6,0,B|195:378|242:358,1,80,4|0,0:0|0:0,0:0:0
290,307,2560,1,0,0:0:0
258,233,2784,2,0,B|265:142,1,80,2|0,0:0|0:0,0:0:0
127,87,3456,2,0,B|164:67|211:91,1,80,2|0,0:0|0:0,0:0:0
75,161,4127,2,0,B|31:175|-8:152,1,80
161,168,4799,5,2,0:0:0
127,87,5023,2,0,B|112:42,1,40,0|0,0:0|0:0,0:0:0
106,244,5471,2,0,B|112:288|122:306|122:306|110:329|110:370,1,120,2|2,0:0|0:0,0:0:0
110,359,6590,1,2,0:0:0
258,300,7038,2,0,B|352:305,1,80,2|0,0:0|0:0,0:0:0
414,327,7709,6,0,B|433:293|421:239,1,80,0|2,0:0|0:0,0:0:0
383,179,8381,1,0,0:0:0
383,179,8605,1,0,0:0:0
439,71,8829,2,0,B|427:121,1,40,0|4,0:0|0:0,0:0:0
306,102,9277,2,0,B|357:102,1,40,0|2,0:0|0:0,0:0:0
401,215,9724,2,0,B|382:178,1,40
316,297,10172,5,2,0:0:0
316,297,10620,1,2,0:0:0
171,339,10844,2,0,B|130:356|77:334,1,80
34,284,11515,2,0,B|41:201,1,80,2|0,0:0|0:0,0:0:0
93,143,12187,5,2,0:0:0
52,73,12411,1,0,0:0:0
217,266,12635,5,0,0:0:0
258,196,12859,1,0,0:0:0
256,192,12971,12,4,14426,0:0:0
40,249,14874,6,0,B|125:249,1,80,8|2,0:0|0:0,0:0:0
184,186,15321,2,0,B|193:139,1,40,0|8,0:0|0:0,0:0:0
261,239,15657,2,0,B|303:210,1,40,0|8,0:0|0:0,0:0:0
155,333,15993,1,2,0:0:0
361,349,16217,6,0,B|305:321|239:326,1,120
240,369,16665,2,0,B|290:356|308:291,1,80,8|2,0:0|0:0,0:0:0
324,233,17112,1,0,0:0:0
324,233,17224,1,8,0:0:0
466,294,17448,1,0,0:0:0
466,294,17560,1,8,0:0:0
440,129,17784,6,0,B|461:90,1,40
440,129,18008,2,0,B|380:116|324:77,1,120,4|0,0:0|0:0,0:0:0
300,49,18456,1,8,0:0:0
235,109,18680,1,2,0:0:0
154,73,18903,5,0,0:0:0
154,73,19015,1,8,0:0:0
250,193,19239,1,0,0:0:0
250,193,19351,1,8,0:0:0
300,49,19575,1,2,0:0:0
300,49,19687,1,0,0:0:0
300,49,19799,1,4,0:0:0
475,114,20023,5,2,0:0:0
390,82,20247,1,8,0:0:0
418,260,20471,5,2,0:0:0
490,203,20695,1,0,0:0:0
319,138,20918,5,2,0:0:0
334,228,21142,1,8,0:0:0
404,167,21366,1,0,0:0:0
344,314,21590,6,0,B|217:314,1,120,4|2,0:0|0:0,0:0:0
242,354,22038,2,0,B|148:354,1,80,8|2,0:0|0:0,0:0:0
82,263,22486,6,0,B|90:309,1,40,0|8,0:0|0:0,0:0:0
25,164,22821,2,0,B|17:214,1,40,0|8,0:0|0:0,0:0:0
107,127,23157,1,2,0:0:0
107,127,23381,2,0,B|141:73|105:3,1,120,0|2,0:0|0:0,0:0:0
109,12,23829,1,8,0:0:0
30,53,24053,1,2,0:0:0
179,262,24277,6,0,B|155:227|175:181,1,80,0|2,0:0|0:0,0:0:0
274,346,24724,1,8,0:0:0
347,247,24948,5,8,0:0:0
366,267,25060,1,8,0:0:0
385,286,25172,2,0,B|411:231|387:165,1,120
401,179,25620,1,8,0:0:0
401,179,25732,1,8,0:0:0
401,179,25844,1,8,0:0:0
401,179,25956,2,0,B|489:180,1,80,0|8,0:0|0:0,0:0:0
481,179,26292,6,0,B|452:118|483:42,1,128,0|6,0:0|0:0,0:0:0
319,124,27187,5,0,0:0:0
238,89,27411,1,0,0:0:0
247,176,27635,1,0,0:0:0
326,214,27859,5,2,0:0:0
307,36,28083,1,2,0:0:0
166,145,28306,1,2,0:0:0
319,124,28530,1,0,0:0:0
250,264,28754,6,0,B|190:264,1,60.0000022888184,4|0,0:0|0:0,0:0:0
329,304,29202,2,0,B|395:304,1,60.0000022888184,8|0,0:0|0:0,0:0:0
254,353,29650,1,8,0:0:0
326,215,29874,1,0,0:0:0
169,343,30098,2,0,B|109:343,1,60.0000022888184,8|2,0:0|0:0,0:0:0
255,159,30545,6,0,B|285:132|285:66|249:33,1,120.000004577637,10|8,0:0|0:0,0:0:0
195,99,31217,2,0,B|173:73|132:77,2,60.0000022888184,0|8|0,0:0|0:0|0:0,0:0:0
339,33,31889,2,0,B|368:12|411:21,2,60.0000022888184,8|0|10,0:0|0:0|0:0,0:0:0
312,212,32560,5,0,0:0:0
312,212,32784,2,0,B|286:244|298:304|340:323,1,120.000004577637,8|8,0:0|0:0,0:0:0
386,254,33456,1,0,0:0:0
388,169,33680,2,0,B|371:138|329:128,1,60.0000022888184,8|2,0:0|0:0,0:0:0
247,347,34127,6,0,B|224:321|152:323|135:354,1,120.000004577637,10|8,0:0|0:0,0:0:0
69,300,34799,2,0,B|79:223,1,60.0000022888184,0|8,0:0|0:0,0:0:0
16,181,35247,2,0,B|24:121,1,60.0000022888184,0|8,0:0|0:0,0:0:0
1,40,35695,1,0,0:0:0
150,106,35918,6,0,B|207:139|275:104,1,120.000004577637,10|8,0:0|0:0,0:0:0
246,26,36590,1,0,0:0:0
325,53,36814,2,0,B|380:27|442:54,1,120.000004577637
460,186,37486,2,0,B|480:123,1,60.0000022888184,2|10,0:0|0:0,0:0:0
394,133,37933,5,0,0:0:0
465,271,38157,2,0,B|424:291|367:250|381:198,1,120.000004577637,8|8,0:0|0:0,0:0:0
394,133,38829,1,0,0:0:0
315,162,39053,2,0,B|240:162,1,60.0000022888184,8|0,0:0|0:0,0:0:0
199,323,39500,6,0,B|159:271|190:209,1,120.000004577637,10|8,0:0|0:0,0:0:0
266,244,40172,1,0,0:0:0
116,175,40396,2,0,B|156:121|112:39,1,120.000004577637,8|8,0:0|0:0,0:0:0
47,96,41068,1,2,0:0:0
202,28,41292,6,0,B|264:28,1,60.0000022888184,10|0,0:0|0:0,0:0:0
316,92,41739,1,8,0:0:0
316,92,41851,1,0,0:0:0
316,92,41963,1,0,0:0:0
425,167,42187,6,0,B|362:167,1,60.0000022888184,0|2,0:0|0:0,0:0:0
496,208,42635,2,0,B|514:144,1,60.0000022888184,0|0,0:0|0:0,0:0:0
422,247,43083,2,0,B|444:324,1,60.0000022888184,8|2,0:0|0:0,0:0:0
363,343,43530,5,2,0:0:0
363,343,43642,1,0,0:0:0
363,343,43754,1,8,0:0:0
363,343,43866,1,0,0:0:0
363,343,43978,2,0,B|277:343,2,80,2|0|0,0:0|0:0|0:0,0:0:0
184,218,44650,1,0,0:0:0
128,384,44874,6,0,B|103:256,1,120,8|0,0:0|0:0,0:0:0
104,266,45321,1,0,0:0:0
270,232,45545,1,8,0:0:0
229,384,45769,1,0,0:0:0
184,218,45993,2,0,B|195:117,1,80,2|8,0:0|0:0,0:0:0
263,86,46441,1,0,0:0:0
464,163,46665,2,0,B|389:105|312:160,1,160,8|0,0:0|0:0,0:0:0
267,269,47336,5,8,0:0:0
267,269,47448,1,0,0:0:0
267,269,47560,1,2,0:0:0
162,229,47784,1,0,0:0:0
172,342,48008,2,0,B|132:321|89:341,1,80
327,372,48456,2,0,B|393:399|457:365,1,120,8|0,0:0|0:0,0:0:0
468,344,48903,2,0,B|502:269,1,80,0|8,0:0|0:0,0:0:0
405,257,49351,2,0,B|446:171,1,80,0|2,0:0|0:0,0:0:0
341,157,49799,5,8,0:0:0
374,129,49911,1,0,0:0:0
382,85,50023,1,0,0:0:0
373,41,50135,1,0,0:0:0
337,15,50247,1,8,0:0:0
255,48,50471,5,2,0:0:0
172,17,50695,2,0,B|118:6,3,40,0|0|8|0,0:0|0:0|0:0|0:0,0:0:0
172,17,51142,2,0,B|158:72|158:72|178:107|152:161,1,120,2|0,0:0|0:0,0:0:0
152,145,51590,2,0,B|56:145,1,80
0,223,52038,6,0,B|119:223,1,120,8|0,0:0|0:0,0:0:0
152,253,52486,2,0,B|175:295|142:339,1,80,0|8,0:0|0:0,0:0:0
224,195,52933,2,0,B|199:158|228:103,1,80,2|0,0:0|0:0,0:0:0
300,156,53381,1,0,0:0:0
81,291,53605,5,0,0:0:0
235,350,53829,2,0,B|286:350|319:309|319:309|349:335|324:371,1,160,4|2,0:0|0:0,0:0:0
415,351,54500,1,0,0:0:0
501,335,54724,2,0,B|510:202,1,120,0|0,0:0|0:0,0:0:0
509,215,55172,1,0,0:0:0
467,59,55396,5,0,0:0:0
453,146,55620,1,8,0:0:0
453,146,56068,5,0,0:0:0
317,57,56292,1,8,0:0:0
317,57,56739,2,0,B|233:57,1,80,2|0,0:0|0:0,0:0:0
256,192,57299,12,4,58306,0:0:0
148,293,58530,5,12,3:0:0
148,293,58642,1,12,3:0:0
148,293,58754,1,0,0:0:0
230,262,58978,1,2,0:0:0
215,348,59202,6,0,B|187:394|86:389|71:326,1,160,4|8,0:0|0:0,0:0:0
148,293,59874,1,2,0:0:0
299,313,60098,2,0,B|324:268|413:269|443:323,1,160,0|8,0:0|0:0,0:0:0
368,366,60769,1,2,0:0:0
230,262,60993,2,0,B|249:124,1,120
249,127,61441,1,8,0:0:0
135,71,61777,2,0,P|163:32,3,40,0|0|2|0,0:0|0:0|0:0|0:0,0:0:0
121,183,62336,6,0,P|85:164|43:176,2,80,8|2|0,0:0|0:0|0:0,0:0:0
196,130,63008,1,2,0:0:0
275,168,63232,2,0,B|321:205|403:173|409:111,1,160,8|0,0:0|0:0,0:0:0
321,98,63903,1,2,0:0:0
231,242,64127,1,8,0:0:0
321,98,64351,6,0,B|346:56|313:7,1,80,2|0,0:0|0:0,0:0:0
231,242,64799,1,2,0:0:0
247,53,65023,2,0,B|217:19|156:22,1,80,8|2,0:0|0:0,0:0:0
132,32,65359,1,0,0:0:0
95,56,65471,1,0,0:0:0
80,97,65583,1,0,0:0:0
109,179,65806,5,0,0:0:0
127,218,65918,2,0,B|59:233|14:188,1,120,8|2,0:0|0:0,0:0:0
15,189,66366,1,0,0:0:0
195,153,66590,1,2,0:0:0
122,336,66814,6,0,B|185:358|235:326|235:326|274:348|260:375,1,160,8|0,0:0|0:0,0:0:0
270,365,67374,2,0,B|308:312|269:233,1,120,0|8,0:0|0:0,0:0:0
228,176,67933,1,2,0:0:0
283,107,68157,1,0,0:0:0
365,138,68381,1,2,0:0:0
365,225,68605,1,8,0:0:0
194,97,68829,6,0,B|135:77|83:98|83:98|78:69|104:49,1,160,2|2,0:0|0:0,0:0:0
249,28,69500,1,8,0:0:0
307,180,69724,1,2,0:0:0
131,318,69948,2,0,B|197:348|243:302,1,120,0|2,0:0|0:0,0:0:0
242,303,70396,1,0,0:0:0
464,344,70620,6,0,B|328:320,1,120,2|8,0:0|0:0,0:0:0
345,323,71068,1,0,0:0:0
507,265,71292,2,0,B|421:249,1,80,8|2,0:0|0:0,0:0:0
428,250,71627,1,0,0:0:0
381,192,71739,6,0,B|376:143,3,40,0|0|2|0,0:0|0:0|0:0|0:0,0:0:0
333,143,72187,2,0,B|327:96,3,40,8|0|2|0,0:0|0:0|0:0|0:0,0:0:0
310,94,72635,5,0,0:0:0
292,83,72747,1,0,0:0:0
275,72,72859,1,2,0:0:0
258,61,72971,1,0,0:0:0
241,50,73083,1,8,0:0:0
216,71,73195,5,2,0:0:0
192,92,73306,1,2,0:0:0
168,113,73418,1,0,0:0:0
147,132,73530,6,0,B|101:150|61:112,1,80,4|2,0:0|0:0,0:0:0
23,46,73978,1,8,0:0:0
215,195,74202,2,0,B|254:259|200:313,1,120,2|8,0:0|0:0,0:0:0
171,332,74650,2,0,B|90:332,1,80,2|8,0:0|0:0,0:0:0
436,245,75097,6,0,B|357:245,1,80,2|0,0:0|0:0,0:0:0
319,219,75433,2,0,B|272:165|321:96,1,120,0|8,0:0|0:0,0:0:0
378,47,75993,1,2,0:0:0
378,47,76105,1,0,0:0:0
378,47,76217,1,0,0:0:0
378,47,76329,1,0,0:0:0
454,90,76553,1,0,0:0:0
454,90,76665,1,8,0:0:0
427,248,76889,5,2,0:0:0
302,143,77112,2,0,B|159:143,1,120,4|2,0:0|0:0,0:0:0
182,143,77560,1,8,0:0:0
330,226,77784,1,2,0:0:0
390,161,78008,6,0,B|413:119|379:63,1,80,0|2,0:0|0:0,0:0:0
367,304,78456,2,0,B|398:340|454:321,1,80,8|2,0:0|0:0,0:0:0
247,202,78903,2,0,B|201:183|201:183|141:215|73:184,1,160,0|8,0:0|0:0,0:0:0
97,61,79687,6,0,B|56:50,3,40,2|0|0|2,0:0|0:0|0:0|0:0,0:0:0
181,27,80247,1,8,0:0:0
368,94,80471,1,2,0:0:0
368,94,80583,1,0,0:0:0
368,94,80695,2,0,B|304:108|249:85,1,120,4|2,0:0|0:0,0:0:0
259,72,81142,2,0,B|281:161,1,80,8|2,0:0|0:0,0:0:0
382,255,81590,5,0,0:0:0
382,255,81702,1,8,0:0:0
453,306,81926,1,2,0:0:0
453,306,82038,2,0,B|427:346|375:340,1,80,8|2,0:0|0:0,0:0:0
461,218,82486,6,0,B|477:92,1,120,4|2,0:0|0:0,0:0:0
477,83,82933,2,0,B|446:50|387:66,1,80,8|2,0:0|0:0,0:0:0
324,21,83381,2,0,B|269:18|235:61,1,80,0|2,0:0|0:0,0:0:0
287,220,83829,6,0,B|316:205|330:139|305:98,1,120,8|2,0:0|0:0,0:0:0
311,110,84277,1,0,0:0:0
212,263,84500,5,0,0:0:0
364,322,84724,2,0,B|313:335|271:289,1,80,0|8,0:0|0:0,0:0:0
437,279,85172,1,0,0:0:0
71,195,85396,2,0,B|114:178|151:212,1,80
15,139,85844,2,0,B|32:52,1,80,0|6,0:0|0:0,0:0:0
256,192,86180,12,0,88754,0:0:0
