osu file format v10

[General]
AudioFilename: overfly.mp3
AudioLeadIn: 1500
PreviewTime: 58318
Countdown: 0
SampleSet: Normal
StackLeniency: 0.3
Mode: 0
LetterboxInBreaks: 0

[Editor]
DistanceSpacing: 1.3
BeatDivisor: 4
GridSize: 64

[Metadata]
Title:Overfly (TV Size)
TitleUnicode:Overfly (TV Size)
Artist:Haruna Luna
ArtistUnicode:Haruna Luna
Creator:kanpakyin
Version:Hard
Source:Sword Art Online
Tags:No_Gu NoHitter Kawayi Rika SAO aincrad alfheim online ALO kirito yuuki asuna lyfa suguha yui ed2 ending gudbye
BeatmapID:183116
BeatmapSetID:61441

[Difficulty]
HPDrainRate:5
CircleSize:4
OverallDifficulty:6
ApproachRate:7
SliderMultiplier:1.3
SliderTickRate:1

[Events]
//Background and Video events
Video,-141,"Video.avi"
0,0,"BG.jpg"
//Break Periods
//Storyboard Layer 0 (Background)
//Storyboard Layer 1 (Fail)
//Storyboard Layer 2 (Pass)
//Storyboard Layer 3 (Foreground)
//Storyboard Sound Samples
//Background Colour Transformations
3,100,163,162,255

[TimingPoints]
98,447.761194029851,4,2,1,30,1,0
993,-133.333333333333,4,2,1,35,0,0
1889,-100,4,2,1,35,0,0
12635,-100,4,1,1,45,0,0
14986,-100,4,2,1,45,0,0
15433,-100,4,1,1,45,0,0
15881,-100,4,2,1,45,0,0
16217,-100,4,1,1,45,0,0
16329,-100,4,2,1,45,0,0
16665,-100,4,1,1,45,0,0
16777,-100,4,2,1,45,0,0
17112,-100,4,1,1,45,0,0
17224,-100,4,2,1,45,0,0
17560,-100,4,1,1,45,0,0
18680,-100,4,2,1,45,0,0
19239,-100,4,1,1,45,0,0
19911,-100,4,2,1,45,0,0
20135,-100,4,1,1,45,0,0
20359,-100,4,2,1,45,0,0
20583,-100,4,1,1,45,0,0
20806,-100,4,2,1,45,0,0
21030,-100,4,1,1,45,0,0
21254,-100,4,2,1,45,0,0
21590,-100,4,1,1,45,0,0
22150,-100,4,2,1,45,0,0
22933,-100,4,1,1,45,0,0
23493,-100,4,2,1,45,0,0
23829,-100,4,1,1,45,0,0
23941,-100,4,2,1,45,0,0
24165,-100,4,1,1,45,0,0
24389,-100,4,2,1,45,0,0
24612,-100,4,1,1,45,0,0
28754,-100,4,2,1,45,0,0
29202,-100,4,2,2,45,0,0
42299,-100,4,2,1,45,0,0
43083,-100,4,1,1,45,0,0
45769,-100,4,2,1,45,0,0
46105,-100,4,1,1,45,0,0
46889,-100,4,2,1,45,0,0
47000,-100,4,1,1,45,0,0
56963,-100,4,2,1,45,0,0
59202,-100,4,1,0,45,0,1
59314,-100,4,2,1,45,0,1
59650,-100,4,1,1,45,0,1
59874,-100,4,2,1,45,0,1
60098,-100,4,1,1,45,0,1
60321,-100,4,2,1,45,0,1
60993,-100,4,1,1,45,0,1
61777,-100,4,2,1,45,0,1
61889,-100,4,1,1,45,0,1
62000,-100,4,2,1,45,0,1
62336,-100,4,1,1,45,0,1
63344,-100,4,2,1,45,0,1
64127,-100,4,1,1,45,0,1
65247,-100,4,2,1,45,0,1
65471,-100,4,1,1,45,0,1
66030,-100,4,2,1,45,0,1
66702,-100,4,1,1,45,0,1
66926,-100,4,2,1,45,0,1
67262,-100,4,1,1,45,0,1
67933,-100,4,2,1,45,0,1
68493,-100,4,1,1,45,0,1
68717,-100,4,2,1,45,0,1
68941,-100,4,1,1,45,0,1
69165,-100,4,2,1,45,0,1
69389,-100,4,1,1,45,0,1
69612,-100,4,2,1,45,0,1
69836,-100,4,1,1,45,0,1
70620,-100,4,2,1,45,0,1
70732,-100,4,1,1,45,0,1
71068,-100,4,2,1,45,0,1
71180,-100,4,1,1,45,0,1
71851,-100,4,2,1,45,0,1
72187,-100,4,1,1,45,0,1
72299,-100,4,2,1,45,0,1
72635,-100,4,1,1,45,0,1
72747,-100,4,2,1,45,0,1
73083,-100,4,1,1,45,0,1
73418,-100,4,1,1,45,0,0
73530,-100,4,1,1,45,0,1
73642,-100,4,2,1,45,0,1
73978,-100,4,1,1,45,0,1
74090,-100,4,2,1,45,0,1
74426,-100,4,1,1,45,0,1
74986,-100,4,2,1,45,0,1
75209,-100,4,1,1,45,0,1
76889,-100,4,2,1,45,0,1
77000,-100,4,1,1,45,0,1
77224,-100,4,2,1,45,0,1
77448,-100,4,1,1,45,0,1
77672,-100,4,2,1,45,0,1
77896,-100,4,1,1,45,0,1
78232,-100,4,2,1,45,0,1
78903,-100,4,1,1,45,0,1
81702,-100,4,2,1,45,0,1
82038,-100,4,1,1,45,0,1
82262,-100,4,2,1,45,0,1
82821,-100,4,1,1,45,0,1
83045,-100,4,2,1,45,0,1
83269,-100,4,1,1,45,0,1
83493,-100,4,2,1,45,0,1
83717,-100,4,1,1,45,0,1
86068,-100,4,2,1,30,0,0
86180,-100,4,2,1,5,0,0

[Colours]
Combo1 : 155,170,227
Combo2 : 228,163,103
Combo3 : 153,80,235
Combo4 : 231,114,199

[HitObjects]
65,191,993,2,0,B|44:106,2,73.1250027894975,2|0|0,0:0|0:0|0:0,0:0:0
140,230,1889,6,0,B|113:306,2,65,4|0|2,0:0|0:0|0:0,0:0:0
216,193,2560,1,0,0:0:0
212,277,2784,2,0,B|271:313|339:275,1,130,2|0,0:0|0:0,0:0:0
413,311,3456,6,0,B|440:178,1,130,2|0,0:0|0:0,0:0:0
407,105,4127,1,2,0:0:0
490,115,4351,1,0,0:0:0
357,174,4575,6,0,B|295:214|231:167,1,130,2|0,0:0|0:0,0:0:0
181,104,5247,1,0,0:0:0
114,156,5471,2,0,B|121:293,1,130,6|0,0:0|0:0,0:0:0
208,363,6142,2,0,B|199:221,2,130,0|2|2,0:0|0:0|0:0,0:0:0
289,338,7262,6,0,B|354:300|423:349,1,130,0|0,0:0|0:0,0:0:0
480,292,7933,1,0,0:0:0
430,223,8157,2,0,B|405:175|434:123,1,97.5,2|0,0:0|0:0,0:0:0
436,117,8605,2,0,B|362:157,1,65,0|0,0:0|0:0,0:0:0
238,198,9053,6,0,B|286:138|239:70,1,130,2|2,0:0|0:0,0:0:0
168,39,9724,1,0,0:0:0
98,87,9948,2,0,B|-11:87,2,97.5,0|0|2,0:0|0:0|0:0,0:0:0
160,213,10844,5,0,0:0:0
95,267,11068,2,0,B|117:297|161:297,1,65,0|2,0:0|0:0,0:0:0
84,184,11515,2,0,B|42:185|22:228,1,65
160,213,11963,2,0,B|178:177|150:135,2,65,2|0|2,0:0|0:0|0:0,0:0:0
282,318,12635,6,0,B|371:318,1,65
354,324,13530,6,0,B|343:356,2,32.5
362,332,14426,6,0,B|409:276|362:196,1,130,4|8,0:0|0:0,0:0:0
300,161,15098,1,2,0:0:0
362,105,15321,1,0,0:0:0
362,105,15433,2,0,B|370:38,1,65,8|0,0:0|0:0,0:0:0
346,43,15769,2,0,B|322:13|269:16,1,65,8|2,0:0|0:0,0:0:0
220,66,16217,5,0,0:0:0
220,66,16441,1,2,0:0:0
141,33,16665,1,8,0:0:0
141,33,16889,1,2,0:0:0
77,143,17112,2,0,B|66:70,1,65,0|2,0:0|0:0,0:0:0
142,200,17560,2,0,B|123:337,1,130,8|0,0:0|0:0,0:0:0
290,298,18456,5,8,0:0:0
290,298,18680,2,0,B|306:156,1,130,2|2,0:0|0:0,0:0:0
359,104,19351,1,8,0:0:0
359,104,19799,5,0,0:0:0
423,229,20023,1,2,0:0:0
500,115,20247,1,8,0:0:0
352,183,20471,5,2,0:0:0
495,193,20695,1,8,0:0:0
432,69,20918,1,2,0:0:0
428,147,21142,5,8,0:0:0
346,265,21366,2,0,B|308:271|255:257,1,65,2|4,2:0|0:0,0:0:0
114,277,22038,5,8,0:0:0
134,361,22262,2,0,B|69:355|-8:363,1,130,2|2,0:0|0:0,0:0:0
196,299,22933,2,0,B|219:236|196:156,1,130,8|0,0:0|0:0,0:0:0
152,100,23605,5,2,0:0:0
205,34,23829,2,0,B|280:34,1,65,8|2,0:0|0:0,0:0:0
409,70,24277,2,0,B|342:70,2,65,0|2|8,0:0|0:0|0:0,0:0:0
461,136,24948,5,0,0:0:0
460,145,25060,1,0,0:0:0
459,154,25172,2,0,B|453:228,1,65
449,303,25620,2,0,B|485:293,2,32.5,8|0|8,0:0|0:0|0:0,0:0:0
456,324,25956,2,0,B|402:310|336:316,1,97.5
280,344,26515,2,0,B|243:349|205:335,1,65,8|4,0:0|0:0,0:0:0
125,219,27187,5,2,0:0:0
224,136,27411,1,0,0:0:0
193,261,27635,1,0,0:0:0
145,141,27859,1,2,0:0:0
254,210,28083,1,2,0:0:0
125,219,28306,1,0,0:0:0
224,136,28530,1,2,0:0:0
193,261,28754,6,0,B|185:303|113:324|71:283,1,130,6|8,0:0|0:0,0:0:0
32,226,29426,1,0,0:0:0
64,147,29650,2,0,B|56:76,2,65,8|0|8,0:0|0:0|0:0,0:0:0
84,293,30321,5,2,0:0:0
116,215,30545,2,0,B|176:200|256:215,1,130,10|8,0:0|0:0,0:0:0
322,248,31217,2,0,B|337:165,1,65,0|8,0:0|0:0,0:0:0
414,209,31665,2,0,B|425:138,2,65,0|8|0,0:0|0:0|0:0,0:0:0
385,348,32336,6,0,B|330:330|312:366|246:340,1,130,10|8,0:0|0:0,0:0:0
190,290,33008,1,0,0:0:0
130,349,33232,2,0,B|92:323|94:249|137:226,1,130,8|8,0:0|0:0,0:0:0
190,290,33903,1,2,0:0:0
81,166,34127,6,0,B|109:141|147:152,1,65,10|0,0:0|0:0,0:0:0
126,233,34575,1,8,0:0:0
89,308,34799,6,0,B|50:294|46:251,1,65,0|8,0:0|0:0,0:0:0
212,230,35247,2,0,B|217:266|190:290,1,65,0|8,0:0|0:0,0:0:0
81,166,35695,2,0,B|109:141|147:152,1,65,0|2,0:0|0:0,0:0:0
309,133,36366,5,8,0:0:0
377,83,36590,1,0,0:0:0
446,34,36814,1,8,0:0:0
429,116,37038,1,0,0:0:0
402,196,37262,1,8,0:0:0
389,341,37486,6,0,B|379:270,1,65,2|10,0:0|0:0,0:0:0
311,364,37933,2,0,B|246:337|180:364,1,130
100,347,38605,1,8,0:0:0
47,280,38829,1,0,0:0:0
68,198,39053,2,0,B|78:147|48:119|64:51,1,130,8|10,0:0|0:0,0:0:0
17,358,39948,5,8,0:0:0
60,285,40172,1,0,0:0:0
141,261,40396,1,8,0:0:0
219,292,40620,1,0,0:0:0
261,365,40844,1,8,0:0:0
392,323,41068,6,0,B|402:252,1,65,2|10,0:0|0:0,0:0:0
362,183,41515,1,0,0:0:0
404,110,41739,2,0,B|443:119,2,32.5,8|0|0,0:0|0:0|0:0,0:0:0
290,51,42187,6,0,B|222:51,1,65,12|0,3:0|0:0,0:0:0
256,129,42635,2,0,B|188:129,1,65,2|0,0:0|0:0,0:0:0
219,209,43083,6,0,B|140:210|161:236|81:237,1,130,8|0,0:0|0:0,0:0:0
30,292,43754,2,0,B|45:368,1,65,8|0,0:0|0:0,0:0:0
34,179,44202,1,0,0:0:0
34,179,44650,5,0,0:0:0
93,236,44874,2,0,B|172:237|151:263|219:264,1,130,8|0,0:0|0:0,0:0:0
291,306,45545,1,8,0:0:0
291,306,45769,1,0,0:0:0
366,268,45993,6,0,B|372:180,1,65,0|8,0:0|0:0,0:0:0
446,164,46441,1,0,0:0:0
446,164,46553,1,0,0:0:0
446,164,46665,2,0,B|453:81,1,65,8|0,0:0|0:0,0:0:0
379,54,47112,6,0,B|367:1,3,32.5,0|0|8|0,0:0|0:0|0:0|0:0,0:0:0
379,54,47560,2,0,B|325:32|298:75|239:43,1,130
172,80,48232,1,0,0:0:0
112,194,48456,6,0,B|96:165|109:124,1,65,8|0,0:0|0:0,0:0:0
189,248,48903,2,0,B|205:280|185:316,1,65,0|8,0:0|0:0,0:0:0
103,280,49351,6,0,B|68:292|33:279,1,65,0|0,0:0|0:0,0:0:0
194,160,49799,2,0,B|229:151|260:163,1,65,8|0,0:0|0:0,0:0:0
189,248,50247,1,8,0:0:0
324,348,50695,5,0,0:0:0
331,333,50806,1,0,0:0:0
338,318,50918,1,8,0:0:0
345,303,51030,1,0,0:0:0
352,288,51142,2,0,B|414:248|480:289,1,130,0|8,0:0|0:0,0:0:0
435,360,51814,1,0,0:0:0
289,349,52038,6,0,B|237:290|292:220,1,130,8|0,0:0|0:0,0:0:0
359,141,52709,2,0,B|409:80|358:9,1,130,8|0,0:0|0:0,0:0:0
287,54,53381,1,8,0:0:0
169,97,53605,5,0,0:0:0
91,130,53829,2,0,P|65:75|101:3,2,130,8|0|8,0:0|0:0|0:0,0:0:0
259,324,55396,5,0,0:0:0
341,303,55620,2,0,P|411:303|406:282|489:286,1,130,8|0,0:0|0:0,0:0:0
278,241,56292,2,0,P|212:241|215:214|146:215,1,130,8|2,0:0|0:0,0:0:0
256,192,56963,12,2,58306,0:0:0
64,320,58754,5,4,3:0:0
169,187,59202,2,0,P|208:205|238:188|238:188|272:169|308:195,1,130,4|8,0:0|0:0,0:0:0
361,238,59874,1,2,0:0:0
435,197,60098,2,0,P|428:153|435:95,2,97.5,0|2|2,0:0|0:0|0:0,0:0:0
430,281,60993,2,0,P|418:325|359:342|321:311,1,130,0|8,0:0|0:0,0:0:0
198,332,61777,6,0,P|212:287,3,32.5,0|0|0|2,0:0|0:0|0:0|0:0,0:0:0
123,298,62336,2,0,P|-13:299,1,130,8|0,0:0|0:0,0:0:0
49,139,63232,5,8,0:0:0
133,139,63456,2,0,P|269:139,1,130,2|2,0:0|0:0,0:0:0
293,217,64127,2,0,P|161:216,1,130,8|0,0:0|0:0,0:0:0
27,318,65023,5,8,0:0:0
61,240,65247,1,2,0:0:0
28,162,65471,2,0,P|48:108|10:86|29:24,1,130,0|8,0:0|0:0,0:0:0
118,174,66142,2,0,P|165:151|197:193|251:167,1,130,2|2,0:0|0:0,0:0:0
311,116,66814,1,8,0:0:0
392,219,67038,5,2,0:0:0
392,219,67150,1,0,0:0:0
392,219,67262,1,0,0:0:0
392,219,67374,2,0,P|375:330,1,97.5,0|8,0:0|0:0,0:0:0
301,278,67933,2,0,P|287:321|214:338|178:303,1,130,2|2,0:0|0:0,0:0:0
227,236,68605,5,8,0:0:0
227,236,68829,1,2,0:0:0
110,340,69053,2,0,P|81:263,1,65,0|2,0:0|0:0,0:0:0
134,209,69500,2,0,P|112:139,1,65,8|2,0:0|0:0,0:0:0
174,87,69948,6,0,P|243:89|234:63|314:65,1,130,0|8,0:0|0:0,0:0:0
377,187,70620,2,0,P|357:162|353:120,1,65,2|0,0:0|0:0,0:0:0
447,53,71068,2,0,P|414:46|374:56,1,65,2|8,0:0|0:0,0:0:0
279,148,71515,5,0,0:0:0
279,148,71627,1,0,0:0:0
279,148,71739,2,0,P|284:197,3,32.5,0|0|0|0,0:0|0:0|0:0|0:0,0:0:0
252,208,72187,2,0,P|256:252,3,32.5,8|0|0|0,0:0|0:0|0:0|0:0,0:0:0
218,260,72635,2,0,P|221:303,3,32.5
183,313,73083,2,0,P|166:354|105:364|66:341,1,130,8|4,0:0|0:0,0:0:0
41,263,73754,5,2,0:0:0
41,263,73866,1,0,0:0:0
41,263,73978,2,0,P|47:184,1,65,8|2,0:0|0:0,0:0:0
126,226,74426,2,0,P|129:168|129:168|124:154|124:154|128:87,1,130,0|8,0:0|0:0,0:0:0
205,132,75098,2,0,P|209:57,1,65,2|0,0:0|0:0,0:0:0
321,192,75769,5,8,0:0:0
422,115,76105,1,0,0:0:0
410,109,76217,1,8,0:0:0
398,103,76329,1,0,0:0:0
386,97,76441,1,0,0:0:0
302,111,76665,5,8,0:0:0
321,192,76889,1,2,0:0:0
392,235,77112,1,0,0:0:0
476,225,77336,1,2,0:0:0
395,198,77560,5,8,0:0:0
313,221,77784,1,2,0:0:0
257,285,78008,1,0,0:0:0
250,369,78232,2,0,P|111:359,1,130,2|2,0:0|0:0,0:0:0
37,377,78903,5,0,0:0:0
89,216,79351,1,8,0:0:0
40,146,79575,2,0,P|49:97,4,32.5
49,292,80247,1,8,0:0:0
172,212,80471,5,0,0:0:0
172,212,80583,1,0,0:0:0
172,212,80695,2,0,P|219:231|267:210|267:210|290:230|270:266,1,130,4|8,0:0|0:0,0:0:0
401,354,81590,5,0,0:0:0
401,354,81702,1,0,0:0:0
333,303,81926,1,0,0:0:0
333,303,82038,1,8,0:0:0
411,271,82262,2,0,P|422:133,1,130,2|2,0:0|0:0,0:0:0
352,99,82933,5,0,0:0:0
425,56,83157,1,2,0:0:0
496,103,83381,1,8,0:0:0
421,141,83605,5,2,0:0:0
350,19,83829,1,8,0:0:0
502,22,84053,1,8,0:0:0
352,99,84277,2,0,P|304:112|272:85|272:85|244:87|229:111,1,130
200,240,84948,2,0,P|184:172,1,65,8|0,0:0|0:0,0:0:0
168,322,85396,2,0,P|185:393,2,65
287,264,86068,5,4,0:0:0
256,192,86180,12,0,88754,0:0:0
