osu file format v12

[General]
AudioFilename: 01 - I hope so....mp3
AudioLeadIn: 0
PreviewTime: 58691
Countdown: 0
SampleSet: Normal
StackLeniency: 0.7
Mode: 0
LetterboxInBreaks: 0

[Editor]
DistanceSpacing: 1.2
BeatDivisor: 4
GridSize: 4

[Metadata]
Title:I hope so...
TitleUnicode:I hope so...
Artist:Haruna Ikeda
ArtistUnicode:池田春菜
Creator:Zero__wind
Version:Normal
Source:Tenshi no Inai 12-gatsu
Tags:leaf visual novel galgame Opening December when there is no angel Kurosanyan
BeatmapID:197497
BeatmapSetID:58412

[Difficulty]
HPDrainRate:3
CircleSize:3
OverallDifficulty:3
ApproachRate:4
SliderMultiplier:1.6
SliderTickRate:2

[Events]
//Background and Video events
0,0,"mahou.jpg",0,0
//Break Periods
//Storyboard Layer 0 (Background)
//Storyboard Layer 1 (Fail)
//Storyboard Layer 2 (Pass)
//Storyboard Layer 3 (Foreground)
//Storyboard Sound Samples
//Background Colour Transformations
3,100,163,162,255

[TimingPoints]
2966,714.285714285714,4,1,1,40,1,0
6537,-100,4,1,1,50,0,0
12251,-100,4,2,1,55,0,0
32251,681.818181818182,4,1,1,40,1,0
32592,714.285714285714,4,1,1,60,1,0
34393,714.285714285714,4,1,1,60,1,0
57250,-100,4,1,1,40,0,0
58679,-100,4,1,1,60,0,0
60107,-100,4,1,1,70,0,1
77607,-100,4,1,1,55,0,1
77964,-100,4,1,1,70,0,1
79036,-100,4,1,1,55,0,1
79393,-100,4,1,1,70,0,1
82964,-100,4,2,1,60,0,0

[Colours]
Combo1 : 255,128,64
Combo2 : 255,255,142
Combo3 : 138,74,86

[HitObjects]
200,72,5823,1,4,2:0:0:0:
376,152,6537,1,0,0:0:0:0:
448,88,6894,2,0,L|508:48,2,40
376,152,7608,2,0,P|392:188|388:228,1,80
364,320,8323,2,0,L|404:360,2,40,0|0|0,0:0|0:0|0:0,0:0:0:0:
300,248,9037,6,0,P|260:240|220:248,1,80,0|8,0:0|0:0,0:0:0:0:
154,315,9751,2,0,L|134:271,1,40,0|0,0:0|0:0,0:0:0:0:
90,266,10108,2,0,L|90:226,1,40,8|0,0:0|0:0,0:0:0:0:
56,191,10466,2,0,L|33:158,1,40,8|0,0:0|2:0,0:0:0:0:
12,116,10823,2,0,L|32:80,1,40,8|0,0:0|0:0,0:0:0:0:
76,68,11180,2,0,L|88:28,2,40,0|0|4,0:0|2:0|2:0,0:0:0:0:
68,260,12251,6,0,L|30:294,2,40,8|0|0,0:0|0:0|0:0,0:0:0:0:
163,279,12966,2,0,L|241:265,1,80,2|2,0:0|0:0,0:0:0:0:
216,173,13680,2,0,P|294:187|337:263,1,160,8|2,0:0|0:0,0:0:0:0:
242,266,14751,1,2,0:0:0:0:
216,173,15108,5,8,0:0:0:0:
152,102,15466,1,0,0:0:0:0:
80,164,15823,2,0,P|96:208|132:236,1,80,2|2,0:0|0:0,0:0:0:0:
214,212,16537,2,0,L|292:246,1,80,8|0,0:0|0:0,0:0:0:0:
374,200,17251,6,0,P|384:248|373:288,1,80,2|2,0:0|0:0,0:0:0:0:
312,348,17966,1,8,0:0:0:0:
219,367,18323,2,0,P|183:359|150:331,1,80,0|2,0:0|0:0,0:0:0:0:
63,292,19037,2,0,P|85:256|124:237,1,80,2|8,0:0|0:0,0:0:0:0:
280,340,20108,6,0,L|320:377,2,40,2|0|2,0:0|0:0|0:0,0:0:0:0:
196,292,20823,1,8,0:0:0:0:
124,228,21180,1,0,0:0:0:0:
101,135,21537,2,0,L|138:117,1,40,0|0,1:0|0:0,0:0:0:0:
180,136,21894,2,0,L|204:100,1,40,0|0,1:0|0:0,0:0:0:0:
244,80,22251,2,0,P|288:60|347:53,2,80,0|0|4,1:0|0:0|0:0,0:0:0:0:
204,268,23680,6,0,L|284:292,1,80,8|0,0:0|0:0,0:0:0:0:
362,242,24394,2,0,L|417:175,1,80,2|2,0:0|0:0,0:0:0:0:
508,179,25108,2,0,P|473:109|397:84,1,160,8|2,0:0|0:0,0:0:0:0:
320,31,26180,6,0,P|280:12|244:20,1,80,2|8,0:0|0:0,0:0:0:0:
156,51,26894,2,0,L|184:91,1,40
218,112,27251,2,0,L|292:144,2,80,2|2|8,0:0|0:0|0:0,0:0:0:0:
406,133,28680,6,0,P|375:219|316:256,1,160,4|8,0:0|0:0,0:0:0:0:
239,204,29751,1,0,0:0:0:0:
192,288,30108,1,2,0:0:0:0:
100,256,30465,2,0,L|15:256,1,80,2|8,0:0|0:0,0:0:0:0:
112,88,31537,6,0,P|136:56|170:37,1,80,2|2,0:0|0:0,0:0:0:0:
216,124,32251,2,0,P|192:156|158:175,1,80,8|8,0:0|0:0,0:0:0:0:
114,196,32770,1,0,0:0:0:0:
104,244,32949,2,0,L|132:272,1,40
152,316,33306,2,0,L|186:335,1,40
220,370,33663,2,0,L|258:380,1,40
368,280,34393,5,4,2:0:0:0:
449,228,34750,2,0,P|379:185|306:206,1,160
248,127,35821,2,0,P|222:87|192:61,2,80
156,151,36892,2,0,P|108:207|156:263,1,160,4|0,2:0|0:0,0:0:0:0:
249,237,37964,6,0,B|228:195|240:147|280:119|312:183|312:183|344:119|384:147|396:195|373:235,1,320
312,310,39750,1,2,0:0:0:0:
232,364,40107,6,0,P|180:368|144:352,1,80,0|2,0:0|0:0,0:0:0:0:
200,276,40821,2,0,P|156:244|124:184,1,120
160,152,41535,2,0,P|200:116|212:80,2,80,2|0|8,0:0|0:0|0:0,0:0:0:0:
59,157,42607,2,0,B|93:269|199:241|199:241|249:280,1,240,4|8,2:0|0:0,0:0:0:0:
338,254,44035,1,0,0:0:0:0:
374,342,44392,6,0,L|393:377,2,40,0|0|2,0:0|0:0|0:0,0:0:0:0:
434,270,45107,2,0,L|490:278,2,40,8|0|10,0:0|0:0|0:0,0:0:0:0:
338,254,45821,1,4,2:0:0:0:
385,169,46178,6,0,P|338:157|307:163,1,80
239,231,46892,2,0,P|215:185|212:157,1,80,0|0,0:0|0:0,0:0:0:0:
266,76,47607,2,0,P|221:62|189:62,1,80,0|8,0:0|0:0,0:0:0:0:
104,12,48321,2,0,P|88:58|144:152,1,160,4|0,2:0|0:0,0:0:0:0:
256,192,49392,12,4,51178,2:0:0:0:
164,248,51892,5,0,0:0:0:0:
224,324,52250,2,0,P|152:340|100:320,1,120,8|0,0:0|0:0,0:0:0:0:
92,280,52964,2,0,P|52:300|36:332,2,80,0|0|8,0:0|0:0|0:0,0:0:0:0:
74,185,54035,2,0,P|169:92|270:209,1,320,4|0,2:0|0:0,0:0:0:0:
173,196,55821,6,0,P|165:240|177:280,1,80,2|2,0:0|0:0,0:0:0:0:
255,324,56535,2,0,L|289:345,2,40,10|0|0,0:0|0:0|0:0,0:0:0:0:
296,296,57071,2,0,L|344:288,1,40,0|6,0:0|0:0,0:0:0:0:
308,20,58678,5,8,3:0:0:0:
300,116,59035,1,0,0:0:0:0:
388,72,59392,2,8,L|436:76,1,40,8|0,3:0|0:0,0:0:0:0:
476,81,59750,1,8,3:0:0:0:
423,161,60107,6,0,B|407:221|441:275|441:275|375:253|318:271,1,240,4|0,0:0|2:0,0:0:0:0:
232,300,61535,2,0,B|170:283|195:247|195:247|153:216|190:181,1,160
284,196,62607,2,2,P|268:117|182:86,1,160
190,181,63678,2,0,L|129:201,1,40
105,180,64035,2,0,P|67:115|98:36,1,160
162,105,65107,5,0,0:0:0:0:
254,78,65464,1,8,0:0:0:0:
332,136,65821,2,0,L|413:187,1,80
319,232,66535,2,0,L|279:248,1,40,2|0,0:0|0:0,0:0:0:0:
237,263,66892,1,2,0:0:0:0:
168,328,67250,6,0,L|128:352,1,40
85,344,67607,1,0,0:0:0:0:
72,248,67964,2,0,L|96:200,1,40,2|0,0:0|0:0,0:0:0:0:
112,168,68321,1,2,0:0:0:0:
140,128,68500,6,0,L|188:132,1,40
212,224,69035,2,0,L|279:177,1,80
325,183,69571,2,0,L|329:128,1,40,0|4,0:0|2:0,0:0:0:0:
345,334,70464,5,0,0:0:0:0:
433,296,70821,2,0,L|468:247,1,40,8|0,0:0|2:0,0:0:0:0:
451,215,71178,1,8,0:0:0:0:
376,156,71535,2,0,B|316:136|292:76|292:76|272:136|208:156,1,240,4|0,0:0|2:0,0:0:0:0:
116,176,72964,6,0,P|96:216|48:248,2,80
156,88,74035,2,2,P|76:88|24:156,1,160
116,176,75107,2,0,L|144:212,2,40
308,196,76178,6,0,L|380:228,1,80,0|0,0:0|0:0,0:0:0:0:
436,307,76893,1,0,0:0:0:0:
343,329,77250,2,0,L|272:291,1,80,0|4,0:0|0:0,0:0:0:0:
200,356,77964,2,0,L|166:322,1,40,2|0,0:0|0:0,0:0:0:0:
134,295,78321,1,2,0:0:0:0:
61,231,78678,6,0,L|121:171,1,80,0|4,0:0|0:0,0:0:0:0:
212,152,79393,2,0,L|188:120,1,40,2|0,0:0|0:0,0:0:0:0:
156,84,79750,1,2,0:0:0:0:
120,52,79928,6,0,L|80:76,1,40
60,164,80464,2,0,P|80:204|68:248,1,80
100,276,81000,2,0,L|148:300,1,40,0|4,0:0|2:0,0:0:0:0:
268,236,81714,6,0,P|300:248|336:292,1,80
368,312,82250,1,8,0:0:0:0:
412,296,82428,2,0,L|444:264,1,40,0|8,0:0|0:0,0:0:0:0:
464,224,82785,2,0,L|464:172,1,40,0|4,0:0|0:0,0:0:0:0:
