osu file format v12

[General]
AudioFilename: 01 - I hope so....mp3
AudioLeadIn: 0
PreviewTime: 58691
Countdown: 0
SampleSet: Soft
StackLeniency: 0.7
Mode: 0
LetterboxInBreaks: 0

[Editor]
DistanceSpacing: 1.5
BeatDivisor: 6
GridSize: 4

[Metadata]
Title:I hope so...
TitleUnicode:I hope so...
Artist:Haruna Ikeda
ArtistUnicode:池田春菜
Creator:Zero__wind
Version:Hard
Source:Tenshi no Inai 12-gatsu
Tags:leaf visual novel galgame Opening December when there is no angel Kurosanyan
BeatmapID:197496
BeatmapSetID:58412

[Difficulty]
HPDrainRate:5
CircleSize:4
OverallDifficulty:6
ApproachRate:7
SliderMultiplier:2
SliderTickRate:2

[Events]
//Background and Video events
0,0,"asuna.jpg",0,0
//Break Periods
//Storyboard Layer 0 (Background)
//Storyboard Layer 1 (Fail)
//Storyboard Layer 2 (Pass)
//Storyboard Layer 3 (Foreground)
//Storyboard Sound Samples
//Background Colour Transformations
3,100,163,162,255

[TimingPoints]
2966,714.285714285714,4,1,1,40,1,0
6537,-100,4,1,1,50,0,0
12251,-100,4,2,1,55,0,0
32251,681.818181818182,4,1,1,40,1,0
32592,714.285714285714,4,1,1,60,1,0
34393,714.285714285714,4,1,1,60,1,0
57250,-100,4,1,1,40,0,0
58679,-100,4,1,1,60,0,0
60107,-100,4,1,1,70,0,1
77250,-100,4,1,1,55,0,1
77786,-100,4,1,1,70,0,1
78678,-100,4,1,1,55,0,1
79393,-100,4,1,1,70,0,1
82964,-100,4,2,1,60,0,0

[Colours]
Combo1 : 198,224,184
Combo2 : 217,227,236
Combo3 : 253,238,170

[HitObjects]
16,352,5823,2,0,P|96:352|188:276,1,200,4|0,2:0|0:0,0:0:0:0:
52,204,6894,1,0,0:0:0:0:
40,104,7132,2,0,L|11:86,1,33.3333333333333,0|0,2:0|0:0,0:0:0:0:
124,138,7489,1,0,2:0:0:0:
136,104,7608,2,0,P|164:64|206:37,1,100
352,69,8323,1,0,0:0:0:0:
352,69,8561,2,0,L|384:40,1,33.3333333333333,0|0,2:0|2:0,0:0:0:0:
206,37,9037,5,0,2:0:0:0:
425,210,9394,1,8,0:0:0:0:
352,69,9751,2,0,P|336:93|304:112,1,66.6666666666667
256,124,10108,2,0,P|216:136|196:160,1,66.6666666666667,8|0,0:0|0:0,0:0:0:0:
180,200,10466,1,8,0:0:0:0:
32,316,10823,6,0,P|64:316|104:340,1,66.6666666666667,8|0,0:0|0:0,0:0:0:0:
140,352,11180,2,0,P|172:340|216:340,1,66.6666666666667,0|0,0:0|2:0,0:0:0:0:
256,340,11537,1,4,2:0:0:0:
374,160,12251,6,0,L|310:180,1,66.6666666666667,8|0,0:0|0:0,0:0:0:0:
280,221,12608,2,0,L|212:201,1,66.6666666666667,0|0,0:0|0:0,0:0:0:0:
194,157,12965,1,2,0:0:0:0:
296,44,13323,1,2,0:0:0:0:
144,52,13680,2,0,P|80:136|99:225,1,200,8|2,0:0|0:0,0:0:0:0:
255,237,14751,5,2,0:0:0:0:
148,340,15108,1,8,0:0:0:0:
33,243,15346,1,0,0:0:0:0:
33,243,15466,1,0,0:0:0:0:
142,139,15704,1,0,0:0:0:0:
142,139,15823,2,0,L|209:60,1,100,2|2,0:0|0:0,0:0:0:0:
33,243,16537,1,8,0:0:0:0:
128,250,16775,2,0,L|161:253,1,33.3333333333333
265,149,17251,5,2,0:0:0:0:
348,274,17608,1,2,0:0:0:0:
197,374,17966,2,0,P|251:296|348:274,1,200,8|2,0:0|0:0,0:0:0:0:
433,247,18918,1,0,0:0:0:0:
408,220,19037,2,0,P|380:168|384:120,1,100,2|8,0:0|0:0,0:0:0:0:
236,84,19751,1,0,0:0:0:0:
120,180,20108,6,0,L|64:216,1,66.6666666666667,2|0,0:0|0:0,0:0:0:0:
134,258,20466,2,0,L|190:222,1,66.6666666666667,2|0,0:0|0:0,0:0:0:0:
232,196,20823,1,8,0:0:0:0:
322,318,21180,5,0,0:0:0:0:
438,153,21537,2,0,L|380:188,1,66.6666666666667,0|0,1:0|0:0,0:0:0:0:
432,304,21894,2,0,L|384:256,1,66.6666666666667,0|0,1:0|0:0,0:0:0:0:
324,224,22251,2,0,L|263:195,1,66.6666666666667,0|8,1:0|0:0,0:0:0:0:
219,175,22608,1,0,0:0:0:0:
129,132,22846,2,0,L|92:115,1,33.3333333333333,0|4,0:0|2:0,0:0:0:0:
160,295,23323,5,2,0:0:0:0:
332,144,23680,1,8,0:0:0:0:
170,65,24037,2,0,P|189:96|193:125,1,66.6666666666667,0|0,0:0|0:0,0:0:0:0:
212,172,24394,2,0,P|224:204|256:228,1,66.6666666666667,2|0,0:0|0:0,0:0:0:0:
289,253,24751,1,2,0:0:0:0:
283,371,25108,2,0,P|379:326|406:238,1,200,8|2,0:0|0:0,0:0:0:0:
295,140,26180,5,2,0:0:0:0:
196,252,26537,1,8,0:0:0:0:
96,187,26775,2,0,L|70:207,1,33.3333333333333
114,89,27132,2,0,L|80:86,1,33.3333333333333,0|2,0:0|0:0,0:0:0:0:
204,40,27489,2,0,L|173:4,1,33.3333333333333,0|2,0:0|0:0,0:0:0:0:
295,140,27965,6,0,L|239:97,1,66.6666666666667,8|0,0:0|0:0,0:0:0:0:
246,198,28323,2,0,L|299:238,1,66.6666666666667,0|0,0:0|0:0,0:0:0:0:
368,269,28680,2,0,P|401:351|502:358,1,200,4|8,0:0|0:0,0:0:0:0:
460,268,29632,6,0,L|485:233,1,33.3333333333333
406,346,29989,1,0,0:0:0:0:
406,346,30108,2,0,L|303:348,1,100,2|2,0:0|0:0,0:0:0:0:
171,299,30823,2,0,L|233:377,1,100,8|0,0:0|0:0,0:0:0:0:
96,274,31537,6,0,P|55:240|39:198,2,100,2|2|8,0:0|0:0|0:0,0:0:0:0:
136,184,32478,1,0,0:0:0:0:
136,184,32592,2,0,L|192:136,1,66.6666666666667,0|8,0:0|0:0,0:0:0:0:
196,64,32949,2,0,L|256:100,1,66.6666666666667,8|8,0:0|0:0,0:0:0:0:
268,175,33306,2,0,L|330:129,1,66.6666666666667
372,76,33663,2,0,L|400:144,1,66.6666666666667
184,252,34393,6,0,B|200:297|200:297|147:316,1,100,4|0,2:0|0:0,0:0:0:0:
276,220,35107,2,0,B|319:240|319:240|295:291,1,100,0|0,0:0|0:0,0:0:0:0:
316,132,35821,2,0,B|402:100|402:100|438:201,1,200,0|0,0:0|0:0,0:0:0:0:
340,324,36893,6,0,B|326:315|326:315|335:300|335:300|318:301|318:301|327:286|327:286|307:287|307:287|318:274|318:274|304:270|304:270|280:228,1,166.666666666667,4|0,2:0|2:0,0:0:0:0:
252,188,37607,1,0,0:0:0:0:
256,192,37845,12,0,39035,0:0:0:0:
184,261,39393,5,0,0:0:0:0:
256,192,39750,2,0,L|184:261,1,100,2|0,0:0|0:0,0:0:0:0:
184,80,40464,1,2,0:0:0:0:
373,74,40822,6,0,L|256:192,1,166.666666666667,0|0,0:0|2:0,0:0:0:0:
194,230,41536,2,0,P|221:274|258:260,2,100,2|0|8,0:0|0:0|0:0,0:0:0:0:
114,351,42607,2,0,B|174:318|198:285|194:230|194:230|190:274|233:274|233:274|282:267|306:121,1,400,4|0,2:0|0:0,0:0:0:0:
139,76,44393,2,0,L|187:124,1,66.6666666666667,0|0,0:0|0:0,0:0:0:0:
221,158,44750,1,2,0:0:0:0:
84,12,45107,2,0,L|36:59,1,66.6666666666667,0|0,0:0|0:0,0:0:0:0:
2,93,45464,1,2,0:0:0:0:
64,228,45822,5,4,2:0:0:0:
208,156,46179,2,0,P|249:188|271:230,1,100
201,363,46893,2,0,P|164:333|137:288,1,100
112,136,47607,2,0,P|152:136|208:156,1,100,0|8,0:0|0:0,0:0:0:0:
220,340,48322,2,0,P|144:344|72:284,1,166.666666666667,4|0,2:0|2:0,0:0:0:0:
48,248,49036,1,0,0:0:0:0:
256,192,49273,12,4,51178,2:0:0:0:
176,156,51536,5,0,0:0:0:0:
292,212,51893,2,0,L|328:272,1,66.6666666666667,0|0,0:0|2:0,0:0:0:0:
244,278,52250,2,0,B|172:282|140:310|140:360,1,150,8|0,0:0|0:0,0:0:0:0:
140,360,52964,2,0,P|112:320|72:288,2,100,0|0|8,0:0|0:0|0:0,0:0:0:0:
4,272,54036,2,0,B|80:264|140:360|140:360|157:283|224:253|324:312,1,400,4|0,2:0|0:0,0:0:0:0:
440,220,55822,5,2,0:0:0:0:
304,164,56179,1,2,0:0:0:0:
132,42,56535,2,0,L|172:96,1,66.6666666666667,2|0,0:0|0:0,0:0:0:0:
114,193,56892,2,0,L|34:181,1,66.6666666666667
92,114,57250,1,6,0:0:0:0:
322,214,58679,5,8,3:0:0:0:
116,188,59036,1,0,0:0:0:0:
20,372,59393,1,8,3:0:0:0:
4,252,59631,2,0,L|36:228,1,33.3333333333333,0|8,0:0|3:0,0:0:0:0:
158,106,60107,6,0,B|98:74|30:122|-6:218|58:274|270:26|178:382|38:278,1,400,4|0,0:0|0:0,0:0:0:0:
172,384,61893,1,0,0:0:0:0:
316,340,62250,1,0,0:0:0:0:
376,200,62607,2,2,B|428:172|428:108|428:108|468:136|512:116,1,200
316,108,63679,1,0,0:0:0:0:
388,20,63917,5,0,2:0:0:0:
424,20,64036,2,0,P|452:24|480:48,1,66.6666666666667,0|0,0:0|2:0,0:0:0:0:
504,92,64393,1,0,0:0:0:0:
464,239,64631,2,0,L|482:270,1,33.3333333333333,0|8,2:0|0:0,0:0:0:0:
406,139,65107,1,8,0:0:0:0:
288,232,65464,1,8,0:0:0:0:
72,80,65822,5,0,0:0:0:0:
72,80,66179,1,0,0:0:0:0:
36,224,66535,2,0,L|104:252,1,66.6666666666667,2|0,0:0|2:0,0:0:0:0:
91,315,66892,2,0,L|156:284,1,66.6666666666667,2|0,0:0|2:0,0:0:0:0:
228,250,67249,5,0,0:0:0:0:
228,250,67607,1,0,0:0:0:0:
360,324,67964,2,0,L|350:251,1,66.6666666666667,2|0,0:0|2:0,0:0:0:0:
411,231,68321,2,0,L|352:189,1,66.6666666666667,2|0,0:0|2:0,0:0:0:0:
287,145,68678,5,0,0:0:0:0:
287,145,69036,1,0,0:0:0:0:
144,192,69393,2,0,L|193:240,1,66.6666666666667,0|0,0:0|2:0,0:0:0:0:
105,152,69750,1,4,2:0:0:0:
248,320,70464,5,0,0:0:0:0:
460,372,70822,1,8,0:0:0:0:
424,280,71059,2,0,L|412:244,1,33.3333333333333,0|8,0:0|0:0,0:0:0:0:
296,164,71536,6,0,P|364:276|341:105,1,500,4|0,0:0|0:0,0:0:0:0:
383,187,73679,1,0,0:0:0:0:
189,180,74036,6,2,P|208:274|160:374,1,200
48,274,75107,2,0,L|116:276,1,66.6666666666667,0|2,0:0|0:0,0:0:0:0:
177,274,75465,2,0,P|232:283|267:321,1,100,0|0,0:0|2:0,0:0:0:0:
338,117,76179,6,0,L|246:78,1,100
247,239,76893,2,0,L|342:283,1,100,0|4,0:0|0:0,0:0:0:0:
440,124,77607,2,0,L|246:78,1,200,4|2,0:0|0:0,0:0:0:0:
148,56,78559,6,0,L|120:32,1,33.3333333333333,0|4,0:0|0:0,0:0:0:0:
239,167,79036,1,4,0:0:0:0:
88,164,79392,2,0,L|12:192,1,66.6666666666667,2|0,0:0|0:0,0:0:0:0:
24,264,79750,2,0,L|86:240,1,66.6666666666667,2|0,0:0|0:0,0:0:0:0:
155,211,80107,2,0,P|169:168|156:116,1,100
316,56,80821,2,0,L|252:84,1,66.6666666666667
322,88,81179,2,0,P|342:136|390:136,1,100,4|0,2:0|2:0,0:0:0:0:
488,120,81773,6,0,P|481:182|457:216,1,100,0|0,0:0|2:0,0:0:0:0:
428,252,82250,1,8,0:0:0:0:
357,322,82488,2,0,L|328:350,1,33.3333333333333,0|0,2:0|0:0,0:0:0:0:
248,296,82845,2,0,L|208:295,1,33.3333333333333,0|4,2:0|0:0,0:0:0:0:
