osu file format v12

[General]
AudioFilename: 01 - I hope so....mp3
AudioLeadIn: 0
PreviewTime: 58691
Countdown: 0
SampleSet: Normal
StackLeniency: 0.7
Mode: 0
LetterboxInBreaks: 0

[Editor]
DistanceSpacing: 1.1
BeatDivisor: 4
GridSize: 4

[Metadata]
Title:I hope so...
TitleUnicode:I hope so...
Artist:Haruna Ikeda
ArtistUnicode:池田春菜
Creator:Zero__wind
Version:Easy
Source:Tenshi no Inai 12-gatsu
Tags:leaf visual novel galgame Opening December when there is no angel Kurosanyan
BeatmapID:197495
BeatmapSetID:58412

[Difficulty]
HPDrainRate:2
CircleSize:3
OverallDifficulty:2
ApproachRate:3
SliderMultiplier:1.4
SliderTickRate:2

[Events]
//Background and Video events
0,0,"shinobu.jpg",0,0
//Break Periods
//Storyboard Layer 0 (Background)
//Storyboard Layer 1 (Fail)
//Storyboard Layer 2 (Pass)
//Storyboard Layer 3 (Foreground)
//Storyboard Sound Samples
//Background Colour Transformations
3,100,163,162,255

[TimingPoints]
2966,714.285714285714,4,1,1,40,1,0
6537,-100,4,1,1,50,0,0
11180,-100,4,1,1,50,0,0
12251,-100,4,2,1,55,0,0
13322,-100,4,2,2,55,0,0
13680,-100,4,2,1,55,0,0
20465,-100,4,2,2,55,0,0
20823,-100,4,2,1,55,0,0
31894,-100,4,2,2,55,0,0
32251,681.818181818182,4,1,1,40,1,0
32251,-100,4,2,1,55,0,0
32592,714.285714285714,4,1,1,60,1,0
34393,714.285714285714,4,1,1,60,1,0
57250,-100,4,1,1,40,0,0
59036,-100,4,1,1,60,0,0
60107,-100,4,1,1,70,0,1
77607,-100,4,1,1,55,0,1
77964,-100,4,1,1,70,0,1
79036,-100,4,1,1,55,0,1
79393,-100,4,1,1,70,0,1
82964,-100,4,2,1,60,0,0

[Colours]
Combo1 : 170,208,223
Combo2 : 1,139,133
Combo3 : 143,156,171

[HitObjects]
256,192,2965,12,4,5823,2:0:0:0:
272,68,6537,1,0,0:0:0:0:
420,108,7251,1,0,0:0:0:0:
472,164,7608,2,0,P|479:206|475:243,2,70
420,108,8680,5,0,0:0:0:0:
300,204,9394,1,0,0:0:0:0:
276,356,10108,2,0,P|226:339|201:298,1,70,8|8,0:0|0:0,0:0:0:0:
156,278,10823,2,0,L|156:198,1,70,8|0,0:0|0:0,0:0:0:0:
212,156,11537,1,4,2:0:0:0:
360,204,12251,6,0,P|380:176|380:136,1,70,8|0,0:0|0:0,0:0:0:0:
356,68,12965,2,0,B|316:44|300:20|300:20|276:44|246:55,1,140,2|8,0:0|0:0,0:0:0:0:
184,100,14037,2,0,P|144:120|104:120,1,70,0|2,0:0|0:0,0:0:0:0:
44,108,14751,1,2,0:0:0:0:
3,173,15108,1,8,0:0:0:0:
76,308,15823,6,0,L|7:321,2,70,2|2|8,0:0|0:0|0:0,0:0:0:0:
144,272,16894,2,0,L|205:221,1,70,0|2,0:0|0:0,0:0:0:0:
276,360,17965,6,0,L|316:290,1,70,8|0,0:0|0:0,0:0:0:0:
349,232,18680,1,2,0:0:0:0:
415,270,19037,2,0,L|480:308,1,70,2|8,0:0|0:0,0:0:0:0:
464,152,20108,6,0,P|413:99|345:82,1,140,2|8,0:0|0:0,0:0:0:0:
200,48,21537,2,0,P|160:40|136:20,2,70,0|0|0,1:0|1:0|1:0,0:0:0:0:
350,82,22966,1,4,0:0:0:0:
376,232,23680,6,0,P|360:264|324:284,1,70,8|0,0:0|0:0,0:0:0:0:
303,212,24394,2,0,P|263:212|227:204,2,70,2|2|8,0:0|0:0|0:0,0:0:0:0:
224,80,25823,1,2,0:0:0:0:
108,180,26537,6,0,P|110:216|133:251,1,70,8|0,0:0|0:0,0:0:0:0:
166,310,27251,2,0,L|118:362,2,70,2|2|8,0:0|0:0|0:0,0:0:0:0:
320,296,28680,1,4,0:0:0:0:
348,144,29394,6,0,P|376:108|384:72,1,70,8|0,0:0|0:0,0:0:0:0:
424,20,30108,1,2,0:0:0:0:
465,85,30466,2,0,P|471:107|499:143,1,70,2|8,0:0|0:0,0:0:0:0:
496,296,31537,6,0,B|460:273|426:280|426:280|412:249|376:233,1,140,2|8,0:0|0:0,0:0:0:0:
228,268,32949,2,0,P|186:279|156:268,1,70,8|8,0:0|0:0,0:0:0:0:
193,200,33663,2,0,P|212:128|188:68,1,140,8|4,0:0|2:0,0:0:0:0:
310,168,35107,5,0,0:0:0:0:
450,108,35821,2,0,L|494:168,2,70
389,63,36892,1,4,2:0:0:0:
352,216,37607,6,0,B|391:221|402:266|397:295|380:300|380:300|352:295|352:295|357:323|357:323|352:340|323:346|278:334|272:295,1,280
276,218,39392,1,0,0:0:0:0:
232,156,39750,2,2,B|196:162|166:129|166:129|157:173|124:186,1,140,2|2,0:0|0:0,0:0:0:0:
56,188,40821,1,0,0:0:0:0:
68,344,41535,6,0,P|36:376|-20:384,2,70,0|0|8,0:0|0:0|0:0,0:0:0:0:
132,304,42607,2,0,L|192:360,1,70,4|0,2:0|2:0,0:0:0:0:
236,294,43321,1,8,0:0:0:0:
284,356,43678,2,0,L|352:340,1,70,8|0,0:0|2:0,0:0:0:0:
401,278,44392,6,0,P|422:315|450:343,1,70,0|2,0:0|0:0,0:0:0:0:
483,267,45107,6,0,P|462:230|434:202,1,70,8|10,0:0|0:0,0:0:0:0:
468,136,45821,6,0,P|417:80|352:64,1,140,4|0,2:0|0:0,0:0:0:0:
204,48,47250,2,0,P|152:40|120:48,1,70
72,88,47964,2,0,P|60:136|44:164,1,70,8|4,0:0|2:0,0:0:0:0:
88,300,49035,6,0,P|137:294|167:279,1,70,0|8,0:0|0:0,0:0:0:0:
188,216,49750,2,0,P|186:180|207:140,1,70
272,124,50464,5,0,0:0:0:0:
308,192,50821,1,0,0:0:0:0:
384,200,51178,2,0,P|424:272|396:316,1,140,4|0,2:0|0:0,0:0:0:0:
332,356,52250,5,8,0:0:0:0:
256,348,52607,2,0,P|205:347|175:351,1,70
112,332,53321,1,0,0:0:0:0:
56,280,53678,1,8,0:0:0:0:
128,252,54035,2,0,P|224:226|268:130,1,210,4|8,2:0|0:0,0:0:0:0:
148,36,55821,6,0,P|108:28|76:36,1,70,2|2,0:0|0:0,0:0:0:0:
111,104,56535,2,2,L|112:187,1,70,10|0,0:0|0:0,0:0:0:0:
111,250,57250,1,6,0:0:0:0:
495,312,59035,5,0,0:0:0:0:
431,272,59392,1,8,0:0:0:0:
364,304,59750,2,0,P|344:336|316:356,1,70,0|4,0:0|0:0,0:0:0:0:
309,202,60821,1,0,0:0:0:0:
455,164,61535,6,0,P|471:196|511:212,2,70
381,140,62607,2,2,P|349:187|262:187,1,140
306,122,63678,2,0,L|274:74,2,35
160,80,64750,6,0,B|136:112|104:136|104:136|128:168|176:184,1,140,0|8,0:0|0:0,0:0:0:0:
220,144,65821,1,0,0:0:0:0:
284,100,66178,1,0,0:0:0:0:
332,40,66535,2,0,L|332:-9,2,35,2|0|2,0:0|0:0|0:0,0:0:0:0:
380,101,67250,5,0,0:0:0:0:
412,172,67607,1,0,0:0:0:0:
452,236,67964,2,0,L|495:250,2,35,2|0|2,0:0|0:0|0:0,0:0:0:0:
379,264,68678,5,0,0:0:0:0:
308,296,69035,1,0,0:0:0:0:
240,336,69392,2,0,L|226:379,2,35,0|0|4,0:0|0:0|2:0,0:0:0:0:
100,272,70464,5,0,0:0:0:0:
144,208,70821,1,8,0:0:0:0:
212,244,71178,2,0,P|252:260|288:260,1,70,8|4,0:0|0:0,0:0:0:0:
424,212,72250,1,0,0:0:0:0:
284,148,72964,6,0,B|308:108|332:92|332:92|308:76|284:36,1,140
212,36,74035,2,2,P|148:56|124:124,1,140
200,112,75107,2,0,L|235:146,2,35
108,236,76178,2,0,L|52:292,2,70,0|8|0,0:0|0:0|0:0,0:0:0:0:
185,236,77250,6,0,L|257:236,1,70,0|4,0:0|0:0,0:0:0:0:
331,236,77964,2,0,L|331:292,2,35,2|0|2,0:0|0:0|0:0,0:0:0:0:
407,236,78678,6,0,L|477:236,1,70,0|4,0:0|0:0,0:0:0:0:
477,159,79392,2,0,L|525:159,2,35,2|0|2,0:0|0:0|0:0,0:0:0:0:
412,116,80107,6,0,L|356:64,1,70
292,36,80821,2,0,L|292:-8,2,35,0|0|4,0:0|0:0|2:0,0:0:0:0:
192,156,81892,6,0,P|155:185|131:226,1,70,0|8,0:0|0:0,0:0:0:0:
156,280,82607,1,8,0:0:0:0:
200,344,82964,1,4,0:0:0:0:
