osu file format v12

[General]
AudioFilename: 01 - I hope so....mp3
AudioLeadIn: 0
PreviewTime: 58691
Countdown: 0
SampleSet: Normal
StackLeniency: 0.7
Mode: 0
LetterboxInBreaks: 0

[Editor]
DistanceSpacing: 1.3
BeatDivisor: 6
GridSize: 4

[Metadata]
Title:I hope so...
TitleUnicode:I hope so...
Artist:Haruna Ikeda
ArtistUnicode:池田春菜
Creator:Zero__wind
Version:Angel
Source:Tenshi no Inai 12-gatsu
Tags:leaf visual novel galgame Opening December when there is no angel Kurosanyan
BeatmapID:175583
BeatmapSetID:58412

[Difficulty]
HPDrainRate:6
CircleSize:4
OverallDifficulty:7
ApproachRate:8
SliderMultiplier:2.9
SliderTickRate:2

[Events]
//Background and Video events
0,0,"yukio.jpg",0,0
//Break Periods
//Storyboard Layer 0 (Background)
//Storyboard Layer 1 (Fail)
//Storyboard Layer 2 (Pass)
//Storyboard Layer 3 (Foreground)
//Storyboard Sound Samples
//Background Colour Transformations
3,100,163,162,255

[TimingPoints]
2966,714.285714285714,4,1,1,40,1,0
6180,-100,4,1,1,50,0,0
6894,-100,4,1,1,40,0,0
7965,-100,4,1,1,50,0,0
8323,-133.333333333333,4,1,1,40,0,0
9394,-100,4,1,1,40,0,0
10108,-100,4,1,1,45,0,0
10823,-100,4,1,1,40,0,0
11537,-100,4,2,1,60,0,0
11894,-100,4,2,1,55,0,0
14215,-100,4,2,0,55,0,0
15108,-100,4,2,1,55,0,0
19930,-100,4,2,0,55,0,0
20823,-100,4,2,1,55,0,0
32251,681.818181818182,4,1,1,40,1,0
32251,-100,4,2,1,55,0,0
32592,714.285714285714,4,1,1,60,1,0
34393,714.285714285714,4,1,1,60,1,0
35464,-100,4,1,1,45,0,0
36178,-100,4,1,1,60,0,0
37250,-100,4,1,1,20,0,0
37786,-100,4,1,1,30,0,0
38143,-100,4,1,1,40,0,0
38500,-100,4,1,1,50,0,0
38857,-100,4,1,1,60,0,0
45107,-100,4,1,1,55,0,0
45464,-100,4,1,1,50,0,0
45822,-100,4,1,1,60,0,0
48857,-100,4,1,1,20,0,0
49393,-100,4,1,1,30,0,0
49750,-100,4,1,1,40,0,0
50107,-100,4,1,1,50,0,0
50464,-100,4,1,1,60,0,0
54631,-100,4,1,1,30,0,0
54750,-100,4,1,1,60,0,0
57250,-200,4,1,1,40,0,0
58679,-100,4,1,1,60,0,0
60107,-100,4,1,1,70,0,1
63679,-100,4,1,1,50,0,1
64750,-100,4,1,1,60,0,1
65821,-100,4,1,1,70,0,1
76179,-100,4,1,1,70,0,1
77250,-83.3333333333333,4,1,1,55,0,1
77964,-100,4,1,1,70,0,1
78322,-100,4,1,1,90,0,1
78679,-83.3333333333333,4,1,1,55,0,1
79393,-100,4,1,1,70,0,1
79750,-100,4,1,1,90,0,1
80107,-83.3333333333333,4,1,1,70,0,1
80822,-100,4,1,1,70,0,1
82964,-100,4,2,1,60,0,0

[Colours]
Combo1 : 255,128,64
Combo2 : 236,190,140
Combo3 : 220,86,86

[HitObjects]
141,109,5823,2,0,L|251:201,1,145,4|0,2:0|2:0,0:0:0:0:
349,283,6418,1,0,2:0:0:0:
344,357,6537,2,0,P|408:326|416:251,1,145,0|0,0:0|2:0,0:0:0:0:
460,140,7132,2,0,L|504:112,1,48.3333333333333,0|0,2:0|0:0,0:0:0:0:
260,128,7489,1,0,2:0:0:0:
265,202,7608,2,0,P|201:171|193:96,1,145,0|0,0:0|2:0,0:0:0:0:
24,156,8323,1,0,0:0:0:0:
16,276,8561,5,0,2:0:0:0:
42,343,8680,2,0,P|80:308|85:252,1,108.750004148483,0|0,0:0|0:0,0:0:0:0:
204,176,9275,1,0,2:0:0:0:
212,200,9394,1,0,0:0:0:0:
84,112,9751,2,0,L|1:61,1,96.6666666666667
120,24,10108,6,0,L|203:75,1,96.6666666666667,8|0,0:0|0:0,0:0:0:0:
340,88,10466,1,8,0:0:0:0:
340,88,10823,2,0,P|388:64|412:28,1,96.6666666666667,8|0,0:0|0:0,0:0:0:0:
248,64,11180,2,0,P|246:113|272:156,1,96.6666666666667,8|0,0:0|2:0,0:0:0:0:
253,258,11537,6,0,P|320:244|368:188,1,145,4|2,0:0|0:0,0:0:0:0:
504,316,12251,2,0,B|461:327|431:295|431:295|368:368|288:352,1,241.666666666667,8|0,0:0|0:0,0:0:0:0:
236,344,12966,1,2,0:0:0:0:
88,252,13204,1,0,0:0:0:0:
63,249,13323,1,2,0:0:0:0:
228,172,13680,2,0,B|212:188|196:172|212:156|272:132|260:64,1,145,8|0,0:0|0:0,0:0:0:0:
392,212,14394,6,0,P|432:213|464:236,1,72.5,2|0,0:0|0:0,0:0:0:0:
488,328,14751,2,0,P|467:362|440:382,1,72.5,2|0,0:0|0:0,0:0:0:0:
396,296,15108,1,8,0:0:0:0:
456,120,15346,5,0,0:0:0:0:
404,120,15466,2,0,B|320:120|300:204,1,145,0|2,0:0|0:0,0:0:0:0:
200,296,16061,1,0,0:0:0:0:
166,335,16180,2,0,B|84:359|42:286,1,145,2|8,0:0|0:0,0:0:0:0:
20,172,16775,2,0,P|20:152|26:124,1,48.3333333333333
26,124,17251,6,0,B|92:124|108:56|108:56|136:56,1,145,2|2,0:0|0:0,0:0:0:0:
384,36,17966,2,0,P|344:72|300:72,1,96.6666666666667,8|0,0:0|0:0,0:0:0:0:
252,70,18323,1,0,0:0:0:0:
128,96,18561,1,0,0:0:0:0:
124,148,18680,2,0,P|92:216|32:244,1,145,2|2,0:0|0:0,0:0:0:0:
140,44,19394,2,0,P|208:88|228:152,1,145,8|0,0:0|0:0,0:0:0:0:
396,216,20108,6,0,P|364:196|328:191,1,72.5,2|0,0:0|0:0,0:0:0:0:
236,292,20465,2,0,P|250:335|276:360,1,72.5,2|0,0:0|0:0,0:0:0:0:
332,284,20823,1,8,0:0:0:0:
134,175,21061,5,0,0:0:0:0:
134,175,21180,2,0,P|73:170|38:137,1,96.6666666666667,0|0,0:0|0:0,0:0:0:0:
197,112,21537,2,0,P|219:163|214:207,1,96.6666666666667,8|0,0:0|0:0,0:0:0:0:
112,100,21894,2,0,P|156:36|220:28,1,145,8|8,0:0|0:0,0:0:0:0:
344,28,22489,2,0,B|353:95|276:137|276:137|276:194,1,193.333333333333,8|4,0:0|0:0,0:0:0:0:
126,325,23323,5,2,0:0:0:0:
324,271,23680,2,0,P|308:219|272:191,1,96.6666666666667,8|0,0:0|0:0,0:0:0:0:
124,217,24037,2,0,P|177:229|215:214,1,96.6666666666667,0|0,0:0|0:0,0:0:0:0:
224,151,24394,2,0,P|230:110|267:70,1,96.6666666666667,2|0,0:0|0:0,0:0:0:0:
130,47,24751,2,0,L|224:24,1,96.6666666666667,2|0,0:0|0:0,0:0:0:0:
336,16,25108,2,0,P|352:96|313:146,1,145,8|0,0:0|0:0,0:0:0:0:
424,328,25704,1,0,0:0:0:0:
423,254,25823,6,0,P|368:280|357:357,1,145,2|2,0:0|0:0,0:0:0:0:
196,271,26537,2,0,P|207:243|207:177,1,96.6666666666667,8|0,0:0|0:0,0:0:0:0:
128,216,26894,2,0,P|84:227|47:261,1,96.6666666666667
42,348,27251,2,0,P|85:336|123:303,1,96.6666666666667,2|0,0:0|0:0,0:0:0:0:
132,128,27608,1,2,0:0:0:0:
132,128,27965,6,0,P|172:96|184:48,1,96.6666666666667,8|0,0:0|0:0,0:0:0:0:
247,75,28323,2,0,L|302:153,1,96.6666666666667
396,288,28680,1,4,2:0:0:0:
404,296,29275,5,0,0:0:0:0:
404,296,29394,2,0,P|456:236|460:168,1,145,8|0,0:0|0:0,0:0:0:0:
400,68,29989,1,0,0:0:0:0:
463,31,30108,2,0,P|396:-6|339:27,1,145,2|2,0:0|0:0,0:0:0:0:
160,88,30823,2,0,P|80:68|36:24,2,145,8|0|2,0:0|0:0|0:0,0:0:0:0:
320,188,31894,6,0,P|268:252|204:268,1,145,2|8,0:0|0:0,0:0:0:0:
198,86,32592,2,0,L|138:10,1,96.6666666666667,8|0,0:0|0:0,0:0:0:0:
149,124,32949,2,0,L|55:102,1,96.6666666666667,8|8,0:0|0:0,0:0:0:0:
137,188,33306,2,0,L|56:242,1,96.6666666666667
162,246,33663,1,0,0:0:0:0:
198,86,33901,2,0,P|138:158|164:248,1,193.333333333333,8|4,0:0|2:0,0:0:0:0:
16,364,34750,6,0,B|56:348|84:316|84:316|106:342|136:348,1,145,0|0,2:0|0:0,0:0:0:0:
512,320,35464,2,0,P|508:272|476:228,1,96.6666666666667,0|0,0:0|2:0,0:0:0:0:
316,292,35822,2,0,P|320:336|348:380,1,96.6666666666667,0|0,0:0|2:0,0:0:0:0:
415,305,36179,2,0,L|364:168,1,145,2|8,2:0|0:0,0:0:0:0:
78,24,36893,2,0,P|8:132|40:204,1,217.5,4|0,2:0|0:0,0:0:0:0:
125,303,37607,6,0,P|176:316|216:300,1,96.6666666666667,0|0,0:0|2:0,0:0:0:0:
338,152,37964,2,0,P|300:116|258:108,1,96.6666666666667,0|0,0:0|2:0,0:0:0:0:
283,273,38322,2,0,P|324:264|364:228,1,96.6666666666667
192,80,38679,2,0,P|148:64|100:72,1,96.6666666666667
400,192,39036,1,0,0:0:0:0:
400,192,39393,2,0,L|256:192,1,145
116,70,40107,6,0,B|120:120|164:136|164:136|132:192|164:248|164:248|120:264|116:314,1,290,4|0,2:0|0:0,0:0:0:0:
292,88,41179,1,0,2:0:0:0:
380,240,41417,2,0,P|408:220|424:200,1,48.3333333333333,0|0,2:0|0:0,0:0:0:0:
308,292,41774,1,0,2:0:0:0:
291,365,41893,2,0,B|344:368|369:333|369:333|400:340|436:316,1,145
168,24,42607,6,0,P|80:76|107:196,1,241.666666666667,4|0,2:0|2:0,0:0:0:0:
120,292,43322,2,0,P|172:268|196:236,1,96.6666666666667,8|0,0:0|2:0,0:0:0:0:
164,120,43679,2,0,P|92:68|36:68,1,145,8|0,0:0|2:0,0:0:0:0:
67,187,44274,1,0,0:0:0:0:
140,224,44393,6,0,P|99:263|58:271,1,96.6666666666667,0|0,0:0|0:0,0:0:0:0:
67,187,44750,2,0,P|140:148|196:168,1,145,2|8,0:0|0:0,0:0:0:0:
296,248,45345,2,0,L|348:288,1,48.3333333333333,0|10,0:0|0:0,0:0:0:0:
228,136,45702,1,8,0:0:0:0:
197,178,45822,2,0,P|176:260|204:319,1,145,4|0,2:0|0:0,0:0:0:0:
312,164,46535,6,0,P|296:80|248:48,1,145
136,112,47131,1,0,2:0:0:0:
143,197,47250,2,0,P|104:192|60:156,1,96.6666666666667,0|0,0:0|2:0,0:0:0:0:
221,153,47607,2,0,P|229:229|185:277,1,145,0|8,0:0|0:0,0:0:0:0:
434,360,48322,2,0,P|504:252|472:180,1,217.5,4|0,2:0|0:0,0:0:0:0:
386,80,49036,6,0,P|336:68|296:84,1,96.6666666666667,0|0,0:0|2:0,0:0:0:0:
173,231,49393,2,0,P|212:268|253:275,1,96.6666666666667,0|0,0:0|2:0,0:0:0:0:
229,111,49750,2,0,P|188:120|148:156,1,96.6666666666667
320,304,50107,2,0,P|364:320|412:312,1,96.6666666666667
112,192,50464,1,0,0:0:0:0:
112,192,50822,2,0,P|84:200|20:180,1,96.6666666666667,0|0,0:0|2:0,0:0:0:0:
40,292,51179,2,0,P|91:291|140:264,1,96.6666666666667,0|0,0:0|2:0,0:0:0:0:
216,192,51536,6,0,P|216:104|84:64,1,241.666666666667,4|0,2:0|2:0,0:0:0:0:
120,148,52250,2,0,B|216:96|228:48|228:48|268:60|316:40,1,241.666666666667,8|0,0:0|2:0,0:0:0:0:
388,88,52964,2,0,P|351:118|299:123,1,96.6666666666667,0|0,0:0|2:0,0:0:0:0:
316,39,53322,1,0,0:0:0:0:
476,40,53560,2,0,P|484:70|484:96,1,48.3333333333333,0|8,2:0|0:0,0:0:0:0:
118,233,54035,6,0,B|190:221|222:169|222:169|254:221|316:232,1,241.666666666667,4|0,2:0|0:0,0:0:0:0:
394,271,54750,2,0,P|403:229|384:176,1,96.6666666666667,0|0,0:0|2:0,0:0:0:0:
323,313,55107,2,0,P|352:344|412:352,1,96.6666666666667,8|0,0:0|2:0,0:0:0:0:
512,288,55464,1,8,0:0:0:0:
323,313,55822,5,2,0:0:0:0:
323,313,56179,1,2,0:0:0:0:
229,89,56535,2,0,B|269:125|262:176,1,96.6666666666667,10|0,0:0|0:0,0:0:0:0:
76,168,56893,2,0,L|17:91,1,96.6666666666667,0|0,0:0|0:0,0:0:0:0:
128,92,57250,6,0,B|179:158|179:158|158:245|266:295|318:239,1,290,6|8,0:0|3:0,0:0:0:0:
310,245,59036,5,0,0:0:0:0:
488,212,59393,1,8,3:0:0:0:
448,100,59631,1,0,0:0:0:0:
440,76,59750,1,8,3:0:0:0:
440,76,60107,6,0,B|357:138|295:14|212:76,1,241.666666666667,4|0,0:0|2:0,0:0:0:0:
143,9,60822,2,0,P|126:118|229:170,1,241.666666666667,8|0,0:0|2:0,0:0:0:0:
264,260,61536,2,0,P|320:196|316:132,2,145
96,176,62607,2,0,P|80:120|52:96,1,96.6666666666667,0|0,0:0|2:0,0:0:0:0:
0,176,62964,6,0,B|21:294|140:264|140:264|216:328,1,290,4|8,2:0|0:0,0:0:0:0:
464,168,63917,1,0,2:0:0:0:
464,168,64036,2,0,P|468:218|446:261,1,96.6666666666667,0|0,0:0|2:0,0:0:0:0:
296,192,64393,2,0,P|340:180|384:200,1,96.6666666666667,0|0,0:0|2:0,0:0:0:0:
348,284,64750,2,0,P|267:293|215:262,1,145,8|8,0:0|0:0,0:0:0:0:
88,128,65464,2,0,P|120:160|132:216,1,96.6666666666667,0|0,0:0|2:0,0:0:0:0:
47,203,65822,6,0,P|3:129|20:76,1,145
200,136,66536,2,0,P|159:127|136:104,1,72.5,10|0,0:0|2:0,0:0:0:0:
287,104,66893,2,0,P|293:148|272:193,1,72.5,2|0,0:0|2:0,0:0:0:0:
207,53,67250,6,0,P|273:10|342:29,1,145,0|0,0:0|0:0,0:0:0:0:
384,200,67964,2,0,P|396:164|388:128,1,72.5,10|0,0:0|2:0,0:0:0:0:
316,268,68322,2,0,P|308:316|320:352,1,72.5,2|0,0:0|2:0,0:0:0:0:
408,256,68679,6,0,P|363:185|308:172,1,145
136,244,69393,2,0,L|84:300,1,72.5,8|0,0:0|2:0,0:0:0:0:
220,270,69750,2,0,B|230:213|208:175|154:155|154:155|99:136|77:97|88:41,1,290,4|0,2:0|0:0,0:0:0:0:
40,239,70822,2,0,P|80:248|136:244,1,96.6666666666667,8|0,0:0|0:0,0:0:0:0:
104,124,71179,1,0,0:0:0:0:
104,124,71536,6,0,P|137:242|238:291,1,241.666666666667,12|0,0:0|2:0,0:0:0:0:
320,240,72250,2,0,P|328:324|292:372,1,145
238,291,72845,1,0,2:0:0:0:
264,136,72965,2,0,P|299:104|351:96,1,96.6666666666667,0|0,0:0|2:0,0:0:0:0:
336,184,73322,2,0,P|300:216|208:204,1,145,8|8,0:0|0:0,0:0:0:0:
102,10,74036,2,0,P|139:30|192:24,1,96.6666666666667,8|0,0:0|2:0,0:0:0:0:
280,40,74393,6,0,B|228:171|159:52|108:183,1,241.666666666667,4|0,2:0|2:0,0:0:0:0:
48,109,75107,2,0,B|0:156|0:216|56:264|56:264|16:315,1,241.666666666667,8|0,0:0|2:0,0:0:0:0:
73,381,75822,2,0,L|131:303,1,96.6666666666667,8|0,0:0|2:0,0:0:0:0:
207,285,76179,2,0,B|188:248|153:232|153:232|137:197|108:184,1,145,0|8,0:0|0:0,0:0:0:0:
308,288,76893,2,0,P|292:340|257:374,1,96.6666666666667,0|0,0:0|2:0,0:0:0:0:
295,166,77250,6,0,P|377:184|440:246,1,173.999994689942,4|4,0:0|0:0,0:0:0:0:
416,357,77965,2,0,P|384:332|372:280,1,96.6666666666667,8|8,0:0|0:0,0:0:0:0:
325,200,78322,2,0,P|371:186|417:196,1,96.6666666666667,2|2,2:0|2:0,0:0:0:0:
192,272,78679,6,0,P|166:190|188:104,1,173.999994689942,4|4,0:0|0:0,0:0:0:0:
312,4,79393,2,0,P|296:48|254:72,1,96.6666666666667,8|8,0:0|0:0,0:0:0:0:
194,159,79750,2,0,P|160:123|148:76,1,96.6666666666667,2|2,2:0|2:0,0:0:0:0:
327,217,80107,6,0,P|269:279|183:303,1,173.999994689942,4|4,0:0|0:0,0:0:0:0:
172,117,80822,2,0,P|200:164|196:204,1,96.6666666666667,8|0,0:0|0:0,0:0:0:0:
60,64,81179,2,0,B|100:76|100:76|136:12|236:16|256:113,1,241.666666666667,4|0,2:0|2:0,0:0:0:0:
340,80,81893,6,0,L|424:32,1,96.6666666666667,0|0,0:0|2:0,0:0:0:0:
427,215,82250,2,0,L|427:311,1,96.6666666666667,0|0,0:0|2:0,0:0:0:0:
267,223,82607,2,0,L|180:172,1,96.6666666666667,0|0,0:0|2:0,0:0:0:0:
340,80,82964,5,4,0:0:0:0:
