osu file format v5

[General]
AudioFilename: Harumi - Servant of Evil.mp3
AudioLeadIn: 0
PreviewTime: -1
Countdown: 3
SampleSet: Soft
StackLeniency: 0.7
Mode: 0
LetterboxInBreaks: 1

[Metadata]
Title:Servant of Evil
Artist:Harumi-Kagamine Len
Creator:MeMichiru
Version:Miku
Source:Youtube
Tags:servant of evil len

[Difficulty]
HPDrainRate:2
CircleSize:3
OverallDifficulty:5
SliderMultiplier:1.4
SliderTickRate:3

[Events]
//Background and Video events
0,0,"20080517_204251.jpg"
//Break Periods
2,35700,51300
//Storyboard Layer 0 (Background)
//Storyboard Layer 1 (Failing)
//Storyboard Layer 2 (Passing)
//Storyboard Layer 3 (Foreground)
//Storyboard Sound Samples
//Background Colour Transformations
3,100,163,162,255

[TimingPoints]
0,1000,4,2,0,60,1,0

[Colours]
Combo1 : 0,0,0
Combo2 : 255,255,0

[HitObjects]
128,128,20750,5,8
256,128,21375,1,8
416,160,22625,1,8
256,160,23375,1,8
224,192,23625,1,8
96,160,24125,5,8
192,160,25000,1,8
288,192,25750,1,8
416,192,26625,1,8
384,288,27250,1,8
320,288,27625,1,8
128,128,28500,5,8
288,160,29500,1,8
416,224,30625,1,8
384,288,31375,1,8
288,288,31625,1,8
160,224,32375,5,8
96,160,33375,1,8
64,256,34000,1,8
192,320,34625,1,8
352,320,35500,1,8
96,128,52500,5,8
224,128,53625,1,8
416,128,54625,1,8
448,256,55625,1,8
352,256,56625,5,8
192,256,57625,1,8
64,256,58625,1,8
96,128,59500,1,8
224,128,60625,5,8
384,160,61500,1,8
192,224,62625,1,8
384,320,63500,1,8
384,224,64500,5,8
384,160,65500,1,8
352,64,66250,1,8
256,64,66875,1,8
160,96,67625,1,8
96,128,68500,5,8
160,160,69000,1,8
224,224,69625,1,8
288,256,70000,1,8
384,288,70625,1,8
416,256,71000,1,8
384,192,71375,1,8
384,192,71625,1,8
320,128,72625,5,8
256,128,73125,1,8
192,128,73625,1,8
128,128,74125,1,8
32,192,74625,1,8
64,288,75000,1,8
192,320,75500,1,8
192,320,75625,1,8
352,320,76500,5,8
352,256,77125,1,8
352,256,77625,1,8
352,192,78000,1,8
352,128,78625,1,8
320,96,79000,1,8
320,96,79375,1,8
320,96,79625,1,8
224,64,80375,5,8
352,160,80875,1,8
128,192,81625,1,8
256,288,82000,1,8
256,192,82500,12,8,86375
96,96,86750,5,8
320,128,87625,1,8
128,192,88375,1,8
320,256,88625,1,8
416,288,89000,1,8
320,320,89375,1,8
160,288,89625,1,8
96,128,90500,5,8
224,128,91250,1,8
416,160,92125,1,8
128,224,92625,1,8
384,288,92875,1,8
192,288,93250,1,8
320,224,93625,1,8
160,128,94500,5,8
224,192,95500,1,8
320,288,96250,1,8
416,320,96625,1,8
416,256,96875,1,8
416,192,97375,1,8
384,96,97625,1,8
128,64,98500,5,8
224,96,99375,1,8
384,224,100000,1,8
160,224,100625,1,8
192,288,101000,1,8
320,320,101250,1,8
320,320,101625,1,8
