osu file format v5

[General]
AudioFilename: Haruka Tomatsu-Musuhi no toki.mp3
AudioLeadIn: 0
PreviewTime: 69393
Countdown: 0
SampleSet: Soft
StackLeniency: 0.7
Mode: 0
LetterboxInBreaks: 1

[Metadata]
Title:Mushi no Toki
Artist:Haruka Tomatsu
Creator:Alace
Version:Normal
Source:Kannagi
Tags:anime mushi no toki tomatsu haruka kannagi nagi

[Difficulty]
HPDrainRate:3
CircleSize:4
OverallDifficulty:4
SliderMultiplier:1.6
SliderTickRate:2

[Events]
//Background and Video events
0,0,"Toki BG.jpg"
//Break Periods
//Storyboard Layer 0 (Background)
//Storyboard Layer 1 (Failing)
//Storyboard Layer 2 (Passing)
//Storyboard Layer 3 (Foreground)
//Storyboard Sound Samples
//Background Colour Transformations
3,100,0,0,0

[TimingPoints]
22649,697.674418604651,4,2,1,100,1
22823,-100,4,1,1,71,0
23172,-100,4,2,1,100,0
23521,-100,4,1,1,71,0
23869,-100,4,2,1,100,0
24567,-100,4,1,1,71,0
24916,-100,4,2,1,100,0
25265,-100,4,1,1,75,0
25614,-100,4,2,1,100,0
25962,-100,4,1,1,74,0
26486,-100,4,2,1,100,0
27365,-100,4,1,1,72,0
27707,-100,4,2,1,100,0
28055,-100,4,1,1,71,0
28753,-100,4,2,1,100,0
29102,-100,4,1,1,72,0
29451,-100,4,2,1,100,0
29800,-100,4,1,1,75,0
30148,-100,4,1,1,72,0
30497,-100,4,1,1,76,0
30846,-100,4,2,1,100,0
31718,-100,4,1,1,71,0
32272,-100,4,2,1,100,0
32590,-100,4,1,1,67,0
32939,-100,4,1,1,78,0
33288,-100,4,2,1,100,0
33637,-100,4,2,1,67,0
34160,-100,4,2,1,100,0
34683,-100,4,1,1,74,0
35381,-100,4,2,1,100,0
36079,-100,4,1,1,74,0
36776,-100,4,2,1,100,0
37474,-100,4,1,1,76,0
38172,-100,4,2,1,100,0
39567,-100,4,1,1,62,0
39916,-100,4,2,1,100,0
40614,-100,4,1,1,75,0
41137,-100,4,2,1,100,0
41660,-100,4,1,1,67,0
42009,-100,4,2,1,100,0
42532,-100,4,1,1,68,0
43404,-100,4,2,1,100,0
43753,-100,4,1,1,69,0
44102,-100,4,2,1,93,0
45148,-100,4,1,1,71,0
45846,-100,4,2,1,100,0
46544,-100,4,1,1,65,0
46893,-100,4,2,1,100,0
48637,-100,4,1,1,73,0
49683,-100,4,2,1,100,0
50032,-100,4,1,1,72,0
50381,-100,4,2,1,72,0
50904,-100,4,2,1,67,0
51428,-100,4,1,1,71,0
52125,-100,4,2,1,100,0
52474,-100,4,2,1,55,0
52823,-100,4,1,1,72,0
53521,-100,4,2,1,100,0
54567,-100,4,1,1,72,0
54916,-100,4,2,1,100,0
55265,-100,4,1,1,70,0
55614,-100,4,2,1,71,0
55962,-100,4,1,1,51,0
56747,-100,4,1,1,74,0
57009,-100,4,2,1,100,0
57358,-100,4,1,1,54,0
58055,-100,4,2,1,100,0
58404,-100,4,1,1,69,0
58928,-100,4,1,1,49,0
59102,-100,4,1,1,34,0
59451,-100,4,1,1,57,0
59800,-100,4,1,1,77,0
60148,-100,4,2,1,100,0
61544,-100,4,1,1,74,0
61893,-100,4,2,1,100,0
62939,-100,4,1,1,74,0
63288,-100,4,2,1,100,0
64683,-100,4,1,1,72,0
65032,-100,4,2,1,100,0
66079,-100,4,2,1,65,0
66428,-100,4,2,1,86,0
69136,-100,4,1,1,100,0
69480,-100,4,1,1,61,0
70003,-100,4,1,1,100,0
70265,-100,4,1,1,84,0
71311,-100,4,2,1,100,0
71573,-100,4,1,1,53,0
72096,-100,4,1,1,100,0
73404,-100,4,2,1,100,0
73666,-100,4,1,1,56,0
74189,-100,4,1,1,100,0
75323,-100,4,2,1,100,0
76021,-100,4,1,1,100,0
76718,-100,4,1,1,59,0
77590,-100,4,2,1,100,0
77852,-100,4,2,1,65,0
78288,-100,4,1,1,100,0
79683,-100,4,2,1,100,0
79945,-100,4,2,1,68,0
80381,-100,4,1,1,100,0
81776,-100,4,2,1,100,0
82038,-100,4,2,1,69,0
82474,-100,4,1,1,100,0
83695,-100,4,2,1,100,0
84393,-100,4,1,1,100,0
85090,-100,4,1,1,54,0
85788,-100,4,1,1,56,0
86224,-100,4,2,1,68,0
87009,-100,4,1,1,100,0
87358,-100,4,2,1,100,0
87707,-100,4,1,1,100,0
88055,-100,4,2,1,100,0
88317,-100,4,2,1,65,0
88753,-100,4,1,1,100,0
90148,-100,4,2,1,100,0
90497,-100,4,1,2,100,0
91544,-100,4,1,1,100,0
91893,-100,4,2,1,100,0
92503,-100,4,2,1,70,0
93026,-100,4,1,1,70,0
93288,-100,4,1,1,97,0
93637,-100,4,2,1,97,0
93986,-100,4,1,1,97,0
94335,-100,4,2,1,97,0
96428,-100,4,1,1,100,0
96689,-100,4,2,1,97,0
97387,-100,4,1,1,97,0
97648,-100,4,2,1,97,0
97910,-100,4,1,1,97,0
98521,-100,4,2,1,97,0
100605,-100,4,1,1,97,0
101050,-100,4,2,1,97,0
101835,-100,4,1,1,97,0
102096,-100,4,2,1,97,0
103753,-100,4,1,1,97,0
104102,-100,4,2,1,97,0
105148,-100,4,1,1,97,0
105497,-100,4,2,1,97,0
106544,-100,4,1,1,97,0
106893,-100,4,2,1,97,0
108074,-100,4,1,1,97,0
108637,-100,4,2,1,97,0
109160,-100,4,2,1,21,0

[Colours]
Combo1 : 196,136,255
Combo2 : 102,179,255
Combo3 : 255,128,255

[HitObjects]
64,88,22649,1,2
128,88,22997,1,8
192,88,23346,1,2
256,88,23695,1,8
320,88,24044,1,2
448,280,24742,5,8
384,280,25090,1,2
320,280,25439,1,8
256,280,25788,1,2
192,280,26137,1,8
88,152,26835,6,0,B|40:80,3,80,2|2|8|2
104,72,28230,6,0,B|144:144,3,80,8|8|2|8
208,128,29625,6,0,B|160:48,3,80,2|8|8|8
166,59,31021,1,4
448,56,32067,5,8
480,112,32416,1,2
440,160,32765,1,8
480,208,33114,1,8
440,256,33462,1,2
440,256,33811,5,8
352,160,34509,6,0,B|328:128|280:120,1,80,2|8
280,184,35207,2,0,B|240:176|192:208|192:216|200:216,1,80,8|2
192,144,35904,2,2,B|152:120|112:152,1,80,2|8
64,184,36602,1,8
16,224,36951,2,0,B|144:344|280:0|360:208|376:232|376:232,1,400,2|4
256,32,39393,5,2
296,80,39742,1,8
344,120,40090,1,2
296,168,40439,1,2
256,216,40788,1,8
256,352,41486,5,2
224,296,41835,1,8
288,296,42183,1,2
256,168,42881,5,8
216,120,43230,1,8
176,72,43579,1,2
136,120,43928,1,8
96,168,44276,1,2
288,312,44974,5,2
344,288,45323,1,8
392,248,45672,1,8
432,200,46021,2,0,B|520:184|432:-40|224:224|232:32|304:24,1,320,2|4
96,48,48462,5,2
48,88,48811,1,8
8,136,49160,2,0,B|40:344|288:-24|264:240|264:240,1,320,8|4
368,272,51253,5,8
432,256,51602,1,8
480,208,51951,1,8
472,144,52300,1,2
448,80,52648,1,8
392,48,52997,1,8
328,32,53346,1,8
264,40,53695,2,0,B|40:232|464:96|488:320|304:360,1,480,2|8
280,312,56137,5,4
280,312,56311,1,8
224,336,56660,1,8
224,336,56835,1,8
168,312,57183,1,2
112,336,57532,2,0,B|-8:216|272:232|72:72,1,320,2|4
75,74,59276,5,8
75,74,59625,1,8
75,74,59974,1,8
136,72,60323,6,0,B|192:72,2,40,4|0|0
75,74,61021,5,8
72,136,61369,1,2
88,200,61718,1,8
128,248,62067,1,2
176,288,62416,1,8
232,320,62765,1,2
288,328,63114,2,0,B|376:376|456:328,1,160,8|8
448,272,64160,6,0,B|488:192,1,80,2|2
504,136,64858,1,8
448,96,65207,2,0,B|368:72,1,80,8|2
304,72,65904,1,2
240,72,66253,2,0,B|152:104,1,80,8|8
112,128,66951,1,4
256,192,67300,12,0,68695
152,288,69393,5,4
152,288,69567,1,8
208,272,69916,1,8
208,272,70090,2,0,B|264:296|280:328|328:200|368:264,1,160,8|8
376,304,71137,1,8
424,264,71486,5,8
424,264,71660,1,8
456,208,72009,1,8
456,208,72183,2,0,B|536:160|344:120|456:72,1,160,8|8
435,83,73230,1,8
384,120,73579,5,8
384,120,73753,1,8
328,80,74102,1,8
328,80,74276,2,0,B|272:168|232:0|184:88,1,160,8|8
64,72,75672,5,8
64,200,76369,5,8
64,328,77067,5,4
424,320,77765,5,8
424,320,77939,1,2
424,320,78114,1,2
472,280,78462,2,0,B|520:184|464:112,1,160,8|8
448,64,79509,1,8
392,96,79858,5,8
392,96,80032,1,2
392,96,80207,1,2
336,64,80555,2,0,B|288:152|264:-8|200:72,1,160,8|8
206,64,81602,1,8
152,104,81951,5,8
152,104,82125,1,2
152,104,82300,1,2
120,160,82648,2,8,B|0:208|184:232|64:296,1,160,8|8
200,344,84044,5,8
312,280,84742,5,8
424,344,85439,5,4
424,64,86137,5,4
424,64,86311,1,2
368,96,86660,1,2
368,96,86835,1,2
312,64,87183,1,8
256,96,87532,1,2
200,64,87881,1,8
144,96,88230,5,8
144,96,88404,1,2
144,96,88579,1,2
88,64,88928,2,0,B|8:152|80:216,1,160,8|8
69,205,89974,1,8
64,264,90323,6,0,B|216:368|376:272,1,320,4|8
365,278,92067,5,2
424,280,92416,1,8
424,280,92590,1,2
400,216,92939,1,2
400,216,93114,1,8
448,176,93462,1,8
448,176,93811,5,2
432,112,94160,1,8
384,64,94509,2,0,B|360:0|320:152|256:64,2,160,8|2|8
384,64,96253,5,2
432,104,96602,1,8
432,104,96776,1,2
432,104,96951,1,2
368,128,97300,1,8
368,128,97474,1,8
416,168,97823,1,2
416,168,97997,1,8
360,192,98346,1,8
312,152,98695,6,0,B|264:240|224:72|168:160,2,160,8|2|8
312,152,100439,5,2
368,112,100788,1,8
368,112,100962,1,8
368,112,101137,1,2
408,160,101486,1,8
408,160,101660,1,2
360,208,102009,1,8
360,208,102183,5,2
360,272,102532,1,2
320,320,102881,6,0,B|240:392|176:312,1,160,8|2
120,296,103928,1,8
72,256,104276,2,0,B|0:184|88:104,1,160,8|2
120,72,105323,1,8
176,48,105672,2,0,B|256:-16|328:56,1,160,8|2
376,72,106718,1,8
424,112,107067,2,0,B|496:192|424:264,1,160,8|2
256,192,108462,5,8
256,192,108811,5,2
256,192,109160,12,0,111253
