osu file format v5

[General]
AudioFilename: Haruka Tomatsu-Musuhi no toki.mp3
AudioLeadIn: 0
PreviewTime: 69393
Countdown: 0
SampleSet: Soft
StackLeniency: 0.7
Mode: 0
LetterboxInBreaks: 1

[Metadata]
Title:Mushi no Toki
Artist:Haruka Tomatsu
Creator:Alace
Version:Hard
Source:Kannagi
Tags:anime mushi no toki tomatsu haruka kannagi nagi

[Difficulty]
HPDrainRate:7
CircleSize:5
OverallDifficulty:7
SliderMultiplier:1.8
SliderTickRate:2

[Events]
//Background and Video events
0,0,"Toki BG.jpg"
//Break Periods
2,111453,127097
2,144592,149423
2,176337,184307
//Storyboard Layer 0 (Background)
//Storyboard Layer 1 (Failing)
//Storyboard Layer 2 (Passing)
//Storyboard Layer 3 (Foreground)
//Storyboard Sound Samples
//Background Colour Transformations
3,100,0,0,0

[TimingPoints]
22649,697.674418604651,4,2,1,48,1
22823,-100,4,2,1,100,0
23172,-100,4,1,1,67,0
23894,-100,4,2,1,48,0
24131,-100,4,2,1,82,0
24305,-100,4,1,1,69,0
24567,-100,4,2,1,74,0
24916,-100,4,1,1,71,0
25265,-100,4,2,1,51,0
25614,-100,4,1,1,73,0
25962,-100,4,2,1,100,0
26224,-100,4,1,1,65,0
26398,-100,4,2,1,100,0
26660,-100,4,2,1,53,0
27009,-100,4,1,1,73,0
27358,-100,4,2,1,100,0
27707,-100,4,1,1,72,0
28055,-100,4,2,1,53,0
28404,-100,4,1,1,75,0
28753,-100,4,2,1,100,0
29102,-100,4,2,1,100,0
29451,-100,4,2,1,51,0
29800,-100,4,1,1,69,0
30148,-100,4,2,1,100,0
30497,-100,4,2,1,100,0
30846,-100,4,2,1,54,0
31631,-100,4,1,1,54,0
31893,-100,4,2,1,100,0
32242,-100,4,2,1,48,0
32590,-100,4,1,1,69,0
32939,-100,4,2,1,100,0
33288,-100,4,1,1,68,0
33637,-100,4,2,1,53,0
34422,-100,4,1,1,53,0
34678,-100,4,2,1,100,0
35032,-100,4,2,1,51,0
35381,-100,4,1,1,74,0
35730,-100,4,2,1,100,0
36079,-100,4,1,1,72,0
36428,-100,4,2,1,100,0
36776,-100,4,2,1,77,0
37125,-100,4,2,1,27,0
37474,-100,4,2,1,46,0
37823,-100,4,2,1,81,0
38259,-100,4,2,1,55,0
38521,-100,4,2,1,55,0
38782,-100,4,1,1,34,0
39218,-100,4,2,1,52,0
39567,-100,4,1,1,73,0
39916,-100,4,2,1,100,0
40265,-100,4,1,1,74,0
40614,-100,4,2,1,48,0
41137,-100,4,2,1,95,0
42009,-100,4,2,1,50,0
42532,-100,4,2,1,100,0
43055,-100,4,1,1,73,0
43442,-100,4,2,1,54,0
43753,-100,4,1,1,72,0
44102,-100,4,2,1,100,0
44625,-100,4,2,1,56,0
45148,-100,4,1,1,75,0
45497,-100,4,2,1,100,0
45846,-100,4,1,1,74,0
46195,-100,4,2,1,47,0
46544,-100,4,1,1,73,0
46893,-100,4,2,1,100,0
47242,-100,4,2,1,76,0
47590,-100,4,1,2,100,0
47939,-100,4,2,1,100,0
48637,-100,4,1,1,77,0
48986,-100,4,2,1,49,0
49335,-100,4,1,1,77,0
49683,-100,4,2,1,100,0
50032,-100,4,1,1,75,0
50390,-100,4,2,1,52,0
50817,-100,4,1,1,61,0
51079,-100,4,2,1,100,0
51428,-100,4,1,1,66,0
51776,-100,4,2,1,51,0
52125,-100,4,1,1,76,0
52474,-100,4,2,1,100,0
52823,-100,4,1,1,72,0
53172,-100,4,2,1,53,0
53516,-100,4,1,1,68,0
54567,-100,4,2,1,48,0
55178,-100,4,1,1,61,0
55352,-100,4,2,1,35,0
55614,-100,4,1,1,43,0
55962,-100,4,1,1,33,0
56922,-100,4,2,1,46,0
57445,-100,4,1,1,61,0
57707,-100,4,1,1,45,0
58055,-100,4,2,1,45,0
58404,-100,4,2,1,32,0
58753,-100,4,1,1,42,0
59712,-100,4,2,1,42,0
59887,-100,4,1,1,53,0
60148,-100,4,1,1,65,0
60672,-100,4,2,1,65,0
61195,-100,4,1,1,74,0
61544,-100,4,2,1,100,0
61893,-100,4,1,1,78,0
62242,-100,4,2,1,78,0
62590,-100,4,1,1,78,0
62939,-100,4,2,1,100,0
63288,-100,4,1,1,74,0
63550,-100,4,2,1,74,0
63986,-100,4,1,1,74,0
64335,-100,4,2,1,100,0
64683,-100,4,1,1,75,0
65032,-100,4,2,1,75,0
65381,-100,4,1,1,75,0
65730,-100,4,2,1,100,0
66079,-100,4,1,1,74,0
66428,-100,4,2,1,74,0
66689,-100,4,1,1,59,0
66864,-100,4,2,1,50,0
67387,-100,4,2,1,22,0
69044,-100,4,1,1,61,0
69567,-100,4,1,1,78,0
69916,-100,4,2,1,85,0
70352,-100,4,1,1,78,0
70875,-100,4,2,1,73,0
71398,-100,4,2,1,100,0
71835,-100,4,1,1,77,0
73317,-100,4,2,1,100,0
73753,-100,4,1,1,77,0
74451,-100,4,2,1,73,0
74800,-100,4,1,1,73,0
75148,-100,4,2,1,73,0
75497,-100,4,2,1,100,0
75846,-100,4,2,1,73,0
76195,-100,4,1,1,73,0
76544,-100,4,2,1,73,0
76893,-100,4,1,1,73,0
77242,-100,4,2,1,73,0
77590,-100,4,2,1,100,0
78114,-100,4,1,1,75,0
79335,-100,4,2,1,75,0
79683,-100,4,2,1,100,0
80032,-100,4,2,1,78,0
80381,-100,4,1,1,78,0
80730,-100,4,2,1,78,0
81079,-100,4,1,1,78,0
81428,-100,4,2,1,78,0
81776,-100,4,2,1,100,0
82125,-100,4,2,1,77,0
82474,-100,4,1,1,77,0
83782,-100,4,2,1,100,0
84218,-100,4,2,1,76,0
84654,-100,4,1,1,76,0
84829,-100,4,2,1,76,0
85352,-100,4,1,1,76,0
85614,-100,4,2,1,76,0
85962,-100,4,1,1,44,0
86486,-100,4,1,1,73,0
87707,-100,4,2,1,73,0
88055,-100,4,2,1,99,0
88404,-100,4,2,1,76,0
88753,-100,4,1,1,76,0
89102,-100,4,2,1,76,0
89451,-100,4,1,1,76,0
89800,-100,4,2,1,76,0
90148,-100,4,2,1,100,0
90497,-100,4,1,1,22,0
90846,-100,4,2,1,43,0
91195,-100,4,1,1,50,0
91544,-100,4,1,1,74,0
91893,-100,4,1,1,84,0
92242,-100,4,2,1,100,0
92590,-100,4,2,1,77,0
92939,-100,4,1,1,59,0
93201,-100,4,2,1,68,0
93724,-100,4,1,1,78,0
93986,-100,4,1,1,49,0
94335,-100,4,2,1,100,0
94683,-100,4,2,1,77,0
95032,-100,4,1,1,77,0
95381,-100,4,2,1,77,0
95730,-100,4,1,1,77,0
96428,-100,4,2,1,100,0
96689,-100,4,2,1,61,0
97125,-100,4,1,1,76,0
97474,-100,4,2,1,76,0
97823,-100,4,1,1,76,0
98085,-100,4,2,1,58,0
98259,-100,4,1,1,44,0
98521,-100,4,2,1,100,0
98869,-100,4,1,1,19,0
99218,-100,4,2,1,39,0
99567,-100,4,1,1,58,0
99916,-100,4,1,1,80,0
100265,-100,4,2,1,80,0
100614,-100,4,1,1,48,0
103055,-100,4,2,1,48,0
103404,-100,4,1,1,48,0
104451,-100,4,2,1,48,0
104800,-100,4,1,1,48,0
105497,-100,4,2,1,76,0
105846,-100,4,1,1,47,0
108288,-100,4,2,1,51,0
108637,-100,4,1,1,51,0
109160,-200,4,2,1,100,0
109335,-200,4,1,2,100,0
111253,-100,4,1,1,56,0
129567,-100,4,2,1,56,0
130614,-100,4,1,1,56,0
132096,-100,4,2,1,56,0
133928,-100,4,1,1,56,0
134451,-100,4,2,1,56,0
134887,-100,4,1,1,36,0
135148,-100,4,2,1,36,0
135497,-100,4,2,1,45,0
135846,-100,4,2,1,68,0
136195,-100,4,1,1,39,0
136544,-100,4,1,1,63,0
137678,-100,4,2,1,63,0
139073,-100,4,1,1,63,0
140032,-100,4,1,1,48,0
140381,-100,4,1,1,32,0
140730,-100,4,1,1,21,0
141079,-100,4,1,1,36,0
141428,-100,4,1,1,49,0
141776,-100,4,1,1,67,0
142125,-100,4,1,1,82,0
142474,-100,4,2,1,100,0
142823,-100,4,1,2,100,0
144218,-100,4,1,1,100,0
149625,-100,4,2,1,53,0
150497,-100,4,1,1,53,0
150846,-100,4,2,1,53,0
151195,-100,4,1,1,53,0
151544,-100,4,2,1,53,0
151893,-100,4,1,1,53,0
152242,-100,4,2,1,53,0
152590,-100,4,1,1,53,0
152939,-100,4,2,1,53,0
153986,-100,4,1,1,53,0
154335,-100,4,2,1,53,0
154683,-100,4,1,1,53,0
155032,-100,4,2,1,53,0
155381,-100,4,1,1,53,0
155730,-100,4,2,1,53,0
156079,-100,4,1,1,53,0
156428,-100,4,2,1,53,0
156951,-100,4,1,1,53,0
157212,-100,4,2,1,55,0
158085,-100,4,1,1,55,0
158521,-100,4,2,1,55,0
159654,-100,4,1,1,55,0
159916,-100,4,2,1,55,0
160962,-100,4,1,1,49,0
161311,-100,4,1,1,34,0
161835,-100,4,2,1,54,0
162707,-100,4,1,1,54,0
163055,-100,4,2,1,54,0
163404,-100,4,1,1,46,0
163753,-100,4,1,1,34,0
164102,-100,4,1,1,21,0
164800,-100,4,2,1,63,0
165497,-100,4,1,1,63,0
165933,-100,4,2,1,63,0
166631,-100,4,1,1,63,0
167154,-100,4,1,1,47,0
167329,-100,4,1,1,58,0
167590,-100,4,2,1,58,0
168288,-100,4,1,1,60,0
168986,-100,4,1,1,37,0
169509,-100,4,1,1,48,0
170207,-100,4,1,1,68,0
170904,-100,4,1,1,82,0
171428,-100,4,1,1,0,0
171776,-100,4,1,1,85,0
172300,-100,4,2,1,100,0
173521,-100,4,1,1,100,0
174044,-200,4,2,1,100,0
174302,-200,4,2,1,0,0
176137,-100,4,1,1,56,0
187823,-100,4,2,1,56,0
188172,-100,4,1,1,56,0
199771,-100,4,2,1,100,0
200032,-100,4,2,1,72,0
200381,-100,4,1,1,52,0
200730,-100,4,2,1,33,0
201340,-100,4,1,1,41,0
201689,-100,4,2,1,41,0
201864,-100,4,1,1,54,0
209451,-100,4,1,1,76,0
209794,-100,4,1,1,99,0
210148,-100,4,2,1,99,0
210497,-100,4,2,1,54,0
210846,-100,4,1,1,54,0
211195,-100,4,2,1,54,0
211544,-100,4,2,1,81,0
212242,-100,4,1,1,61,0
213026,-100,4,2,1,85,0
214247,-100,4,1,1,57,0
215032,-100,4,2,1,57,0
215381,-100,4,1,1,57,0
215730,-100,4,2,1,83,0
216428,-100,4,1,1,52,0
217125,-100,4,2,1,84,0
218521,-100,4,1,1,84,0
218869,-100,4,2,1,84,0
219916,-100,4,1,1,84,0
220265,-100,4,2,1,84,0
221311,-100,4,1,1,58,0
221835,-100,4,1,1,73,0
222532,-100,4,2,1,100,0
223143,-100,4,2,1,0,0

[Colours]
Combo1 : 196,136,255
Combo2 : 102,179,255
Combo3 : 255,128,255

[HitObjects]
264,56,22649,1,8
304,112,22997,1,2
264,168,23346,1,8
304,224,23695,1,8
264,280,24044,1,2
264,280,24218,1,2
264,280,24393,1,8
264,280,24742,5,8
224,224,25090,1,8
264,168,25439,1,2
224,112,25788,1,8
264,56,26137,1,2
264,56,26311,1,8
264,56,26486,1,2
264,56,26835,6,0,B|312:24|352:64,1,90,8|8
416,88,27532,2,0,B|464:128|416:168,1,90,2|8
352,184,28230,1,8
416,216,28579,1,8
352,256,28928,1,2
288,216,29276,2,0,B|248:256|208:216,1,90,2|8
208,144,29974,2,0,B|248:104|288:144,1,90,8|2
344,184,30672,1,2
416,184,31021,1,10
416,184,31195,1,2
384,248,31544,1,2
384,248,31718,1,8
336,296,32067,6,0,B|296:352|248:328,1,90,2|8
200,296,32765,1,8
152,344,33114,1,2
136,272,33462,1,8
72,248,33811,1,8
72,248,33986,1,2
128,200,34335,1,2
128,200,34509,5,8
192,160,34858,1,2
264,152,35207,1,8
328,184,35555,1,8
360,248,35904,1,2
352,320,36253,1,8
288,352,36602,1,2
216,336,36951,2,0,B|32:272|64:56|288:184|440:352|384:104|304:96,1,540,4|8
240,112,39393,5,8
168,128,39742,1,8
104,160,40090,1,2
48,208,40439,1,8
32,280,40788,1,8
160,240,41486,6,0,B|216:336|280:136|328:264,1,180,2|8
456,208,42881,5,2
424,144,43230,1,8
368,96,43579,1,8
304,64,43928,1,8
240,96,44276,1,2
96,96,44974,6,0,B|56:48|16:104,1,90,8|8
56,160,45672,1,2
16,224,46021,2,0,B|56:272|96:216,1,90,8|8
56,160,46718,1,8
56,160,47067,1,2
56,160,47416,2,0,B|120:240|176:80|224:160,1,180,4|0
176,208,48462,5,2
240,248,48811,1,8
288,192,49160,1,8
336,136,49509,1,8
400,176,49858,1,2
456,224,50207,1,8
472,296,50555,1,8
472,296,50730,1,2
472,296,50904,1,8
400,296,51253,6,0,B|360:344|312:280,1,90,2|8
368,240,51951,2,0,B|332:191|292:239,1,90,8|8
328,296,52648,2,0,B|288:344|240:280,1,90,2|8
200,240,53346,1,8
152,296,53695,2,8,B|88:296|48:256|32:216|40:176,1,180,8|8
48,112,54742,1,8
120,128,55090,1,2
120,128,55265,1,8
120,128,55439,1,8
136,56,55788,1,8
208,56,56137,6,0,B|288:-8|312:136|368:88,1,180,4|0
363,91,57009,1,2
416,136,57358,1,2
416,136,57532,2,0,B|472:184|352:288|384:352|176:304|192:248,1,360,0|4
144,208,59276,5,8
96,152,59625,1,0
72,120,59800,1,2
48,88,59974,1,8
0,32,60323,1,8
160,224,61021,6,0,B|112:256|160:304,1,90,8|8
216,264,61718,1,2
288,264,62067,1,8
360,264,62416,2,0,B|408:312|440:256,2,90,8|8|2
400,200,63462,1,8
400,200,63637,1,2
400,200,63811,1,8
328,200,64160,5,8
296,136,64509,1,2
336,80,64858,2,0,B|296:40|248:88,2,90,8|8|8
296,136,65904,1,2
328,200,66253,1,8
296,264,66602,1,8
296,264,66776,1,8
296,264,66951,1,8
256,192,67300,12,0,68695
256,312,69393,5,4
256,240,69742,1,8
256,168,70090,1,2
256,168,70265,1,2
256,168,70439,1,8
256,96,70788,1,8
256,96,70962,1,2
256,24,71311,1,2
256,24,71486,5,8
72,336,72183,1,8
432,336,72881,1,8
256,24,73579,6,0,B|304:80|200:136|264:200,1,180,8|8
72,272,74625,2,0,B|168:272,1,90,2|8
440,272,75323,2,0,B|344:272,1,90,2|8
72,176,76021,2,0,B|168:176,1,90,2|8
440,176,76718,2,0,B|344:176,1,90,2|8
256,32,77416,1,2
256,32,77765,5,8
432,344,78462,1,8
72,344,79160,1,8
168,248,79509,5,2
136,112,79858,1,8
8,152,80207,1,2
40,280,80555,1,8
168,248,80904,1,2
168,248,81253,6,0,B|240:184,1,90,8|2
392,48,81951,2,0,B|320:112,1,90,8|2
368,288,82648,2,0,B|272:296|368:152|272:160,2,180,8|8|8
232,288,84393,5,2
232,288,84567,1,2
232,288,84742,1,8
232,288,84916,1,2
96,288,85265,1,2
96,288,85439,1,8
168,176,85788,1,2
168,176,86137,5,4
488,16,86835,1,8
480,376,87532,1,8
416,256,87881,5,2
352,136,88230,1,8
232,208,88579,1,2
304,320,88928,1,8
416,256,89276,1,2
352,136,89625,1,8
232,208,89974,1,2
304,320,90323,6,0,B|104:176|504:160|272:32|240:48,1,360,4|8
128,112,92067,1,8
128,248,92416,1,8
128,112,92765,1,2
128,248,93114,1,8
128,248,93288,1,2
128,112,93637,1,2
128,112,93811,6,0,B|200:176,1,90,8|8
320,112,94509,2,0,B|248:176,1,90,8|2
224,304,95207,2,0,B|224:208,1,90,8|2
224,80,95904,2,0,B|224:176,2,90,8|8|8
224,80,96776,5,2
224,80,96951,1,2
360,80,97300,1,8
360,80,97648,1,2
288,192,97997,1,8
288,192,98172,1,2
288,192,98346,1,8
288,328,98695,6,0,B|112:376|-8:264|40:200|104:152,1,360,4|8
152,56,100439,1,2
208,176,100788,1,2
264,56,101137,1,8
320,176,101486,1,8
376,56,101835,1,8
376,56,102183,6,0,B|448:120,1,90,2|8
256,192,102881,1,8
136,328,103230,2,0,B|64:264,1,90,2|2
256,192,103928,1,8
136,56,104276,2,0,B|64:120,1,90,8|2
256,192,104974,1,2
376,328,105323,2,0,B|448:264,1,90,8|2
256,192,106021,1,8
256,192,106369,12,0,108114
144,120,108462,5,2
360,120,108811,1,8
256,312,109160,2,0,B|128:240|360:184|232:80,1,270,4|4
64,312,127997,6,0,B|136:304|176:240,1,135,8|0
175,242,128695,1,2
104,240,129044,1,8
32,240,129393,2,0,B|40:192|128:144,1,135,8|2
123,146,130090,1,8
184,104,130439,1,2
240,144,130788,2,0,B|288:176|328:240,1,135,8|8
330,243,131486,1,2
328,312,131835,1,8
328,312,132009,1,8
328,312,132183,5,2
80,56,132881,1,8
416,184,133579,1,2
72,288,134276,1,2
72,216,134625,1,2
72,216,134800,1,2
72,216,134974,1,8
72,144,135323,1,10
72,72,135672,1,8
136,112,136021,1,8
208,112,136369,6,0,B|272:80|312:104|344:120,1,135,4|8
336,116,137067,1,2
384,176,137416,1,8
384,176,137590,1,8
384,176,137765,2,0,B|416:232|384:312,1,135,2|2
386,306,138462,1,8
312,304,138811,1,2
312,304,138986,1,2
312,304,139160,2,0,B|216:320|176:296,1,135,8|8
179,297,139858,5,0
56,232,140207,1,2
88,104,140555,1,2
208,168,140904,1,2
176,296,141253,1,2
56,232,141602,1,2
88,104,141951,1,2
208,168,142300,1,2
176,296,142648,2,0,B|256:344|344:352|432:328|472:296|504:232|496:144|480:112|488:112,1,450,4|0
64,320,150323,5,2
112,264,150672,1,8
160,320,151021,1,2
208,264,151369,1,8
256,320,151718,1,2
304,264,152067,1,8
352,320,152416,1,2
400,264,152765,1,8
448,320,153114,1,2
448,64,153811,5,2
400,120,154160,1,8
352,64,154509,1,8
304,120,154858,1,8
256,64,155207,1,2
208,120,155555,1,8
160,64,155904,1,8
112,120,156253,1,8
64,64,156602,1,2
64,64,156776,1,2
16,120,157125,1,8
16,120,157300,6,0,B|-8:208|16:312,1,180,8|2
48,296,158172,1,8
80,296,158346,1,8
80,224,158695,2,0,B|176:192|264:224,1,180,8|2
256,256,159567,1,2
256,288,159742,1,8
328,288,160090,2,0,B|392:200|312:96,1,180,8|2
256,120,161137,1,2
328,120,161486,1,2
32,48,162183,6,0,B|112:104,1,90,8|2
104,168,162881,2,0,B|24:232,1,90,8|2
32,296,163579,2,0,B|112:352,2,90,2|2|2
448,320,164974,5,8
448,248,165323,2,0,B|488:208|448:168,1,90,2|8
408,168,165846,1,8
368,168,166021,1,2
296,168,166369,1,8
296,168,166544,1,2
296,168,166718,2,0,B|264:136|208:176,1,90,8|8
216,200,167242,1,8
216,232,167416,1,8
216,304,167765,1,8
216,304,167939,1,2
216,304,168114,2,0,B|168:344|128:296,1,90,2|8
80,264,168811,1,8
64,336,169160,5,2
352,96,169858,1,2
24,248,170555,1,2
24,248,171253,2,0,B|80:328|144:184|192:256,1,180,2|2
256,40,172648,5,8
152,320,173346,5,2
368,320,173695,1,8
256,128,174044,2,0,B|128:200|360:256|232:360,1,270,4|0
24,40,185207,5,4
256,312,185904,1,2
488,48,186602,1,2
256,312,187300,6,0,B|456:200|80:128|176:96|264:48,1,360,4|2
248,56,189044,1,8
248,56,189393,6,0,B|248:152,1,90,4|8
248,328,190090,2,0,B|248:232,1,90,2|8
128,200,190788,5,2
225,103,191137,1,8
312,200,191486,1,4
224,304,191835,1,8
128,200,192183,1,2
128,200,192358,1,8
225,103,192707,1,8
225,103,192881,1,2
385,103,193230,1,8
385,103,193404,1,8
385,103,193579,6,0,B|456:168,1,90,4|8
312,168,194276,1,2
176,176,194625,2,0,B|242:236,1,90,8|2
352,312,195323,1,8
472,248,195672,1,4
472,248,195846,1,8
472,248,196021,1,8
352,184,196369,1,2
472,120,196718,1,8
472,120,196893,1,8
472,120,197067,6,0,B|432:32|368:192|312:96,1,180,2|4
319,107,197939,1,8
319,107,198114,1,8
192,144,198462,1,2
264,256,198811,1,8
392,208,199160,1,2
392,208,199335,1,8
352,336,199683,1,8
352,336,199858,6,0,B|184:344|72:256|56:176,1,360,4|2
56,178,201428,5,8
56,178,201602,1,8
56,178,201776,1,2
56,178,201951,5,4
408,256,202649,1,2
56,320,203346,1,2
256,24,204044,5,4
56,320,204742,1,2
416,320,205439,1,2
416,320,205614,1,8
416,320,205788,1,8
416,320,206137,6,0,B|472:248|416:192,1,135,4|8
424,200,206835,1,2
280,192,207183,1,8
144,192,207532,2,0,B|104:280|144:328,1,135,2|8
138,320,208230,1,4
280,320,208579,1,8
280,320,208753,1,8
280,320,208928,1,2
280,184,209276,1,8
280,184,209625,5,2
184,88,209974,1,2
96,192,210323,2,0,B|184:296|328:72|440:192,1,360,4|8
429,181,212067,1,2
360,64,212416,1,4
360,64,212590,1,8
224,40,212939,1,8
224,40,213114,1,8
104,96,213462,1,2
32,208,213811,1,8
32,208,213986,1,2
32,208,214160,1,2
32,208,214335,1,8
32,208,214509,6,0,B|192:344|376:200,1,360,4|8
464,296,216253,1,2
400,176,216602,1,4
400,176,216776,1,8
400,176,216951,1,8
288,104,217300,1,8
288,104,217474,1,2
152,128,217823,1,2
152,128,217997,6,0,B|64:152,1,90,8|2
72,288,218695,1,8
176,200,219044,1,2
152,336,219393,2,0,B|248:328,1,90,8|2
344,248,220090,1,8
448,160,220439,1,2
328,88,220788,2,0,B|272:168,1,90,8|2
144,184,221486,5,2
480,320,222183,1,2
256,32,222881,2,0,B|416:152|112:184|280:264,1,270,4|4
251,247,224276,5,2
251,247,224451,5,0
251,247,224625,5,8
256,192,224974,12,0,227067
