osu file format v5

[General]
AudioFilename: Haruka Tomatsu-Musuhi no toki.mp3
AudioLeadIn: 0
PreviewTime: 69393
Countdown: 0
SampleSet: Soft
StackLeniency: 0.7
Mode: 0
LetterboxInBreaks: 1

[Metadata]
Title:Mushi no Toki
Artist:Haruka Tomatsu
Creator:Alace
Version:Easy
Source:Kannagi
Tags:anime mushi no toki tomatsu haruka kannagi nagi

[Difficulty]
HPDrainRate:3
CircleSize:3
OverallDifficulty:4
SliderMultiplier:1.4
SliderTickRate:2

[Events]
//Background and Video events
0,0,"Toki BG.jpg"
//Break Periods
//Storyboard Layer 0 (Background)
//Storyboard Layer 1 (Failing)
//Storyboard Layer 2 (Passing)
//Storyboard Layer 3 (Foreground)
//Storyboard Sound Samples
//Background Colour Transformations
3,100,0,0,0

[TimingPoints]
22649,697.674418604651,4,2,1,100,1
23521,-100,4,1,1,75,0
23869,-100,4,1,1,46,0
24353,-100,4,2,1,100,0
25614,-100,4,1,1,76,0
25962,-100,4,1,1,51,0
26486,-100,4,2,1,100,0
27358,-100,4,1,1,72,0
28055,-100,4,2,1,100,0
28753,-100,4,1,1,75,0
29451,-100,4,2,1,100,0
29800,-100,4,1,1,78,0
30148,-100,4,2,1,100,0
30497,-100,4,1,1,77,0
30846,-100,4,2,1,100,0
33637,-100,4,2,1,74,0
34160,-100,4,2,1,99,0
35066,-100,4,1,1,79,0
35730,-100,4,2,1,100,0
36079,-100,4,1,1,74,0
36776,-100,4,2,1,100,0
37125,-100,4,2,1,100,0
37474,-100,4,1,1,65,0
37823,-100,4,2,1,100,0
38172,-100,4,1,1,71,0
38521,-100,4,2,1,100,0
39567,-100,4,1,1,76,0
39916,-100,4,2,1,100,0
40265,-100,4,1,1,71,0
40614,-100,4,1,1,53,0
41660,-100,4,2,1,100,0
42009,-100,4,1,1,49,0
42532,-100,4,2,1,100,0
44102,-100,4,1,1,52,0
44625,-100,4,1,1,75,0
45148,-100,4,2,1,100,0
45846,-100,4,1,1,77,0
46544,-100,4,2,1,100,0
48637,-100,4,1,1,78,0
49335,-100,4,2,1,100,0
50381,-100,4,2,1,76,0
50730,-100,4,2,1,100,0
51428,-100,4,1,1,73,0
52125,-100,4,2,1,100,0
52823,-100,4,1,1,74,0
53521,-100,4,2,1,100,0
55788,-100,4,1,1,54,0
56311,-100,4,2,1,100,0
57009,-100,4,1,1,50,0
58404,-100,4,2,1,74,0
58753,-100,4,1,1,53,0
59276,-100,4,1,1,20,0
60672,-100,4,1,1,53,0
61183,-100,4,2,1,100,0
61893,-100,4,1,1,62,0
62242,-100,4,2,1,100,0
62939,-100,4,1,1,58,0
63986,-100,4,1,1,45,0
64335,-100,4,2,1,100,0
65032,-100,4,1,1,62,0
65381,-100,4,2,1,100,0
66079,-100,4,2,1,43,0
66428,-100,4,2,1,56,0
66776,-100,4,2,1,77,0
67300,-100,4,2,1,33,0
69044,-100,4,1,1,100,0
75846,-100,4,1,1,21,0
77416,-100,4,1,1,100,0
77939,-100,4,1,2,100,0
78288,-100,4,1,1,100,0
78637,-100,4,1,2,100,0
78986,-100,4,1,1,100,0
80078,-100,4,1,2,100,0
80381,-100,4,1,1,100,0
80730,-100,4,1,2,100,0
81079,-100,4,1,1,100,0
81428,-100,4,1,2,100,0
81776,-100,4,1,1,100,0
84393,-100,4,1,1,24,0
85788,-100,4,1,1,100,0
87009,-100,4,2,1,100,0
87358,-100,4,1,1,100,0
89102,-100,4,2,1,100,0
89451,-100,4,1,1,100,0
90497,-100,4,2,1,100,0
90846,-100,4,1,1,79,0
91195,-100,4,2,1,100,0
91544,-100,4,1,1,100,0
91893,-100,4,2,1,100,0
96776,-100,4,2,1,22,0
98346,-100,4,2,1,100,0
99218,-100,4,1,1,82,0
99567,-100,4,2,1,100,0
100962,-100,4,1,2,100,0
101660,-100,4,2,1,100,0
107242,-100,4,1,2,100,0
108288,-100,4,2,1,100,0
109160,-100,4,2,1,16,0

[Colours]
Combo1 : 196,136,255
Combo2 : 102,179,255
Combo3 : 255,128,255

[HitObjects]
104,320,22649,2,0,B|144:304|176:272|104:248|176:208,1,140,2|2
168,128,23695,1,8
168,40,24044,1,2
336,40,24742,6,0,B|376:56|408:88|336:112|408:152,1,140,2|2
400,232,25788,1,8
400,312,26137,1,2
232,312,26835,6,0,B|128:344|64:288|48:240,1,210,2|8
48,160,28230,2,0,B|48:120|96:80|136:64|144:64|184:48|216:48,1,210,2|8
280,96,29625,1,2
344,152,29974,1,8
408,208,30323,1,2
344,264,30672,1,8
280,320,31021,1,4
40,80,32067,6,0,B|112:48|184:80,1,140,2|2
176,160,33114,1,2
88,160,33462,1,2
176,160,33811,1,8
280,320,34509,6,0,B|392:312|448:248|456:216,1,210,2|8
456,136,35904,1,2
376,168,36253,1,8
312,112,36602,1,8
256,48,36951,2,0,B|192:56|176:64|136:96|104:104|80:128|48:160|32:208|32:256|40:280,1,350,2|4
208,296,39393,5,2
248,224,39742,1,8
288,296,40090,1,2
328,224,40439,1,8
368,296,40788,1,2
200,296,41486,5,8
160,224,41835,1,2
120,296,42183,1,2
112,128,42881,6,0,B|152:64|240:48|304:56,1,210,2|2
384,56,44276,1,2
384,224,44974,6,0,B|384:304,1,70,8|2
296,296,45672,2,0,B|296:224,1,70,2|8
208,224,46369,2,0,B|208:312,1,70,8|2
120,296,47067,2,0,B|120:224,1,70,2|4
328,88,48462,6,0,B|328:168,1,70,2|8
240,160,49160,2,0,B|240:88,1,70,8|2
152,88,49858,2,0,B|152:176,1,70,2|2
72,128,50555,1,8
64,296,51253,6,0,B|144:296,3,70,2|8|8|2
216,296,52648,1,2
272,232,52997,1,8
328,296,53346,1,8
384,232,53695,2,0,B|472:192|384:128,1,140,2|2
320,64,54742,1,2
256,120,55090,1,4
80,296,56137,6,0,B|368:296,2,280,4|2|4
256,192,59276,12,0,60323
256,192,61021,6,0,B|304:288|448:320|488:224|488:128|368:72,1,420,2|2
128,40,64160,6,0,B|8:80|-16:144|-8:232|0:272|56:312|136:336,1,420,2|8
136,248,66602,1,8
136,160,66951,1,4
256,192,67300,12,0,68695
256,200,69393,5,4
136,80,70090,1,8
16,200,70788,1,8
136,320,71486,1,2
304,320,72183,1,8
424,208,72881,1,8
304,88,73579,1,2
136,88,74276,1,8
16,200,74974,1,8
256,192,75672,12,0,77067
264,184,77765,6,0,B|160:288,2,140,2|8|8
392,72,79858,2,0,B|392:216,3,140,2|8|8|2
224,184,82648,1,8
56,184,83346,1,8
256,192,84044,12,0,85439
256,192,86137,5,2
88,192,86835,2,0,B|24:128|104:72,1,140,8|8
256,128,88230,1,2
424,128,88928,2,0,B|464:200|424:264,1,140,8|8
264,320,90323,2,0,B|128:272|232:160|72:128,1,280,2|8
16,80,92067,1,2
96,48,92416,1,4
432,64,93811,5,2
432,144,94160,1,2
432,224,94509,2,0,B|488:288|432:352,2,140,8|2|8
344,224,96253,1,2
256,192,96602,12,0,97997
128,192,98695,6,0,B|208:144|280:136|336:160|400:200,1,280,8|8
336,256,100439,1,2
248,256,100788,2,0,B|168:296|96:272|32:248,1,210,4|2
48,168,102183,5,8
128,168,102532,1,2
208,168,102881,2,0,B|280:208|352:160,3,140,2|8|2|8
336,312,105672,1,2
168,312,106369,1,8
40,200,107067,2,0,B|136:184|128:96|160:40|280:80,1,280,4|2
264,160,108811,1,2
256,192,109160,12,0,111253
