osu file format v5

[General]
AudioFilename: motto.mp3
AudioLeadIn: 0
PreviewTime: 16452
Countdown: 1
SampleSet: Normal
StackLeniency: 0.7
Mode: 0
LetterboxInBreaks: 1
EditorBookmarks: 8103

[Metadata]
Title:Motto hade ni ne!(TV Size)
Artist:Haruka Tomatsu
Creator:abalee
Version:Normal
Source:Kannagi
Tags:

[Difficulty]
HPDrainRate:6
CircleSize:4
OverallDifficulty:6
SliderMultiplier:1.4
SliderTickRate:2

[Events]
//Background and Video events
0,0,"kannagi.jpg"
1,0,"cvt_kannagiop.avi"
//Break Periods
//Storyboard Layer 0 (Background)
//Storyboard Layer 1 (Failing)
//Storyboard Layer 2 (Passing)
//Storyboard Layer 3 (Foreground)
//Storyboard Sound Samples
//Background Colour Transformations
3,100,163,162,255

[TimingPoints]
45,400,4,1,0,100,1
27345,-100,4,1,0,57,0
27345,-100,4,1,0,57,0
27745,-100,4,1,0,73,0
28145,400,4,1,0,88,0
28545,400,4,1,0,100,0
28945,400,4,1,0,100,0
35845,266.666666666667,4,1,0,80,1
36845,400,4,1,0,100,1
41845,-100,4,2,0,100,0
47745,400,4,1,0,100,0

[Colours]
Combo1 : 0,128,192
Combo2 : 0,255,128
Combo3 : 255,128,128
Combo4 : 128,0,255
Combo5 : 255,128,64

[HitObjects]
136,112,8845,1,0
136,248,9245,6,8,B|96:280|152:320,3,70
344,304,10445,6,0,B|416:304,1,70
416,232,10845,2,0,B|328:232,2,70
136,192,12045,5,8
424,152,12645,6,8,B|384:184|432:224,2,70
216,200,13645,6,0,B|184:160|144:208,1,70
112,256,14045,1,0
184,256,14245,1,0
256,256,14445,1,0
256,192,14845,12,0,15844
256,192,16445,5,4
48,224,17045,6,0,B|0:272|16:328|72:352,1,140
128,344,17645,1,8
200,344,17845,2,0,B|245:345|328:328|328:192,1,210,0|8
400,200,18645,2,0,B|400:72|264:72,1,210,0|8
256,216,19645,5,4
456,168,20245,5,8
456,240,20445,1,0
456,312,20645,2,0,B|400:344|368:336|344:240,1,140,0|8
384,208,21245,2,0,B|352:136|290:153|256:208,1,140
240,248,21845,2,0,B|160:248|184:328|96:328,1,140,8|0
72,280,22445,2,0,B|32:264|56:216,2,70,0|8|0
80,72,23445,6,0,B|104:112|160:72,2,70
216,56,24245,2,0,B|256:56|272:104,1,70
408,80,24845,1,8
480,200,25245,1,8
480,344,25645,1,8
336,336,26045,2,0,B|304:368|264:328,1,70
304,272,26445,1,0
232,272,26645,2,0,B|112:296|64:176,1,210
136,176,27445,1,8
272,176,27845,1,8
200,56,28245,1,8
336,56,28645,1,8
128,56,29245,1,2
32,96,29845,6,0,B|104:64|144:112|136:160,1,140,0|8
136,216,30445,2,0,B|64:184|24:232|40:288,1,140,0|8
144,352,31245,1,0
144,280,31445,2,0,B|288:280,1,140,0|8
352,280,32045,2,2,B|352:352,2,70
488,128,33045,5,0
488,56,33245,1,8
424,80,33445,2,0,B|424:184,1,70
352,136,33845,1,0
352,64,34045,1,8
288,88,34245,2,0,B|288:184,1,70
224,128,34645,2,8,B|200:56|152:56|128:152,1,140
80,152,35245,6,2,B|48:120|16:160,2,70,0|0|0
144,336,36045,6,2,B|256:336|288:240|256:152|144:160,1,315
96,288,37045,6,0,B|144:352,1,70,0|0
264,280,37645,1,8
264,280,37845,1,8
312,328,38045,1,0
440,280,38445,1,8
440,280,38645,1,8
488,328,38845,1,0
480,184,39245,2,0,B|504:104|464:32,2,140
408,184,40245,2,8,B|312:144,2,70
264,168,41045,6,0,B|232:248|134:252|112:160,1,210,0|4
248,96,42045,5,0
176,96,42245,1,0
104,96,42445,1,0
32,96,42645,1,0
32,168,42845,1,0
168,168,43245,1,0
240,168,43445,1,0
112,232,43845,1,0
184,232,44045,1,0
256,232,44245,1,0
328,232,44445,1,0
208,160,44845,1,2
344,160,45245,6,0,B|368:112|424:152,1,70
464,176,45645,2,0,B|488:232|440:248,1,70
248,288,46445,2,0,B|296:360|400:320,2,140
288,232,47445,1,2
344,104,47845,5,0
272,88,48045,1,0
200,88,48245,2,0,B|136:80|128:208|24:232,1,210,0|4
128,336,49245,2,0,B|256:368|344:328,1,210,0|4
440,240,50245,1,0
472,176,50445,1,0
440,112,50645,1,0
216,280,51445,5,0
288,280,51645,1,0
256,144,52045,1,4
256,192,52445,12,0,54045
280,328,54245,6,2,B|280:248,2,70
280,192,55045,1,4
352,192,55245,1,4
424,192,55445,5,0
424,56,55845,1,0
424,128,56045,1,0
352,128,56245,1,0
352,56,56445,2,8,B|288:32|256:88|200:56,1,140
56,200,57445,2,8,B|104:232|144:168|208:200,1,140
392,184,58645,6,0,B|456:184|496:224|472:288,1,140
408,272,59245,2,0,B|448:304|416:352,1,70
352,336,59645,1,8
216,336,60045,1,8
32,240,60645,1,8
32,104,61045,1,8
168,176,61845,6,0,B|224:168|248:208|304:168,1,140
360,128,62445,2,0,B|384:168|352:216,1,70
224,352,63245,5,0
168,312,63445,5,0
136,256,63645,5,8
112,192,63845,5,0
96,128,64045,5,0
80,64,64245,5,8
288,88,64845,6,0,B|312:48|368:64,1,70
352,128,65245,6,0,B|376:88|432:104,1,70,8|0
408,168,65645,6,0,B|432:128|488:144,1,70,0|8
464,336,66445,5,0
392,336,66645,1,0
320,336,66845,2,0,B|320:256,2,70,8|0|0
248,336,67445,1,8
176,336,67645,2,0,B|176:240,1,70,0|8
184,128,68245,6,0,B|240:168|280:104|344:136,1,140
288,192,68845,1,8
216,192,69045,1,8
256,192,69245,12,0,70645
312,192,71445,6,2,B|256:232|192:160|160:216,1,140
216,256,72045,1,8
288,256,72245,1,8
256,192,72445,12,0,73845
184,200,74645,6,2,B|232:184|288:232|328:200,1,140
288,144,75245,1,8
216,144,75445,1,8
424,144,76045,6,0,B|464:136|488:184,1,70,0|0
424,216,76445,1,8
488,232,76645,2,0,B|496:280|448:304,1,70
392,280,77045,1,8
256,288,77445,1,0
256,360,77645,2,0,B|192:352|184:296,1,70,0|8
192,264,78045,1,0
248,224,78245,2,0,B|216:184|168:200,1,70
128,232,78645,1,8
72,272,78845,2,0,B|16:240|8:200|80:152,1,140,0|0
128,138,79445,2,0,B|200:112|264:160|240:248|168:240,1,210,8|4
280,136,80445,6,0,B|336:112|368:152|432:136,1,140
424,208,81045,1,0
424,280,81245,2,0,B|400:328|360:312,2,70
288,312,82045,1,0
288,104,82645,1,0
160,160,83045,2,8,B|192:184|184:232,2,70,8|10|8
120,216,83645,1,0
328,216,84245,1,0
464,216,84645,2,8,B|488:160|424:144,2,70,8|10|8
392,216,85245,2,0,B|344:192|304:256|248:200,1,140,0|4
64,120,86245,1,2
64,256,86645,1,2
256,56,87445,5,0
256,192,87845,1,0
256,120,88045,2,0,B|256:288,1,140,0|0
