osu file format v5

[General]
AudioFilename: Koi no Uta.mp3
AudioLeadIn: 0
PreviewTime: -1
Countdown: 0
SampleSet: Soft
StackLeniency: 0.7
Mode: 0
LetterboxInBreaks: 1
EditorBookmarks: 71962,100481,106036,124740,126407,193259
EditorDistanceSpacing: 0.800000011920929

[Metadata]
Title:Koi no Uta
Artist:Haruka Tomatsu
Creator:Mystearica
Version:Hard
Source:
Tags:Anime J-Pop

[Difficulty]
HPDrainRate:6
CircleSize:5
OverallDifficulty:7
SliderMultiplier:1.4
SliderTickRate:0.5

[Events]
//Background and Video events
0,0,"poly-bg.jpg"
//Break Periods
2,100485,106051
2,124559,125901
//Storyboard Layer 0 (Background)
//Storyboard Layer 1 (Fail)
//Storyboard Layer 2 (Pass)
//Storyboard Layer 3 (Foreground)
//Storyboard Sound Samples
//Background Colour Transformations
3,100,192,192,192

[TimingPoints]
285,370.37037037037,3,2,0,0,1,0
9185,-100,3,2,0,80,0,0
16777,-100,4,2,0,30,0,0
17147,-100,3,2,0,47,0,0
17610,-100,3,2,0,80,0,0
19081,-100,3,2,0,50,0,0
19266,-100,3,2,0,60,0,0
19451,-100,3,2,0,70,0,0
19729,-100,3,2,0,80,0,0
21313,-100,3,2,0,0,0,0
22239,-100,3,2,0,80,0,0
22333,-100,3,2,0,43,0,0
22425,-100,3,2,0,80,0,0
26035,-100,3,2,0,50,0,0
26776,-100,3,2,0,40,0,0
27146,-100,3,2,0,54,0,0
27702,-100,3,2,0,70,0,0
28628,-100,3,2,0,80,0,0
32794,-100,3,2,0,60,0,0
33350,-100,3,2,0,80,0,0
36869,-100,3,2,0,50,0,0
37887,-100,3,2,0,80,0,0
39461,-100,3,2,0,60,0,0
40017,-100,3,2,0,80,0,0
41683,-100,3,2,0,60,0,0
42239,-100,3,2,0,80,0,0
45943,-100,3,2,0,50,0,0
47054,-100,3,2,0,80,0,0
63535,-100,3,2,0,40,0,0
63720,-100,3,2,0,80,0,0
67239,-100,3,2,0,20,0,0
67609,-100,3,2,0,40,0,0
67980,-100,3,2,0,60,0,0
68350,-100,3,2,0,80,0,0
68720,-100,3,2,0,60,0,0
68906,-100,3,2,0,80,0,0
72794,-100,3,2,0,50,0,0
73720,-100,3,2,0,80,0,0
94636,-100,3,2,0,50,0,0
95655,-100,3,2,0,80,0,0
98628,-100,3,2,0,50,0,0
98710,-100,3,2,0,70,0,0
98988,-100,3,2,0,60,0,0
99544,-100,3,2,0,50,0,0
100099,-100,3,2,0,40,0,0
100480,-100,3,2,0,80,0,0
114276,-100,3,2,0,60,0,0
114924,-100,3,2,0,80,0,0
139276,-100,3,2,0,60,0,0
140387,-100,3,2,0,80,0,0
152609,-100,3,2,0,50,0,0
153720,-100,3,2,0,80,0,0
162424,-100,3,2,0,40,0,0
162609,-100,3,2,0,80,0,0
165017,-100,3,2,0,0,0,0
166869,-100,3,2,0,50,0,0
167054,-100,3,2,0,80,0,0
169461,-100,3,2,0,50,0,0
171128,-100,3,2,0,80,0,0
174646,-100,3,2,0,50,0,0
175202,-100,3,2,0,80,0,0
179091,-100,3,2,0,50,0,0
179276,-100,3,2,0,80,0,0
191220,-100,3,2,0,60,0,0
193072,-100,3,2,0,80,0,0
199832,-100,3,2,0,60,0,0
200387,-100,3,2,0,80,0,0
202054,-100,3,2,0,30,0,0
202239,-100,3,2,0,40,0,0
202424,-100,3,2,0,50,0,0
202609,-100,3,2,0,60,0,0
202794,-100,3,2,0,80,0,0
203165,-100,3,2,0,50,0,0
203720,-100,3,2,0,80,0,0
205665,-100,3,2,0,60,0,0
206313,-100,3,2,0,80,0,0
211683,-100,3,2,0,40,0,0

[Colours]
Combo1 : 235,103,202
Combo2 : 26,198,30
Combo3 : 74,163,234
Combo4 : 240,34,11
Combo5 : 242,151,13

[HitObjects]
256,192,4729,12,0,8062
160,80,9173,6,0,B|112:153|256:192|226:283|160:344,1,280
170,333,10284,1,0
246,328,10470,2,0,B|332:331|387:300,1,140
416,240,11025,1,0
371,148,11396,1,0
280,96,11766,1,0
175,131,12136,1,0
269,176,12507,2,0,B|228:214|315:260|251:331,2,140
216,120,13433,5,0
216,120,13618,2,0,B|280:176|360:136,1,140
346,142,14359,1,0
405,238,14729,1,0
324,321,15099,1,0
205,292,15470,1,0
187,185,15840,1,0
278,130,16210,1,0
385,190,16581,1,0
317,264,16951,1,2
256,192,17322,5,2
256,192,17414,1,2
256,192,17507,1,2
256,192,17692,1,2
112,304,18062,6,0,B|56:168|160:40,1,280
336,256,19173,1,2
256,128,19359,1,2
192,256,19544,1,2
160,96,19914,5,0
352,288,20285,1,0
352,96,20655,1,0
160,288,21025,1,0
256,192,21396,12,0,22137
104,72,22507,6,0,B|128:168|232:96|240:216|320:152|336:240,1,280
329,220,23618,1,0
232,278,23988,1,0
141,220,24359,1,0
154,117,24729,1,0
254,90,25099,1,0
342,138,25470,1,0
256,192,25840,1,0
256,191,26210,6,4,B|224:199|216:287|144:279,1,140
96,192,26951,5,0
192,192,27322,1,2
256,192,27507,1,2
352,192,27877,1,0
352,192,28062,1,2
416,192,28247,1,2
416,192,28433,1,0
288,192,28803,1,6
256,72,29173,6,0,B|192:200|256:352,1,280
252,343,30284,1,0
252,343,30655,1,0
256,232,31025,5,0
328,144,31396,1,0
256,56,31766,1,0
184,144,32136,1,0
256,56,32507,1,0
256,160,32877,5,2
256,184,32970,1,0
256,208,33062,1,0
256,232,33155,1,0
256,256,33247,1,2
400,56,33618,6,0,B|416:96|311:201|408:328,1,280
403,322,34729,1,0
288,320,35099,1,0
192,288,35470,1,0
96,224,35840,1,0
64,128,36210,1,0
96,32,36581,1,0
256,192,36951,12,4,37692
136,304,38062,6,0,B|72:176|192:99|128:0,1,280
142,31,39173,1,0
200,128,39544,1,2
216,152,39636,1,0
232,176,39729,1,0
248,200,39822,1,0
264,224,39914,1,2
282,62,40284,6,0,B|290:94|357:119,1,70
378,149,40655,1,0
426,189,40840,2,0,B|460:214|415:268,1,70
371,279,41210,1,0
371,279,41396,1,0
256,192,41766,5,2
256,192,41859,1,0
256,192,41951,1,0
256,192,42044,1,0
256,192,42136,1,2
112,80,42507,6,0,B|160:128|192:40|248:72,1,140
240,68,43247,1,0
312,152,43618,1,0
200,152,43988,1,0
264,240,44359,1,0
376,232,44729,1,0
312,320,45099,2,0,B|384:336|448:288,1,140
444,290,45840,1,0
256,192,46025,12,4,46951
48,304,47322,6,0,B|136:336|200:304,1,140,0|0
184,310,48062,1,0
184,310,48433,1,0
192,200,48803,1,0
296,248,49173,1,0
288,136,49544,1,0
176,88,49914,2,2,B|232:32|256:152|304:136,1,140
344,268,50655,5,2
316,261,50747,1,0
289,252,50840,1,0
263,239,50933,1,0
239,224,51025,1,2
160,144,51396,5,0
256,192,51766,1,0
352,248,52136,1,0
256,312,52507,1,2
160,256,52877,1,0
256,192,53247,1,0
352,136,53618,1,0
256,192,53988,1,2
160,256,54359,1,0
256,312,54729,1,2
256,192,55099,5,2
256,192,55192,1,0
256,192,55284,1,0
256,192,55470,1,2
360,80,55840,2,0,B|360:160,2,70
256,48,56581,5,0
152,96,56951,1,0
64,160,57322,1,0
48,272,57692,1,0
128,344,58062,1,0
240,352,58433,1,0
336,296,58803,1,0
256,208,59173,1,0
256,208,59544,5,2
256,208,59636,1,0
256,208,59729,1,0
256,208,59914,1,2
400,304,60284,6,0,B|320:352|240:312|264:320,1,140
265,321,61025,1,0
264,208,61396,1,0
264,96,61766,1,0
152,96,62136,1,0
152,208,62507,1,0
152,208,62877,2,0,B|224:136|144:88,1,140
150,92,63618,1,4
152,200,63988,5,0
176,200,64081,1,0
200,200,64173,1,0
224,200,64266,1,0
248,200,64359,1,0
48,38,64729,5,0
106,317,65099,1,0
184,40,65470,1,0
240,320,65840,1,0
320,40,66210,1,0
390,316,66581,1,0
456,40,66951,1,0
230,103,67322,6,2,B|287:104,2,35
266,169,67692,6,2,B|222:166,2,35
233,228,68062,6,2,B|290:229,2,35
269,294,68433,6,2,B|225:291,2,35
256,192,68803,5,4
136,80,69173,5,0
136,80,69266,1,0
136,80,69359,1,0
136,80,69544,1,2
369,81,69914,5,0
369,81,70007,1,0
369,81,70099,1,0
369,81,70285,1,2
370,296,70655,5,0
370,296,70747,1,0
370,296,70840,1,0
370,296,71025,1,2
136,300,71396,5,0
136,300,71488,1,0
136,300,71581,1,0
136,300,71766,1,2
255,203,72136,5,0
256,176,72229,1,0
256,144,72322,1,0
256,112,72414,1,0
256,80,72507,1,0
368,80,72877,5,2
368,152,73062,1,2
368,224,73247,1,2
312,280,73433,1,2
240,272,73618,1,4
240,272,73988,6,0,B|136:228|153:146,1,140
40,96,74729,1,0
40,96,75099,1,0
40,96,75470,5,0
128,320,75840,1,0
192,96,76210,1,0
280,312,76581,1,0
328,96,76951,1,0
440,96,77322,2,0,B|440:192,2,70
440,166,78062,5,0
440,280,78433,1,0
440,280,78803,1,0
328,280,79173,1,0
328,280,79544,1,0
328,168,79914,2,0,B|280:256|192:184,2,140
328,168,81025,1,0
216,168,81396,1,0
68,272,81766,2,2,B|117:311|168:252|223:274,1,140
202,269,82507,5,0
202,269,82692,1,0
204,272,82877,2,0,B|169:206|240:179|204:107,2,140
312,272,83988,1,0
312,272,84359,1,0
312,160,84729,1,0
424,160,85099,1,0
312,160,85470,1,0
312,48,85840,1,2
312,48,86025,1,0
312,48,86210,1,2
216,104,86581,1,4
88,72,86951,6,0,B|49:114|129:151|88:216,2,140,0|0|0
88,72,88062,1,0
88,72,88433,1,0
200,72,88803,1,0
200,184,89173,1,0
312,184,89544,1,0
312,72,89914,1,0
424,72,90285,1,0
312,72,90655,1,0
312,72,91025,1,4
424,72,91396,6,2,B|457:123|320:208|505:255|415:341,1,280
417,338,92507,1,0
312,296,92877,1,0
312,296,93062,1,0
312,296,93247,1,0
368,200,93618,1,0
256,192,93988,5,0
256,192,94081,1,0
256,192,94173,1,0
256,192,94359,1,0
68,216,94729,2,4,B|132:153|145:241|204:189|247:241|275:140|361:193,1,280
416,120,95840,6,0,B|336:80|248:72,1,140
224,72,96396,1,0
168,80,96581,2,0,B|96:88|32:128,1,140
32,176,97136,1,0
32,232,97322,2,0,B|120:256|200:240,1,140
224,240,97877,1,0
280,240,98062,2,0,B|368:240|424:200,1,140
416,96,98803,5,2
368,192,99173,1,2
368,192,99359,1,2
288,272,99729,1,2
288,272,99914,1,2
176,304,100285,1,6
88,72,106951,6,0,B|17:129|110:141|91:193|184:200|3:256|80:344,1,280
67,323,108062,5,0
109,219,108433,1,0
200,154,108803,1,0
311,145,109173,1,0
391,222,109544,1,0
339,321,109914,1,0
239,270,110284,1,0
147,205,110655,1,0
144,96,111025,1,0
144,96,111210,1,0
144,96,111396,6,0,B|200:72|248:128|296:96,2,140
240,40,112507,1,0
240,40,112877,1,0
336,96,113247,1,0
408,184,113618,1,0
344,272,113988,1,0
240,304,114359,2,2,B|168:328|80:304,1,140
111,197,115099,5,2
139,198,115192,1,0
166,198,115284,1,0
194,198,115377,1,0
222,198,115470,1,2
326,156,115840,6,0,B|301:199|356:249|326:300,2,140
323,44,116951,1,0
435,44,117322,1,0
323,44,117692,1,0
435,44,118062,1,0
435,156,118433,1,0
435,44,118803,1,0
312,56,119173,6,2,B|272:100|343:127|287:199,1,140
294,188,119914,1,0
294,188,120007,1,0
294,188,120099,1,0
294,188,120284,1,2
316,298,120655,6,0,B|380:234|452:234,2,140
365,197,121766,1,0
341,87,122136,1,0
236,46,122507,1,0
142,107,122877,1,0
94,207,123247,1,0
136,310,123618,1,0
308,160,123988,5,2
287,179,124081,1,0
265,196,124173,1,0
245,215,124266,1,0
224,233,124359,1,2
256,64,126951,6,0,B|360:160|248:320,2,280
256,64,128803,5,0
168,136,129173,1,0
112,232,129544,1,0
176,328,129914,1,0
280,288,130284,1,0
256,176,130655,1,0
256,176,131025,5,2
256,176,131118,1,0
256,176,131210,1,0
256,120,131396,2,2,B|416:120,2,140
344,184,132507,5,0
344,184,132877,1,0
344,296,133247,1,0
344,296,133618,1,0
256,48,133988,5,0
128,320,134359,1,0
400,320,134729,1,0
64,144,135099,1,0
440,144,135470,1,0
440,144,135840,6,0,B|384:232|336:136|272:72|192:128,1,280,0|0
194,126,136951,1,0
192,232,137322,1,0
80,232,137692,1,0
192,232,138062,1,0
192,344,138433,1,0
192,232,138803,2,2,B|280:256|360:240,1,140
256,192,139266,12,4,140285
128,80,140655,5,0
128,80,140840,1,0
128,80,141025,2,0,B|88:168|136:240,1,140
122,215,141766,1,0
184,304,142136,1,0
288,336,142507,1,0
376,264,142877,1,0
440,168,143247,1,0
329,167,143618,1,0
219,188,143988,5,2
202,165,144081,1,0
186,142,144173,1,0
170,118,144266,1,0
153,95,144359,1,2
89,304,144729,6,4,C|143:245|85:200|144:158|95:102,1,280
115,121,145840,1,0
224,120,146210,1,0
336,120,146581,1,0
224,120,146951,1,0
112,120,147322,1,0
224,120,147692,1,0
336,120,148062,1,0
416,192,148433,5,2
384,192,148525,1,0
352,192,148618,1,0
320,192,148710,1,0
288,192,148803,1,2
80,192,149173,5,0
80,192,149359,1,0
80,192,149544,2,0,B|152:112|216:216,1,140
197,190,150285,1,0
197,190,150655,1,0
193,80,151025,1,0
304,80,151396,1,0
304,192,151766,1,0
248,280,152136,1,2
248,280,152229,1,0
248,280,152322,1,0
248,280,152507,1,2
256,192,152692,12,4,153618
336,80,153988,6,2,B|299:123|242:87|200:144,2,140
336,80,155099,1,2
336,192,155470,1,0
336,192,155840,2,0,B|336:272,2,70
224,192,156581,1,0
112,193,156951,1,0
224,190,157322,1,2
48,72,157692,6,2,B|98:40|142:106|192:72,2,140
112,160,158803,1,0
112,272,159173,1,0
112,160,159544,1,0
224,160,159914,1,0
224,280,160284,1,0
112,272,160655,1,2
224,280,161025,2,2,B|136:264|144:176,1,140
144,192,161766,5,0
168,192,161859,1,0
192,192,161951,1,0
216,192,162044,1,0
240,192,162136,1,0
365,195,162507,1,4
128,104,162877,6,0,B|127:148,2,35
128,199,163247,1,2
257,203,163618,6,0,B|256:247,2,35
256,296,163988,1,2
367,171,164359,6,0,B|366:215,2,35
365,110,164729,1,2
256,192,165099,12,0,166581
256,192,166951,5,4
368,232,167322,5,0
368,204,167414,1,0
368,175,167507,1,0
368,147,167599,1,0
366,118,167692,1,0
256,192,168062,5,2
256,192,168247,1,2
256,192,168433,1,2
248,128,168803,6,0,B|206:170|314:199|203:236|271:275,1,140
256,192,169544,12,4,171026
144,72,171396,6,0,B|196:100|81:154|144:216,1,140
130,197,172136,1,0
242,198,172507,1,0
353,201,172877,1,0
241,196,173247,1,0
128,200,173618,1,0
241,196,173988,1,0
241,308,174359,1,2
271,200,174729,2,6,B|183:200,2,70
256,48,175470,5,0
80,192,175840,1,0
256,192,176210,1,0
416,192,176581,1,0
256,336,176951,1,0
256,192,177322,1,0
256,48,177692,1,0
256,192,178062,1,0
256,192,178433,1,0
416,192,178803,5,2
416,192,178896,1,0
416,192,178988,1,0
416,192,179173,1,6
132,96,179544,6,0,B|186:67|231:141|289:80,2,140,0|0|0
268,96,180655,1,0
268,96,180840,1,0
268,96,181025,2,0,B|270:179|360:128|328:224,1,140
332,206,181766,1,0
332,206,182136,1,0
216,208,182507,1,0
216,208,182877,1,0
272,96,183247,1,0
272,96,183618,1,2
104,80,183988,5,0
104,104,184081,1,0
104,128,184173,1,0
104,192,184359,5,0
104,216,184451,1,0
104,240,184544,1,0
104,240,184729,6,0,B|154:210|200:276|272:228,2,140
240,242,185840,1,0
240,128,186210,1,0
352,128,186581,1,0
352,240,186951,1,0
240,240,187322,1,0
240,240,187692,2,2,B|176:152|264:104,1,140
80,296,188433,5,2
80,264,188525,1,0
80,232,188618,1,0
80,200,188710,1,0
80,168,188803,1,2
256,120,189173,5,2
328,240,189359,1,2
184,240,189544,1,2
256,192,189914,5,2
256,192,190284,12,0,191024
360,112,191396,6,4,B|272:64|176:64|192:168|288:208|352:232|384:288|336:344|232:352|152:320|136:224,1,560
168,184,193618,6,0,C|168:232|168:224,2,35,0|0|0
224,184,193988,2,0,C|224:232|224:224,2,35
280,184,194359,2,0,C|280:232|280:224,2,35
336,184,194729,2,0,C|336:232|336:224,2,35
392,184,195099,2,0,C|392:232|392:224,2,35,0|0|0
392,184,195470,5,2
336,184,195655,1,2
280,184,195840,1,2
224,184,196025,1,2
168,184,196210,1,2
256,64,196581,5,0
256,160,196951,1,0
256,160,197136,1,0
256,256,197507,1,0
256,256,197599,1,0
256,256,197692,1,0
256,256,197877,2,0,B|208:248|200:192,1,70
66,135,198433,6,0,B|128:101|204:113,1,140
201,112,198988,1,0
201,112,199081,1,0
201,112,199173,1,0
202,191,199359,1,0
201,112,199544,1,0
280,65,199914,6,4,B|363:69|418:150,1,140
425,241,200655,1,0
425,241,200840,2,0,B|403:317|312:338,1,140
253,337,201396,1,0
180,329,201581,2,0,B|88:289|61:208,1,140
64,158,202136,1,2
104,85,202322,1,2
176,45,202507,1,2
256,38,202692,1,2
334,69,202877,1,2
385,173,203247,6,4,B|373:249|479:279,1,140
462,273,203988,1,0
342,340,204359,1,0
211,281,204729,1,0
91,342,205099,1,0
211,281,205470,1,0
341,338,205840,2,4,B|413:294|413:206,1,140
359,124,206581,6,0,B|293:87|188:88|75:136,1,280
164,212,207692,1,0
77,283,208062,2,0,B|162:312|233:314|299:299|357:280,1,280
341,170,209173,1,0
264,87,209544,1,0
166,141,209914,1,0
235,228,210284,1,0
334,176,210655,1,0
272,82,211025,1,0
172,133,211396,1,0
256,192,211766,12,4,212507
