osu file format v5

[General]
AudioFilename: Kioku no Keshiki.mp3
AudioLeadIn: 0
PreviewTime: -1
Countdown: 0
SampleSet: Soft
StackLeniency: 0.7
Mode: 0
LetterboxInBreaks: 1

[Editor]
Bookmarks: 74798,176022
DistanceSpacing: 0.800000011920929
BeatDivisor: 4
GridSize: 16

[Metadata]
Title:Kioku no Keshiki
Artist:Haruka Tomatsu
Creator:Mystearica
Version:Special
Source:
Tags:J-Pop

[Difficulty]
HPDrainRate:7
CircleSize:5
OverallDifficulty:7
SliderMultiplier:1.5
SliderTickRate:0.5

[Events]
//Background and Video events
0,0,"memories.jpg"
//Break Periods
2,73563,78246
//Storyboard Layer 0 (Background)
//Storyboard Layer 1 (Fail)
//Storyboard Layer 2 (Pass)
//Storyboard Layer 3 (Foreground)
//Storyboard Sound Samples
//Background Colour Transformations
3,100,208,208,208

[TimingPoints]
11905,722.89156626506,4,2,0,100,1,0
18591,-100,4,2,0,70,0,0
19314,-100,4,2,0,100,0,0
20398,-100,4,2,0,80,0,0
21483,-100,4,2,0,100,0,0
22567,-100,4,2,0,60,0,0
22929,-100,4,2,0,100,0,0
25097,-100,4,2,0,70,0,0
25820,-100,4,2,0,50,0,0
26182,-100,4,2,0,100,0,0
27266,-100,4,2,0,80,0,0
28712,-100,4,2,0,100,0,0
31242,-100,4,2,0,80,0,0
31603,-100,4,2,0,80,0,0
33772,-100,4,2,0,60,0,0
34133,-100,4,2,0,70,0,0
34314,-100,4,2,0,80,0,0
34676,-100,4,2,0,90,0,0
34856,-100,4,2,0,100,0,0
39917,-100,4,2,0,80,0,0
41001,-100,4,2,0,100,0,0
45338,-100,4,2,0,70,0,0
45700,-100,4,2,0,80,0,0
46061,-100,4,2,0,90,0,0
46423,-100,4,1,0,50,0,0
46784,-100,4,1,0,50,0,1
50760,-100,4,2,0,80,0,1
51121,-100,4,1,0,50,0,1
51483,-100,4,2,0,80,0,1
51844,-100,4,1,0,50,0,0
52206,-100,4,1,0,50,0,1
61242,-100,4,1,0,35,0,1
61603,-100,4,1,0,35,0,1
61965,-100,4,1,0,40,0,1
62326,-100,4,1,0,44,0,1
63049,-100,4,1,0,55,0,1
63411,-100,4,1,0,60,0,1
63772,-100,4,1,0,50,0,1
73531,-100,4,2,0,100,0,0
83290,-100,4,2,0,70,0,0
84013,-100,4,2,0,100,0,0
90158,-100,4,2,0,74,0,0
90700,-100,4,2,0,100,0,0
91603,-100,4,2,0,60,0,0
92326,-100,4,2,0,70,0,0
93049,-100,4,2,0,80,0,0
96664,-100,4,2,0,60,0,0
97386,-100,4,2,0,100,0,0
98832,-100,4,2,0,80,0,0
99194,-100,4,2,0,100,0,0
99555,-100,4,2,0,80,0,0
99917,-100,4,2,0,100,0,0
100278,-100,4,2,0,50,0,0
100820,-100,4,2,0,60,0,0
101001,-100,4,2,0,70,0,0
101182,-100,4,2,0,60,0,0
101362,-100,4,2,0,100,0,0
105338,-100,4,2,0,80,0,0
106061,-100,4,2,0,100,0,0
107145,-100,4,2,0,80,0,0
108230,-100,4,2,0,100,0,0
109676,-100,4,2,0,70,0,0
110037,-100,4,2,0,100,0,0
110398,-100,4,2,0,70,0,0
110760,-100,4,2,0,100,0,0
111844,-100,4,2,0,70,0,0
112929,-100,4,2,0,70,0,0
116182,-100,4,2,0,100,0,0
119073,-100,4,2,0,70,0,0
119615,-100,4,2,0,80,0,0
120880,-100,4,2,0,100,0,0
121242,-100,4,2,0,70,0,0
121603,-100,4,2,0,100,0,0
121965,-100,4,2,0,70,0,0
122326,-100,4,2,0,100,0,0
122688,-100,4,2,0,70,0,0
123411,-100,4,1,0,0,0,0
124856,-100,4,1,0,50,0,1
128109,-100,4,1,0,35,0,1
128471,-100,4,1,0,50,0,1
128832,-100,4,1,0,35,0,1
129194,-100,4,1,0,50,0,1
129555,-100,4,1,0,35,0,1
129917,-100,4,1,0,50,0,1
134977,-100,4,1,0,25,0,1
135338,-100,4,1,0,30,0,1
135519,-100,4,1,0,35,0,1
135700,-100,4,1,0,40,0,1
135880,-100,4,1,0,44,0,1
136061,-100,4,1,0,50,0,1
147989,-100,4,1,0,25,0,1
148350,-100,4,1,0,30,0,1
148531,-100,4,1,0,35,0,1
148712,-100,4,1,0,40,0,1
148892,-100,4,1,0,45,0,1
149073,-100,4,1,0,50,0,1
153772,-100,4,1,0,50,0,0
173832,-100,4,1,0,44,0,0
174013,-100,4,1,0,40,0,0
174194,-100,4,1,0,35,0,0
174374,-100,4,1,0,30,0,0
174555,-100,4,1,0,25,0,0
174736,-100,4,1,0,50,0,0

[Colours]
Combo1 : 248,156,248
Combo2 : 22,214,80
Combo3 : 140,163,240
Combo4 : 234,142,142
Combo5 : 248,199,124

[HitObjects]
64,64,12627,1,0
160,64,12989,1,0
256,64,13350,1,0
256,64,13712,2,0,B|242:111|354:180,1,150
288,256,14796,1,0
288,352,15158,6,0,B|336:355|374:337|423:264,1,150,0|0
416,192,16242,1,0
416,192,16603,1,0
352,128,16965,1,0
352,128,17326,1,0
186,134,17688,6,0,B|186:234|306:246,1,150
371,247,18772,1,2
371,247,18953,1,2
371,247,19133,1,2
304,178,19495,1,0
232,107,19856,2,0,B|236:154|299:164,1,75,0|0
64,96,20579,6,2,B|101:107|146:93,2,75
64,192,21664,1,0
64,288,22025,1,0
64,288,22206,1,0
64,288,22386,1,0
160,224,22748,1,4
448,64,23471,5,0
448,160,23832,1,0
448,256,24194,2,0,B|352:288|288:256,1,150
224,192,25278,1,2
224,192,25459,1,2
224,192,25639,1,2
224,192,26001,1,4
96,256,26362,6,0,B|64:160|96:96,1,150
160,160,27447,1,2
160,160,27627,1,2
224,96,27989,1,0
288,160,28350,1,2
288,160,28531,1,2
288,256,28892,2,0,B|384:288|448:256,1,150
384,160,29977,2,0,B|288:128|224:160,1,150
288,224,31061,1,0
288,224,31423,1,0
288,128,31784,6,0,B|288:192,4,37.5
224,64,32868,2,0,B|128:96|96:192,1,150
96,256,33953,1,2
96,256,34133,1,2
154,339,34495,1,2
154,339,34676,1,2
32,240,35037,5,0
32,144,35398,1,2
128,288,35760,1,0
128,96,36121,1,2
224,336,36483,1,0
224,48,36844,1,2
336,288,37206,1,0
336,96,37567,1,2
416,192,37929,1,0
144,160,38290,5,0
144,160,38471,1,0
144,160,38651,1,0
144,256,39013,2,0,B|228:245|308:206,1,150
287,215,40097,1,2
287,215,40278,1,2
288,128,40639,1,2
288,128,40820,1,2
48,112,41182,6,0,B|160:96|224:128,1,150
199,198,42266,1,0
200,277,42627,1,2
287,279,42989,2,0,B|366:298|452:272,1,150
436,196,44073,1,0
381,129,44435,2,0,B|305:89|215:104,1,150
153,111,45519,1,2
83,155,45880,1,2
33,221,46242,1,2
83,155,46603,1,4
385,310,46965,5,0
385,310,47145,1,0
385,310,47326,2,0,B|286:324|224:304,1,150
160,287,48411,1,0
160,287,48591,1,0
98,240,48953,1,0
49,175,49314,1,0
49,175,49495,1,0
49,175,49856,2,0,B|50:117,2,37.5
192,32,50579,5,0
320,32,50941,1,2
256,128,51302,1,0
256,128,51664,1,2
320,224,52025,1,0
192,224,52386,1,4
96,96,52748,5,0
96,96,52929,1,0
96,192,53290,1,0
96,192,53471,1,0
96,288,53832,1,0
192,288,54194,1,0
288,288,54555,1,0
288,288,54736,2,0,B|384:288|416:256,1,112.5
128,128,55639,6,0,B|224:96|288:128,1,150
352,160,56724,1,0
416,224,57085,1,0
352,288,57447,1,0
288,224,57808,1,0
288,224,57989,1,0
288,224,58170,1,4
64,256,58531,5,0
64,256,58712,1,0
64,256,58892,2,0,B|32:160|64:96,1,150
144,112,59977,1,0
144,112,60158,1,0
144,112,60338,2,0,B|179:202|121:279,1,150
256,320,61423,5,0
192,256,61784,1,0
128,192,62145,1,0
192,128,62507,1,0
256,192,62868,1,0
320,128,63230,1,0
384,192,63591,1,0
320,256,63953,1,4
120,202,64314,6,0,B|120:260,4,37.5
121,306,65398,2,0,B|211:336|298:301,1,150
360,278,66483,1,0
360,278,66664,1,0
360,278,66844,1,0
359,179,67206,2,0,B|276:134|192:187,1,150
136,211,68290,1,0
136,211,68471,1,0
78,279,68832,1,0
78,279,69013,1,0
169,295,69374,1,0
160,96,69736,5,0
352,272,70097,1,0
352,96,70459,1,0
160,272,70820,1,0
256,192,71182,1,0
256,192,71362,1,0
256,192,71543,1,0
256,192,71904,12,4,73350
448,64,79133,6,0,B|416:160|352:192,1,150
364,185,80218,1,0
288,256,80579,1,0
224,184,80941,1,0
294,124,81302,1,0
143,55,81664,6,0,B|76:113|100:210,1,150
112,267,82748,1,0
156,335,83109,1,0
237,338,83471,1,2
237,338,83651,1,2
237,338,83832,1,2
318,305,84194,1,0
384,250,84555,1,0
384,160,84917,2,0,B|319:118|235:161,1,150
243,218,86001,6,0,B|335:258|415:202,1,150
385,128,87085,1,0
385,128,87447,2,0,B|313:84|231:121,1,150
180,170,88531,1,0
122,227,88892,2,0,B|63:170|111:62,1,150
100,87,89977,1,0
288,64,90338,5,2
288,96,90519,1,2
288,128,90700,2,0,B|256:224|192:256,1,150
204,249,91784,1,2
233,245,91965,1,2
260,233,92145,1,2
323,193,92507,1,2
329,163,92688,1,2
334,133,92868,1,2
343,62,93230,1,2
340,91,93411,1,2
335,120,93591,1,2
96,96,93953,5,0
96,192,94314,1,0
96,288,94676,2,0,B|192:320|256:288,1,150
384,224,95760,6,0,B|353:253|384:313,2,75,0|0|0
384,128,96844,1,2
352,128,97025,1,2
320,128,97206,1,2
317,220,97567,2,0,B|364:243|420:206,1,75
64,64,98651,5,0
96,160,99013,1,2
160,96,99374,1,0
128,256,99736,1,2
256,128,100097,1,0
192,192,100459,1,2
192,192,100820,1,2
192,192,101001,1,2
192,192,101182,1,6
352,96,101543,5,0
352,192,101905,1,0
352,288,102266,2,0,B|301:247|249:334|177:268,2,150
352,288,104073,1,0
352,288,104435,2,0,B|250:278|201:218,1,150
142,183,105519,1,2
142,183,105700,1,2
142,183,105880,1,2
141,85,106242,2,0,B|218:71|303:95,1,150
416,96,107326,6,2,B|392:133|415:177,2,75
336,96,108411,1,0
336,96,108591,1,0
336,96,108772,2,0,B|285:62|226:131|171:79,1,150
64,160,109856,5,2
128,224,110218,1,0
192,160,110579,1,2
128,96,110941,2,0,B|184:61|231:128|285:77,1,150
359,91,112025,1,2
359,91,112206,1,2
360,176,112567,1,2
360,176,112748,1,2
480,192,113109,5,0
416,288,113471,1,2
352,192,113832,1,0
288,288,114194,1,2
224,192,114555,1,0
160,288,114917,1,2
160,288,115097,1,0
160,288,115278,1,2
96,192,115639,1,0
160,96,116001,1,2
416,96,116362,6,0,B|448:192|416:256,1,150
377,306,117447,1,0
305,280,117808,2,0,B|237:201|259:119,1,150
253,71,118892,1,0
255,145,119254,1,2
255,145,119435,1,2
255,145,119615,2,2,B|236:242|121:322,1,225
96,192,121061,5,0
224,192,121423,1,2
224,64,121784,1,0
224,192,122145,1,2
352,192,122507,1,0
224,192,122868,1,2
224,192,123049,1,0
224,192,123230,1,2
256,192,123411,12,4,124676
128,96,125037,5,0
128,96,125218,1,0
128,96,125398,2,0,B|94:167|128:256,1,150
212,245,126483,1,0
212,245,126664,1,0
212,245,126844,2,0,B|254:162|210:65,1,150
448,128,127929,5,0
448,256,128290,1,0
352,96,128651,1,0
352,288,129013,1,0
256,64,129374,1,0
256,320,129736,1,0
160,96,130097,1,0
160,288,130459,1,4
64,192,130820,6,0,B|128:160|160:224|221:184,1,150
288,192,131905,1,0
288,192,132085,1,0
288,192,132266,1,0
288,288,132627,1,0
384,288,132989,1,0
288,288,133350,1,0
288,288,133712,2,4,B|231:333|182:237|124:301,1,150
64,192,134796,5,0
160,192,135158,1,0
188,183,135338,1,0
214,197,135519,1,0
241,185,135700,1,0
268,197,135880,1,0
383,191,136242,1,4
416,96,136603,5,0
416,96,136784,1,0
416,96,136965,2,0,B|371:164|288:192,1,150
288,288,138049,2,0,B|338:289,4,37.5,0|0|0|0|0
192,288,139133,1,0
96,288,139495,1,0
148,211,139856,1,0
148,121,140218,2,0,B|204:88|218:55,1,75
294,76,140941,5,0
294,76,141121,1,0
294,76,141302,1,0
294,164,141664,1,0
294,164,141844,1,0
294,164,142025,1,0
96,128,142386,5,0
96,128,142567,1,0
96,128,142748,1,0
120,216,143109,1,0
168,291,143471,1,0
240,346,143832,2,0,B|349:334|387:265,1,150
373,285,144917,1,4
384,96,145278,5,0
384,96,145639,2,0,B|353:182|416:256,1,150
306,242,146724,1,0
306,242,147085,2,4,B|347:163|288:64,1,150
160,64,148170,5,0
152,93,148350,1,0
167,118,148531,1,0
158,146,148712,1,0
168,174,148892,1,0
168,250,149254,1,4
256,192,149615,5,0
256,192,149796,1,0
256,192,149977,1,4
320,288,150338,5,0
320,288,150519,1,0
320,288,150700,1,4
384,192,151061,5,0
384,192,151242,1,0
384,192,151423,1,4
256,192,151784,12,4,153591
96,96,153953,5,0
96,96,154133,1,0
96,96,154314,2,4,B|128:166|224:192,1,150,4|0
288,192,155398,1,0
288,288,155760,1,0
128,160,156121,6,0,B|192:160,2,37.5
224,160,156844,1,0
224,160,157025,1,0
224,160,157206,1,0
224,288,157567,1,0
352,288,157929,1,0
352,288,158109,1,0
352,288,158290,1,0
352,288,158651,2,4,B|409:194|352:128,1,150,0|4
160,96,159736,5,0
160,128,159917,1,0
160,160,160097,1,0
160,192,160278,1,0
160,224,160459,1,0
160,320,160820,1,0
256,320,161182,1,0
256,320,161543,2,4,B|313:236|248:162,1,150,0|4
384,96,162627,5,0
384,128,162808,1,0
384,160,162989,1,0
384,288,163350,5,0
384,256,163531,1,0
384,224,163712,1,0
288,192,164073,5,0
259,183,164254,1,0
233,198,164435,1,0
206,184,164615,1,0
177,193,164796,1,4
95,92,165158,6,4,B|52:176|96:256,1,150,0|4
96,320,166242,1,0
96,320,166423,1,0
96,320,166603,1,0
192,320,166965,1,0
192,320,167145,1,0
192,320,167326,1,4
160,192,167688,5,0
256,96,168049,1,0
352,192,168411,1,0
256,288,168772,1,4
362,98,169495,6,0,B|317:98,2,37.5
96,96,170218,5,0
107,123,170398,1,0
121,149,170579,1,0
138,173,170760,1,0
157,195,170941,1,0
215,259,171302,1,0
215,259,171483,1,0
215,259,171664,2,4,B|272:195|215:99,1,150,0|4
320,96,172748,5,0
320,192,173109,2,0,B|273:192,2,37.5,0|0|0
288,288,173832,2,0,B|338:288,4,37.5,0|0|0|0|0
256,192,174736,12,4,176001
