osu file format v5

[General]
AudioFilename: Kioku no Keshiki.mp3
AudioLeadIn: 0
PreviewTime: -1
Countdown: 0
SampleSet: Soft
StackLeniency: 0.7
Mode: 0
LetterboxInBreaks: 1

[Editor]
Bookmarks: 74798,151074
DistanceSpacing: 1.20000004768372
BeatDivisor: 4
GridSize: 16

[Metadata]
Title:Kioku no Keshiki
Artist:Haruka Tomatsu
Creator:Mystearica
Version:Normal
Source:
Tags:J-Pop

[Difficulty]
HPDrainRate:4
CircleSize:4
OverallDifficulty:4
SliderMultiplier:1.5
SliderTickRate:2

[Events]
//Background and Video events
0,0,"memories.jpg"
//Break Periods
2,73202,77706
//Storyboard Layer 0 (Background)
//Storyboard Layer 1 (Fail)
//Storyboard Layer 2 (Pass)
//Storyboard Layer 3 (Foreground)
//Storyboard Sound Samples
//Background Colour Transformations
3,100,208,208,208

[TimingPoints]
11905,722.89156626506,4,2,0,100,1,0
15880,-100,4,2,0,70,0,0
16965,-100,4,2,0,51,0,0
17688,-100,4,2,0,100,0,0
18411,-100,4,2,0,70,0,0
19495,-100,4,2,0,100,0,0
20579,-100,4,2,0,60,0,0
22025,-100,4,2,0,100,0,0
22748,-100,4,2,0,66,0,0
23471,-100,4,2,0,70,0,0
23832,-100,4,2,0,100,0,0
24194,-100,4,2,0,80,0,0
25639,-100,4,2,0,63,0,0
27085,-100,4,2,0,80,0,0
28170,-100,4,2,0,100,0,0
29254,-100,4,2,0,80,0,0
35037,-100,4,2,0,100,0,0
37929,-100,4,2,0,63,0,0
39736,-100,4,2,0,70,0,0
40820,-100,4,2,0,60,0,0
41182,-100,4,2,0,90,0,0
41543,-100,4,2,0,70,0,0
42989,-100,4,2,0,80,0,0
44435,-100,4,2,0,80,0,0
45519,-100,4,2,0,90,0,0
46061,-100,4,2,0,100,0,0
46603,-100,4,2,0,64,0,0
46965,-100,4,1,0,60,0,1
52748,-100,4,2,0,100,0,0
58531,-100,4,1,0,60,0,1
69374,-100,4,1,0,0,0,0
79133,-100,4,2,0,100,0,0
80579,-100,4,2,0,70,0,0
81302,-100,4,2,0,100,0,0
83109,-100,4,2,0,70,0,0
84194,-100,4,2,0,100,0,0
84917,-100,4,2,0,80,0,0
85639,-100,4,2,0,100,0,0
86001,-100,4,2,0,80,0,0
89977,-100,4,2,0,51,0,0
90700,-100,4,2,0,100,0,0
91061,-100,4,2,0,70,0,0
91423,-100,4,2,0,100,0,0
91784,-100,4,2,0,70,0,0
92145,-100,4,2,0,100,0,0
93591,-100,4,2,0,80,0,0
94314,-100,4,2,0,100,0,0
94676,-100,4,2,0,78,0,0
95760,-100,4,2,0,100,0,0
96483,-100,4,2,0,77,0,0
97206,-100,4,2,0,100,0,0
97929,-100,4,2,0,57,0,0
98651,-100,4,2,0,70,0,0
100097,-100,4,2,0,80,0,0
100820,-100,4,2,0,55,0,0
101543,-100,4,2,0,100,0,0
102266,-100,4,2,0,77,0,0
102989,-100,4,2,0,90,0,0
103712,-100,4,2,0,58,0,0
104435,-100,4,2,0,75,0,0
105158,-100,4,2,0,80,0,0
106242,-100,4,2,0,100,0,0
106603,-100,4,2,0,80,0,0
107326,-100,4,2,0,100,0,0
108049,-100,4,2,0,77,0,0
109495,-100,4,2,0,57,0,0
109856,-100,4,2,0,90,0,0
110941,-100,4,2,0,75,0,0
111664,-100,4,2,0,90,0,0
113109,-100,4,2,0,80,0,0
114555,-100,4,2,0,100,0,0
115639,-100,4,2,0,80,0,0
117085,-100,4,2,0,100,0,0
119254,-100,4,2,0,74,0,0
120700,-100,4,2,0,58,0,0
121061,-100,4,2,0,80,0,0
121423,-100,4,2,0,100,0,0
121784,-100,4,2,0,80,0,0
122145,-100,4,2,0,100,0,0
122507,-100,4,2,0,0,0,0
125037,-100,4,1,0,60,0,1
130820,-100,4,1,0,46,0,0
135519,-100,4,1,0,48,0,0
135880,-100,4,1,0,52,0,0
136061,-100,4,1,0,57,0,0
136603,-100,4,1,0,60,0,1
145639,-100,4,1,0,48,0,0
147808,-100,4,1,0,0,0,0

[Colours]
Combo1 : 248,156,248
Combo2 : 22,214,80
Combo3 : 140,163,240
Combo4 : 234,142,142
Combo5 : 248,199,124

[HitObjects]
72,192,12627,1,0
112,112,12989,1,0
184,56,13350,1,0
256,112,13712,1,0
296,192,14073,1,0
448,72,15158,5,0
448,144,15519,1,0
448,216,15880,2,0,B|448:272|440:312|416:344|400:344|320:344|288:344,1,225,0|4
160,344,17688,5,0
216,296,18049,1,0
144,264,18411,2,2,B|80:264|40:256|32:200|48:168,1,150
96,120,19495,1,0
144,184,19856,1,0
200,32,20579,5,2
256,88,20941,1,0
328,56,21302,2,0,B|328:0|400:0,1,75,2|0
416,72,22025,1,0
480,120,22386,1,0
408,152,22748,1,4
352,304,23471,6,2,B|288:280|288:232|272:232,1,75
360,216,24194,2,0,B|336:152|280:136|224:168|176:192|120:120|112:64,1,300,0|4
32,192,26362,5,0
96,224,26724,1,0
32,272,27085,2,0,B|32:352|112:360|168:312,1,150
200,296,28170,1,2
200,296,28350,1,2
304,328,28892,1,0
368,296,29254,2,0,B|424:320|464:304|504:256|520:184|512:144|496:96,1,262.5
472,24,31061,1,2
472,24,31242,1,2
360,88,31784,5,0
312,32,32145,1,0
248,72,32507,1,0
296,128,32868,2,0,B|336:168|288:216,2,75
192,176,34133,1,0
152,112,34495,1,2
152,112,34676,1,2
88,72,35037,5,0
40,128,35398,1,0
16,200,35760,2,0,B|8:264|56:272,1,75
96,312,36483,1,2
168,336,36844,6,0,B|208:368|240:344,3,75,0|0|0|4
304,296,38290,5,0
344,224,38651,1,2
424,232,39013,1,0
464,160,39374,1,2
384,152,39736,2,0,B|376:88|312:40|248:32|192:32,1,225,0|4
208,112,41182,5,0
128,104,41543,2,0,B|112:176|144:216|208:200|232:208,1,150,2|0
352,272,42989,5,0
352,352,43350,1,2
352,272,43712,1,0
352,352,44073,1,2
272,336,44435,2,0,B|216:360|160:360|112:312,1,150
130,328,45519,2,0,B|97:265|81:217|113:169|153:121,1,225,0|4
184,48,46965,5,0
184,48,47326,2,0,B|240:32|264:80,1,75
304,112,48049,1,4
304,184,48411,5,0
304,184,48772,2,0,B|248:168|224:216,1,75
184,248,49495,1,4
248,288,49856,6,0,B|296:312|328:280,3,75
376,240,51302,1,0
424,184,51664,2,0,B|472:160|504:192,2,75,0|0|4
376,112,52748,5,0
336,40,53109,1,2
296,112,53471,1,0
255,40,53832,1,2
208,112,54194,2,0,B|144:112|144:184,3,75,0|0|0|4
80,216,55639,6,2,B|80:272|128:296,2,75
160,216,56724,1,0
200,288,57085,1,2
240,360,57447,1,0
280,288,57808,1,2
312,216,58170,1,4
392,136,58531,5,0
392,136,58892,2,0,B|336:152|312:104,1,75
280,56,59615,1,4
208,32,59977,5,0
208,32,60338,2,0,B|152:16|128:64,1,75
104,112,61061,1,4
104,184,61423,6,0,B|56:208|24:176,3,75
32,264,62868,1,0
32,344,63230,2,0,B|80:320|112:352,2,75,0|0|4
128,264,64314,5,0
216,296,64676,1,0
312,288,65037,1,0
400,240,65398,2,0,B|440:216|448:168,1,75
440,80,66121,2,0,B|416:32|368:8|288:32,1,150,0|0
312,104,67206,5,0
230,90,67567,2,0,B|111:112|153:214|146:281|44:331,1,300,0|4
256,192,69374,12,0,72989
424,232,79133,5,0
480,160,79495,1,0
424,88,79856,1,2
368,160,80218,1,0
424,232,80579,2,0,B|424:288|416:320|376:344|320:344,1,150
248,336,81664,5,0
304,264,82025,1,0
248,192,82386,1,2
192,264,82748,1,0
248,336,83109,2,0,B|192:344|152:344|120:312|112:256,1,150
96,192,84194,5,0
40,112,84555,1,0
96,32,84917,2,0,B|144:8|192:48,2,75
152,112,86001,2,0,B|200:128|240:104,1,75
296,40,86724,1,2
296,40,87085,1,2
384,72,87447,2,0,B|432:120|352:160|392:208|440:232,1,150
488,320,88892,6,0,B|440:352|360:304|288:296|248:344,1,225,0|4
120,328,90700,5,0
48,272,91061,2,0,B|8:240|40:184,1,75
120,200,91784,2,0,B|125:149|63:132,1,75
48,56,92507,1,2
48,56,92688,1,2
184,56,93230,5,0
216,136,93591,2,0,B|264:152|264:208,2,75
272,64,94676,2,0,B|328:112|360:48|400:56|432:96,1,150
456,152,95760,5,0
480,240,96121,1,0
456,328,96483,2,2,B|408:360|368:264|288:328,1,150
224,328,97567,1,0
136,296,97929,1,4
40,160,98651,6,0,B|16:88|64:40|136:8|184:40,1,225
136,120,100097,1,2
192,184,100459,1,0
136,120,100820,1,4
288,32,101543,5,0
352,88,101905,1,0
424,144,102266,2,0,B|416:224|352:272,1,150
272,232,103350,1,0
248,320,103712,1,4
72,272,104435,5,2
136,216,104796,1,2
48,184,105158,2,0,B|72:136|112:128|152:136|176:64,1,150
232,32,106242,2,0,B|280:16|328:40,2,75
280,104,107326,1,0
368,128,107688,1,0
456,152,108049,2,0,B|432:200|392:216|336:224|256:152|176:208,1,300,0|4
96,232,109856,5,0
40,296,110218,1,0
128,312,110579,1,0
208,272,110941,2,0,B|248:320|296:328|352:312,1,150
472,280,112206,1,0
416,208,112567,1,2
416,208,112748,1,2
448,112,113109,6,0,B|424:32|312:16,2,150
352,112,114917,1,2
352,112,115278,1,2
256,112,115639,2,0,B|256:56|192:56,1,75
120,40,116362,2,0,B|40:72|24:160,1,150
120,128,117447,1,0
88,216,117808,1,0
56,304,118170,1,0
152,304,118531,1,2
152,304,118712,1,2
264,208,119254,6,0,B|272:296|328:304|400:296|432:240|456:280|480:328|488:360|496:360,1,300,0|4
488,224,121061,6,2,B|488:160|440:136,1,75
384,192,121784,2,2,B|338:146|355:95,1,75
256,192,122507,12,0,124676
48,40,125037,5,0
80,112,125398,2,0,B|120:120|160:96,1,75
224,64,126121,1,4
264,136,126483,5,0
192,176,126844,2,0,B|144:184|128:240,1,75
96,296,127567,1,4
168,336,127929,6,0,B|216:360|248:328,3,75
288,264,129374,1,0
360,304,129736,2,0,B|408:280|440:312,2,75,0|0|4
360,224,130820,6,0,B|376:176|432:168,3,75
480,128,132266,1,0
504,48,132627,1,0
424,64,132989,1,0
304,80,133712,6,0,B|248:32|192:72|168:96|72:48|56:32,1,225
16,96,135158,1,0
88,128,135519,1,0
160,160,135880,1,4
160,160,136061,1,4
80,256,136603,5,0
112,328,136965,2,0,B|160:336|200:280,1,75
240,248,137688,1,4
280,176,138049,5,0
320,248,138411,2,0,B|368:256|408:200,1,75
440,160,139133,1,4
384,96,139495,6,0,B|400:56|376:16,2,75
304,72,140579,1,0
224,96,140941,2,0,B|208:56|232:16,3,75,0|0|0|4
136,40,142386,5,0
80,112,142748,2,0,B|32:120|0:176,1,75
88,200,143471,2,0,B|40:208|8:264,1,75
96,288,144194,2,0,B|48:296|16:352,2,75,0|0|4
176,320,145278,5,0
256,352,145639,2,0,B|320:368|384:344|440:288|448:232|440:184|424:160,1,300,0|4
256,192,147808,12,0,151061
