osu file format v5

[General]
AudioFilename: Song of Bean@Kannagi.mp3
AudioLeadIn: 1000
PreviewTime: 6164
Countdown: 0
SampleSet: Soft
StackLeniency: 0
Mode: 0
LetterboxInBreaks: 1
EditorDistanceSpacing: 1

[Metadata]
Title:Hello Daizu no Uta
Artist:Haruka Tomatsu
Creator:abalee
Version:Perfect Bean
Source:Kannagi
Tags:hello daizu no uta tomatsu haruka kannagi bean

[Difficulty]
HPDrainRate:8
CircleSize:6
OverallDifficulty:6
SliderMultiplier:1.4
SliderTickRate:4

[Events]
//Background and Video events
0,0,"bg.png"
//Break Periods
//Storyboard Layer 0 (Background)
//Storyboard Layer 1 (Failing)
//Storyboard Layer 2 (Passing)
//Storyboard Layer 3 (Foreground)
//Storyboard Sound Samples
//Background Colour Transformations
3,100,163,162,255

[TimingPoints]
2160,499.874221038614,4,2,2,100,1,0

[Colours]
Combo1 : 92,46,16
Combo2 : 114,145,226
Combo3 : 115,93,123
Combo4 : 32,31,72

[HitObjects]
96,80,2169,1,2
168,80,2418,1,0
200,80,2543,1,0
232,80,2668,1,0
128,168,3168,5,2
200,168,3418,1,0
232,168,3543,1,0
264,168,3668,1,0
160,264,4168,5,2
232,264,4418,1,0
264,264,4543,1,0
296,264,4668,1,0
368,264,4918,5,2
440,264,5168,2,0,B|480:264,6,35,2|2|2|2|2|2|4
440,192,6168,6,0,B|440:120,1,70
440,88,6542,1,0
440,48,6667,1,0
368,48,6917,1,2
296,48,7167,2,0,B|208:48,1,70
192,48,7542,1,0
152,48,7667,1,0
80,48,7917,1,2
80,120,8167,6,0,B|80:208,1,70
80,224,8542,1,0
80,256,8667,1,0
152,256,8918,1,2
152,184,9168,2,0,B|152:112,2,70,0|0|4
224,184,9917,5,2
256,184,10042,1,2
288,184,10167,2,0,B|288:280,2,70
352,184,10916,2,0,B|352:280,2,70
424,184,11666,1,4
424,256,11916,5,2
392,256,12041,1,2
360,256,12166,2,0,B|280:256,2,70
360,184,12916,2,0,B|280:184,2,70
360,112,13666,1,4
288,112,13916,5,2
256,112,14041,1,2
224,112,14166,2,0,B|136:112,1,70,0|2
152,40,14665,2,0,B|240:40,1,70,0|2
288,40,15165,2,0,B|288:136,1,70,0|2
360,112,15665,2,0,B|448:112,1,70,0|2
432,184,16165,2,0,B|432:256,1,70,0|2
360,256,16665,6,0,B|280:256,1,70,0|2
288,184,17165,2,0,B|288:104,1,70,0|2
288,80,17540,1,0
288,48,17665,1,4
256,192,17906,12,4,18655
256,192,18914,12,4,19663
248,192,20164,5,0
248,192,20289,1,0
248,192,20414,1,0
248,192,20539,1,0
248,192,20664,1,0
248,192,20789,1,0
248,192,20914,1,2
248,192,21039,1,2
248,192,21164,1,4
320,192,21414,1,0
392,192,21664,1,0
392,120,21914,1,4
320,120,22164,6,0,B|240:120,1,70,0|2
250,120,22538,1,0
250,120,22663,2,0,B|176:120,1,70,0|2
112,120,23163,1,4
40,120,23413,1,4
40,48,23663,1,4
112,48,23913,1,4
184,48,24163,6,0,B|256:48,1,70,0|2
254,48,24538,1,0
254,48,24663,2,0,B|344:48,1,70,0|2
324,48,25038,1,0
324,48,25163,2,0,B|408:48,1,70,0|2
432,48,25538,1,0
464,48,25663,1,4
462,340,26653,6,4,C|438:308|422:340|406:308|390:340|374:308|358:340|342:308|326:340,1,280,0|2
288,336,27903,6,0,C|264:304|248:336|232:304|216:336|200:304|184:336|168:304|152:336|136:304|120:336|104:304|88:336|72:304|56:336|40:304,1,525,0|2
40,232,30161,5,2
72,232,30286,1,2
104,232,30411,1,2
176,232,30661,1,4
248,232,30911,1,4
248,160,31161,1,2
280,160,31286,1,2
312,160,31411,1,2
384,160,31661,1,4
384,232,31911,1,4
448,232,32161,5,2
448,200,32286,1,2
448,168,32411,1,2
448,96,32661,1,4
376,96,32911,1,4
376,168,33161,1,4
256,192,33661,5,8
