osu file format v5

[General]
AudioFilename: Song of Bean@Kannagi.mp3
AudioLeadIn: 1000
PreviewTime: 6164
Countdown: 0
SampleSet: Soft
StackLeniency: 0.4
Mode: 0
LetterboxInBreaks: 1
EditorBookmarks: 1699
EditorDistanceSpacing: 1

[Metadata]
Title:Hello Daizu no Uta
Artist:Haruka Tomatsu
Creator:abalee
Version:Good Bean
Source:Kannagi
Tags:hello daizu no uta tomatsu haruka kannagi bean

[Difficulty]
HPDrainRate:7
CircleSize:5
OverallDifficulty:6
SliderMultiplier:1.4
SliderTickRate:4

[Events]
//Background and Video events
0,0,"bg.png"
//Break Periods
//Storyboard Layer 0 (Background)
//Storyboard Layer 1 (Failing)
//Storyboard Layer 2 (Passing)
//Storyboard Layer 3 (Foreground)
//Storyboard Sound Samples
//Background Colour Transformations
3,100,163,162,255

[TimingPoints]
2160,499.874221038614,4,2,2,100,1,0

[Colours]
Combo1 : 92,46,16
Combo2 : 114,145,226
Combo3 : 115,93,123
Combo4 : 32,31,72

[HitObjects]
96,48,2169,1,2
152,48,2418,2,0,C|200:48,2,35
136,160,3168,5,2
192,160,3418,2,0,C|256:160,2,35
168,272,4168,5,2
224,272,4418,2,0,C|280:272,2,35
224,216,4918,5,2
280,216,5168,2,0,B|320:216,6,35,2|2|2|2|2|2|4
280,160,6168,6,0,B|368:160,1,70
408,160,6667,1,0
464,160,6917,1,2
464,216,7167,2,0,B|376:216,1,70
336,216,7667,1,0
280,216,7917,1,2
224,216,8167,6,0,B|224:304,1,70
168,287,8667,1,0
112,287,8917,2,0,B|112:215,2,70,0|0|2
56,287,9667,1,4
56,168,10167,6,0,B|56:72,2,70
112,168,10916,2,0,B|200:168,2,70
112,112,11666,1,2
168,112,11916,1,4
224,112,12166,6,0,B|304:112,2,70
224,168,12916,2,0,B|224:248,2,70
280,168,13666,1,2
336,168,13916,1,4
336,112,14166,6,0,B|248:112,1,70,0|2
264,56,14665,2,0,B|352:56,1,70,0|2
392,56,15165,2,0,B|392:160,1,70,0|2
392,184,15665,2,0,B|480:184,1,70,0|2
464,240,16165,6,0,B|464:312,1,70,0|2
408,312,16665,2,0,B|328:312,1,70,0|2
336,256,17165,2,0,B|336:176,1,70,0|2
280,184,17665,1,4
256,192,17906,12,4,19655
248,192,20164,6,0,C|208:192,8,35,0|0|0|0|0|0|0|0|2
304,192,21414,1,0
360,192,21664,1,0
360,248,21914,1,4
304,248,22164,6,0,B|224:248,1,70,0|2
176,248,22663,2,0,B|102:248,1,70,0|2
48,248,23163,1,4
48,192,23413,1,4
48,136,23663,1,4
104,136,23913,1,4
104,80,24163,6,0,B|176:80,1,70,0|2
176,136,24663,2,0,B|266:136,1,70,0|2
256,192,25163,2,0,B|340:192,1,70,0|2
328,136,25663,1,4
472,312,26788,6,4,C|448:280|432:312|416:280|400:312|384:280|368:312|352:280,1,245,0|2
288,312,27913,6,4,C|264:280|248:312|232:280|216:312|200:280|184:312|168:280|152:312|136:280|120:312|104:280|88:312|72:280|56:312|24:280,1,560,0|2
40,216,30161,6,0,C|120:216,1,70
168,216,30661,1,4
168,160,30911,1,4
224,160,31161,2,0,L|264:160|288:128,1,70
280,80,31661,1,4
280,24,31911,1,4
336,24,32161,6,0,L|384:24|416:64,1,70
400,96,32661,1,4
368,144,32911,2,4,C|368:224,1,70
256,192,33661,5,8
