osu file format v7

[General]
AudioFilename: ED HD Sorano-woto ED HD 1080P.mp3
AudioLeadIn: 0
PreviewTime: 54393
Countdown: 0
SampleSet: Soft
StackLeniency: 0.7
Mode: 0
LetterboxInBreaks: 1

[Editor]
DistanceSpacing: 0.400000005960464
BeatDivisor: 2
GridSize: 8

[Metadata]
Title:Girls, Be Ambitious. ( TV Size )
Artist:Haruka Tomatsu
Creator:FishHook
Version:Easy
Source:So.Ra.No.Wo.To
Tags:Anime Saymun so ra no wo to sora no woto

[Difficulty]
HPDrainRate:1
CircleSize:3
OverallDifficulty:2
SliderMultiplier:1.1
SliderTickRate:1

[Events]
//Background and Video events
0,0,"Konachan.com - 61877 sora_no_woto.jpg"
Video,0,"So-Ra-No-Wo-To ED noAudio.avi"
//Break Periods
//Storyboard Layer 0 (Background)
//Storyboard Layer 1 (Fail)
//Storyboard Layer 2 (Pass)
//Storyboard Layer 3 (Foreground)
//Storyboard Sound Samples
//Background Colour Transformations
3,100,0,0,0

[TimingPoints]
6700,372.670807453416,4,2,0,75,1,0
54367,-100,4,2,0,75,0,1
65733,-100,4,2,0,75,0,0
65919,-100,4,2,0,75,0,1
86784,-100,4,2,1,75,0,0
87906,-100,4,2,0,75,0,1
88092,-100,4,2,0,75,0,0

[Colours]
Combo1 : 92,173,254
Combo2 : 155,220,5
Combo3 : 164,82,0

[HitObjects]
168,96,6699,1,8
256,96,7445,1,8
344,96,8190,2,0,B|408:208|336:320,1,220,8|8
304,304,9308,2,0,L|184:304,1,110,2|4
104,304,10426,5,8
152,232,11172,1,8
200,160,11917,1,8
248,88,12662,6,0,L|288:104|320:168,2,110,8|0|8
208,88,13780,1,0
168,88,14153,2,0,L|128:104|96:168,2,110,8|0|8
208,88,15271,2,0,C|344:88,1,110,2|4
408,88,16389,5,8
352,152,17134,1,8
296,216,17880,1,8
232,272,18625,2,0,B|176:312|88:272,1,110,8|0
88,264,19370,1,8
88,176,20116,1,8
88,88,20861,2,0,B|144:88,3,55,8|0|0|4
272,88,21979,6,0,C|328:80|384:128,1,110,2|8
368,152,22724,1,0
368,192,23097,1,8
368,232,23470,6,0,C|312:240|256:192,1,110,2|8
272,168,24215,1,0
272,128,24588,1,4
352,80,25333,5,8
352,167,26078,1,8
352,207,26451,1,0
352,247,26824,2,0,B|392:328|250:296,1,110,8|4
256,288,27569,6,0,L|256:144,3,110,8|2|0|4
256,136,29060,2,8,L|256:0,3,110,8|2|0|4
168,24,30923,5,0
128,24,31296,2,0,C|40:40|32:176,1,220,8|8
56,200,32414,1,0
88,232,32786,2,0,C|128:272|176:216,1,110,8|0
168,192,33532,6,0,L|288:192,3,110,8|2|0|4
320,192,35022,2,0,L|448:192,3,110,8|2|0|4
432,280,36886,5,8
344,280,37631,1,8
256,280,38377,1,8
256,240,38749,1,0
256,200,39122,1,8
256,112,39867,1,8
168,112,40613,1,8
80,112,41358,5,8
80,152,41731,1,0
104,184,42103,2,8,B|256:184,1,110,8|4
248,216,42849,1,8
312,280,43594,1,8
376,216,44339,1,8
312,152,45085,1,8
280,184,45457,6,0,B|352:232|432:224|496:128|288:80,1,330
248,80,46948,5,8
208,80,47321,1,8
168,80,47693,1,8
128,80,48066,1,4
128,168,48811,5,8
40,168,49557,1,8
40,256,50302,1,8
128,256,51047,1,8
176,256,51420,6,0,B|304:256,1,110,2|8
288,216,52165,2,0,B|432:216,1,110,2|8
432,192,52911,1,8
464,168,53283,1,8
432,136,53656,1,0
400,112,54029,1,8
360,104,54401,6,2,B|312:64|248:112,1,110,2|4
256,152,55147,2,0,B|208:192|144:144,1,110,2|4
112,152,55892,2,2,B|40:152,1,55,2|2
16,152,56451,2,0,B|-24:200|24:264,1,110,2|4
128,240,57383,6,0,B|152:96|341:73,1,220,8|2
360,88,58873,1,8
360,136,59246,1,0
360,184,59619,1,8
360,232,59991,1,0
360,280,60364,6,0,B|312:320|248:272,1,110,2|4
256,232,61109,2,0,B|208:192|144:240,1,110,2|4
112,232,61855,2,2,B|40:232,1,55,2|2
16,232,62414,2,0,B|-24:184|24:120,1,110,2|4
128,72,63345,5,8
216,72,64091,1,8
216,160,64836,1,8
264,160,65209,1,0
312,160,65581,2,0,B|304:80|384:48,1,110,8|4
400,64,66327,5,8
400,152,67072,1,8
400,240,67818,1,8
400,240,68190,1,0
400,240,68563,1,8
304,240,69308,6,0,B|336:184|296:120,1,110,8|4
224,136,70054,2,0,B|256:192|216:256,1,110,8|4
144,240,70799,2,0,B|176:184|136:120,1,110,8|4
64,136,71544,2,0,B|96:192|56:256,1,110,8|4
64,288,72290,5,8
64,328,72662,1,0
112,328,73035,1,8
200,328,73780,5,8
288,328,74526,1,8
352,272,75271,1,4
384,240,75644,1,0
416,208,76016,1,8
416,120,76762,5,8
416,32,77507,1,8
328,32,78252,1,4
296,64,78625,1,8
264,96,78998,1,4
232,128,79370,1,0
200,160,79743,1,4
200,248,80488,5,8
112,248,81234,1,4
24,248,81979,1,8
24,160,82724,1,8
56,128,83097,1,0
88,96,83470,1,8
120,64,83842,1,0
208,64,84588,6,0,B|240:120|200:184,1,110,8|4
288,168,85333,2,0,B|320:112|280:48,1,110,8|4
368,64,86078,2,0,B|400:120|360:184,1,110,8|4
368,248,86824,2,0,B|352:400|224:384|240:152,1,330,0|4
