osu file format v5

[General]
AudioFilename: Haruka Shimotsuki - kazahane.mp3
AudioLeadIn: 0
PreviewTime: -1
Countdown: 1
SampleSet: Soft
StackLeniency: 0.7
Mode: 0
LetterboxInBreaks: 1
EditorBookmarks: 17240,182240

[Metadata]
Title:Kazahane
Artist:Haruka Shimotsuki
Creator:Kirisame
Version:Normal
Source:H2O
Tags:Haruka Shimotsuki

[Difficulty]
HPDrainRate:5
CircleSize:4
OverallDifficulty:3
SliderMultiplier:1.8
SliderTickRate:2

[Events]
//Background and Video events
0,0,"102.jpg"
//Break Periods
2,93825,107810
//Storyboard Layer 0 (Background)
//Storyboard Layer 1 (Failing)
//Storyboard Layer 2 (Passing)
//Storyboard Layer 3 (Foreground)
//Storyboard Sound Samples
//Background Colour Transformations
3,100,163,162,255

[TimingPoints]
17250,500,4,2,0,90,1

[Colours]
Combo1 : 147,0,0
Combo2 : 128,128,255
Combo3 : 0,0,160
Combo4 : 204,0,0

[HitObjects]
494,276,17750,2,0,C|289:274,1,180
259,273,18500,2,0,C|61:271,1,180
51,271,19125,1,2
51,136,19750,6,0,C|240:136,1,180
285,136,20500,2,0,C|497:137,1,180
492,136,21125,1,2
357,143,21750,6,0,C|357:37,1,90
356,25,22125,1,2
221,27,22750,2,2,C|222:125,1,90
223,144,23125,1,0
219,224,23500,2,0,C|124:224,3,90
48,224,24625,2,2,C|-6:224,1,45
214,267,25750,5,0
165,242,26000,2,0,C|118:210|94:170|100:128|124:87,1,180
146,54,26750,1,0
193,79,27000,2,2,C|250:120,1,45
364,101,27750,5,0
417,102,28000,1,2
417,155,28250,1,0
363,155,28500,1,2
362,208,28750,1,0
415,212,29000,1,0
416,265,29250,1,0
330,328,29625,1,0
223,329,30000,2,0,C|123:324|53:277|8:177,1,270
13,130,31000,5,0
83,131,31250,1,2
244,139,32000,6,2,C|460:141,1,180
478,142,32750,1,0
477,88,33000,2,2,C|268:85,1,180
243,86,33750,1,0
135,87,34250,5,2
27,87,34750,1,2
78,181,35250,2,0,C|-2:233|4:290|88:331|211:337|372:326|439:280|419:153,1,720
429,45,38000,2,0,C|333:44,1,90,2|0
258,41,38625,1,0
177,45,39000,2,2,C|77:44,1,90
184,236,40250,6,0,C|377:236,2,180
103,236,41625,1,2
103,317,42000,1,2
156,318,42250,2,0,C|359:316,1,180
443,320,43250,2,2,C|443:166,2,135
435,158,44750,6,2,C|250:158,1,180
93,155,46000,2,2,C|111:222|149:277|217:315|283:321|349:302|393:255,1,405
386,128,47750,1,2
278,127,48250,1,2
224,126,48500,5,0
170,124,48750,1,0
116,123,49000,1,0
115,176,49250,2,2,C|255:175,2,135,2|0|2
113,284,50500,5,0
166,285,50750,1,2
219,286,51000,1,0
272,287,51250,1,2
339,139,52000,5,0
316,188,52250,1,0
293,237,52500,1,0
270,286,52750,1,0
251,336,53000,1,0
197,332,53250,2,0,C|122:322|81:287|67:233|71:179|88:134,1,270
103,106,54250,2,2,C|154:60|205:36|248:30|303:34|370:61|422:107,1,360
448,261,56000,5,0
394,259,56250,1,0
313,256,56625,1,0
232,256,57000,1,0
178,253,57250,2,0,C|119:253|83:226|69:185|90:127|139:96,1,270
256,192,58250,12,0,59750
44,322,60250,2,2,C|26:234|72:145,1,180
92,110,61000,1,4
117,62,61250,1,4
224,59,61750,6,0,C|313:41|436:62,1,180
451,72,62500,1,4
409,106,62750,2,4,C|315:126|216:104,1,180
185,83,63500,1,4
131,83,63750,1,2
77,84,64000,2,4,C|2:83,1,45
98,200,64750,5,0
150,187,65000,1,4
202,176,65250,1,4
259,267,65750,6,2,C|164:286|44:262,1,180
35,244,66500,1,2
82,217,66750,2,2,C|168:197|284:219,1,180
300,246,67500,2,0,C|357:248,1,45,4|4
421,136,68250,6,2,C|334:112|222:135,1,180
247,75,69000,1,4
194,86,69250,2,2,C|66:158|10:287,1,270
13,295,70125,1,4
143,328,70750,6,0,C|343:329,2,180
115,328,71875,2,4,C|9:328,1,90
165,190,73250,6,4,C|314:191,2,135
56,186,74500,1,0
56,132,74750,1,2
109,135,75000,1,2
110,81,75250,1,4
163,79,75500,2,4,C|246:80,1,45
261,79,75875,1,2
314,81,76125,1,2
204,160,76750,5,2
257,160,77000,2,4,C|340:160,1,45
309,295,77750,1,2
255,294,78000,2,4,C|186:292,1,45
92,227,78750,5,2
145,229,79000,1,4
198,228,79250,1,2
251,230,79500,1,4
304,231,79750,1,4
357,233,80000,2,4,C|426:237,1,45
406,100,80750,5,2
352,100,81000,2,4,C|279:99,1,45
172,98,81750,1,2
225,99,82000,2,4,C|295:99,1,45
226,167,82500,2,2,C|328:171,3,90
369,171,83500,2,4,C|427:173,1,45
171,188,84750,5,2
224,187,85000,2,4,C|294:188,1,45
403,190,85750,1,2
349,190,86000,2,4,C|291:190,1,45
420,122,86750,2,2,C|299:119,4,90
473,130,88000,2,4,C|521:131,1,45
44,124,89500,6,4,C|46:198|67:257|99:300|147:331|213:343|275:339|320:317|353:293|383:254|410:195|420:149|416:115,1,630
313,131,91750,2,2,C|119:129,2,180
315,239,93250,1,0
261,239,93500,2,2,C|194:238,1,45
382,307,109250,5,4
388,198,109750,2,2,C|389:101,4,90
385,253,111000,2,0,C|384:321,1,45
356,165,111750,5,0
302,165,112000,1,0
248,166,112250,1,0
194,169,112500,1,0
140,165,112750,2,2,C|34:163,1,90
23,164,113125,1,0
41,297,113750,6,0,C|42:95,1,180
43,62,114500,1,0
96,64,114750,1,0
149,64,115000,1,0
202,65,115250,1,0
200,118,115500,2,0,C|78:119,3,90,2|0|2|0
106,199,116625,2,2,C|24:202,1,45
263,124,117750,5,0
263,178,118000,1,0
317,178,118250,1,0
320,231,118500,1,0
373,233,118750,1,0
376,286,119000,2,2,C|322:287,1,45
195,292,119750,5,0
141,292,120000,1,0
144,238,120250,1,0
90,236,120500,2,2,C|9:174,3,90
89,142,121625,1,0
19,100,122000,1,0
234,94,123000,5,2
287,97,123250,1,2
390,221,124000,6,2,C|353:300|295:330|223:335|163:318|125:285|107:236|97:174|112:123|144:71|201:30,1,630
277,102,126250,5,2
278,209,126750,1,2
170,206,127250,1,2
170,97,127750,1,2
70,138,128250,5,0
69,191,128500,1,2
69,245,128750,1,0
69,299,129000,2,2,C|70:367,1,45
150,341,129500,1,2
203,340,129750,1,2
256,342,130000,1,2
309,338,130250,5,0
362,336,130500,1,2
415,334,130750,1,0
412,280,131000,2,2,C|326:280,1,45
286,277,131500,5,0
232,279,131750,1,2
179,264,132000,1,0
131,237,132250,1,2
93,198,132500,1,2
82,144,132750,6,0,C|266:146,1,180
340,84,134000,6,0,C|407:101|455:144|470:202|458:250|423:298|369:326|313:334,1,405
348,198,135750,1,2
240,192,136250,1,2
188,177,136500,6,2,C|78:150,2,90
175,229,137250,2,2,C|322:268,2,135
202,124,138500,5,0
254,136,138750,1,2
305,150,139000,1,0
357,164,139250,1,2
466,287,140000,5,0
413,286,140250,1,0
360,284,140500,2,2,C|233:278,3,90
108,273,142000,2,0,C|167:276,2,45,0|2|0
104,219,142500,5,2
130,172,142750,1,0
169,135,143000,1,2
220,119,143250,1,0
391,123,144000,5,0
416,172,144250,1,0
335,178,144625,2,2,C|245:176|185:213,1,135
208,251,145250,2,0,C|170:286|131:299|84:297|44:283|15:251|-3:205,1,270
256,192,146250,12,0,147750
456,42,148250,2,0,C|237:41,1,180
278,95,149000,2,2,C|388:96,1,90
476,97,149750,1,0
476,151,150000,2,2,C|388:149,1,45
478,276,150750,5,0
468,329,151000,1,2
414,320,151250,1,0
423,266,151500,1,2
435,213,151750,1,0
382,199,152000,2,2,C|303:182,1,45
362,56,152750,5,0
308,48,153000,2,0,C|230:34,1,45
128,38,153750,2,2,C|42:74|-7:151,1,180
7,199,154500,1,0
38,242,154750,2,0,C|42:297|77:333,2,90
90,230,155500,2,2,C|178:228,1,45
393,308,157000,6,0,C|419:240,2,45,0|0|0
303,329,157750,2,2,C|371:159,1,180
410,60,158750,5,0
356,64,159000,1,2
303,75,159250,2,0,C|207:106,1,90
185,118,159625,2,2,C|94:153,2,90
240,323,161250,5,2
316,284,161625,1,2
386,243,162000,1,2
428,143,162500,1,0
375,132,162750,1,0
321,127,163000,1,0
267,125,163250,1,0
213,125,163500,2,6,C|147:123,1,45
114,126,163875,2,6,C|6:125,1,90
39,259,164750,6,0,C|164:261,1,90
156,261,165125,1,4
290,264,165750,2,0,C|411:266,1,90
407,264,166125,1,4
407,129,166750,6,4,C|286:129,2,90
461,129,167500,1,0
463,182,167750,1,0
409,185,168000,2,4,C|334:182,1,45
232,150,168750,6,4,C|107:148,1,90
114,149,169125,1,6
231,214,169750,2,6,C|346:218,1,90
347,216,170125,1,6
427,220,170500,1,0
425,273,170750,1,2
371,272,171000,1,0
373,325,171250,1,2
319,324,171500,2,4,C|247:326,1,45
71,242,172750,6,4,C|200:242,1,90
188,242,173125,1,4
278,342,173750,2,4,C|386:345,1,90
394,345,174125,1,4
397,210,174750,6,2,C|284:207,2,90
451,213,175500,1,2
453,159,175750,1,0
399,156,176000,2,4,C|322:155,1,45
314,331,177500,6,2,C|400:333,2,45
393,257,178250,1,2
386,204,178500,1,2
331,112,179000,1,0
278,115,179250,1,0
217,204,179750,5,2
323,229,180250,1,2
427,261,180750,1,2
417,154,181250,1,4
364,162,181500,1,0
256,192,181750,12,0,184000
