osu file format v7

[General]
AudioFilename: Hartes ciel, melenas walasye.mp3
AudioLeadIn: 0
PreviewTime: 139580
Countdown: 0
SampleSet: Soft
StackLeniency: 0.7
Mode: 0
LetterboxInBreaks: 1
SkinPreference:Default

[Editor]
DistanceSpacing: 0.800000011920929
BeatDivisor: 6
GridSize: 8

[Metadata]
Title:Hartes ciel, melenas walasye.
Artist:Haruka Shimotsuki
Creator:Astom
Version:Hard
Source:Ar tonelico II
Tags:world of love loving people hymnos game

[Difficulty]
HPDrainRate:6
CircleSize:5
OverallDifficulty:6
SliderMultiplier:1.3
SliderTickRate:3

[Events]
//Background and Video events
0,0,"BackG.jpg"
//Break Periods
2,80670,82244
2,150552,160832
//Storyboard Layer 0 (Background)
//Storyboard Layer 1 (Fail)
//Storyboard Layer 2 (Pass)
//Storyboard Layer 3 (Foreground)
Sprite,Foreground,Centre,"Timex2.png",320,240 S,0,105176,105411,1,1.37888 M,0,105176,105529,-102,120,317,120 R,0,105176,105529,0.08191954,-0.3686403 S,0,105411,105882,1.37888,1 R,0,105529,105882,-0.3686403,0 M,0,105529,106117,317,120,333,120 M,0,106117,106235,333,120,736,120
Sprite,Foreground,Centre,"scorebar-ki.png",320,240 M,0,105176,105882,-39,168,571,-20 S,0,105176,105882,0.5801601,0.3139201 R,0,105176,105882,0,2.8672
Sprite,Foreground,Centre,"scorebar-ki.png",320,240 M,0,105176,105882,-42,119,685,119 S,0,105176,105882,0.54944,1 R,0,105176,105882,0,3.66592
Sprite,Foreground,Centre,"scorebar-ki.png",320,240 M,0,105176,105882,-40,71,678,194 S,0,105176,105882,0.44704,1 R,0,105176,105882,0,-4.03456
Sprite,Foreground,Centre,"Timex2.png",320,240 M,0,217764,218235,324,-28,324,94 R,0,218117,218235,-0.1843202,-3.105402E-07 R,0,218235,218705,-3.105402E-07,-0.1843202 M,0,218235,232823,324,94 R,0,218705,218823,-0.1843202,0 R,0,218823,218941,0,0.1638402 R,0,218941,219058,0.1638402,0 R,0,219058,219411,0,0.002099028 R,0,219411,219529,0.002099028,-0.1610393 R,0,219529,219647,-0.1610393,0.002800687 R,0,219647,220117,0.002800687,-0.01384684 R,0,220117,220235,-0.01384684,0.2072537 R,0,220235,220352,0.2072537,-0.01802644 R,0,220352,220823,-0.01802644,0.0004502421 R,0,220823,220941,0.0004502421,-0.1587608 R,0,220941,221058,-0.1587608,0.005079219 R,0,221058,221529,0.005079219,-0.006118762 R,0,221529,221647,-0.006118762,0.1549158 R,0,221647,221764,0.1549158,-0.008924201 R,0,221764,222235,-0.008924201,-0.004437391 R,0,222235,222352,-0.004437391,-0.2081228 R,0,222352,222470,-0.2081228,-0.003322833 R,0,222470,222941,-0.003322833,-0.02139602 R,0,222941,223058,-0.02139602,-0.1692455 R,0,223058,223176,-0.1692455,-0.02588554 R,0,223176,223647,-0.02588554,-0.03659043 R,0,223647,223764,-0.03659043,-0.0392496 R,0,223764,223882,-0.0392496,0.001710478 R,0,223882,224352,0.001710478,0.2017417 R,0,224352,224470,0.2017417,-0.1732372 R,0,224470,224588,-0.1732372,0.1954027 R,0,224588,225058,0.1954027,0.004094379 R,0,225058,225176,0.004094379,-0.187122 R,0,225176,225294,-0.187122,-0.00280209 R,0,225294,225764,-0.00280209,0.1462854 R,0,225764,225882,0.1462854,-0.1820289 R,0,225882,225999,-0.1820289,0.02277089 R,0,225999,226470,0.02277089,0.01297267 R,0,226470,226588,0.01297267,-0.3376422 R,0,226588,226705,-0.3376422,0.01051791 R,0,226705,227176,0.01051791 R,0,227176,227294,0.01051791,0.112918 R,0,227294,227411,0.112918,0.01051791 R,0,227411,227882,0.01051791,0.01612642 R,0,227882,227999,0.01612642,-0.1668005 R,0,227999,228117,-0.1668005,0.01751962 S,0,228588,228705,1,1.24576 S,0,228705,228823,1.24576,1 S,0,228823,229294,1,1.016683 S,0,229294,229411,1.016683,0.8160271 S,0,229411,229529,0.8160271,1.020827 S,0,229529,229999,1.020827,1.015278 S,0,229999,230117,1.015278,1.147005 S,0,230117,230235,1.147005,1.013885 S,0,230235,230705,1.013885,1.028313 S,0,230705,230823,1.028313,0.8066549 S,0,230823,230941,0.8066549,1.031935 S,0,230941,231411,1.031935,1.013623 S,0,231411,231529,1.013623,1.142145 S,0,231529,231647,1.142145,1.009025 S,0,231647,232117,1.009025,1.009927 S,0,232117,232235,1.009927,0.846313 S,0,232235,232352,0.846313,1.010153 M,0,232823,232941,324,94,313,94 M,0,232941,233058,313,94,324,94 F,0,232941,235176,1,0 M,0,233058,233529,324,94 M,0,233529,233647,324,94,337,94 M,0,233647,233764,337,94,324,94 M,0,233764,234235,324,94,325,94 M,0,234235,234352,325,94,317,94 M,0,234352,234705,317,94,325,94 M,0,234705,234941,325,94 M,0,234941,235058,325,94,337,94 M,0,235058,235176,337,94,325,94
//Storyboard Sound Samples
//Background Colour Transformations
3,100,255,255,255

[TimingPoints]
0,705.882352941176,4,2,0,40,1,0
105882,-50,4,2,0,40,0,1
116470,-100,4,2,0,40,0,0
218823,-50,4,2,0,40,0,1
235058,-100,4,2,0,40,0,1
251999,-100,4,2,0,40,0,0

[Colours]
Combo1 : 255,128,192
Combo2 : 255,0,128
Combo3 : 163,31,241
Combo4 : 255,0,0

[HitObjects]
256,40,10588,2,0,B|280:64|272:96|248:136|248:136,1,86.6666666666666
216,144,11294,1,0
184,176,11529,1,0
208,216,11764,1,0
256,216,11999,2,0,B|288:216|312:232|312:272|312:272,1,86.6666666666667
304,312,12705,1,0
264,328,12941,1,0
224,328,13176,1,0
192,304,13411,1,2
152,224,13882,5,0
176,184,14117,1,0
216,184,14352,1,0
256,200,14588,1,0
256,240,14823,1,2
256,240,15294,1,0
256,200,15529,1,0
296,184,15764,1,0
336,184,15999,1,0
360,224,16235,1,2
288,104,16941,5,0
248,128,17176,1,0
288,152,17411,1,0
328,128,17647,2,0,B|368:152|384:176|392:208,1,86.6666666666667
408,224,18352,1,0
400,264,18588,1,0
360,288,18823,1,0
320,264,19058,1,2
256,184,19529,5,0
216,160,19764,1,0
176,144,19999,1,0
136,168,20235,1,0
176,192,20470,1,2
176,192,20941,1,0
216,208,21176,1,0
256,184,21411,1,0
296,160,21647,1,0
336,176,21882,1,2
336,32,22588,5,0
296,56,22823,1,0
336,72,23058,1,0
376,56,23294,2,0,B|392:80|368:112|336:136|336:136,1,86.6666666666667
304,144,23999,1,0
296,184,24235,1,0
336,200,24470,1,0
368,232,24705,1,2
240,336,25411,5,0
208,304,25647,1,0
240,272,25882,1,0
272,240,26117,2,0,B|296:224|304:208|304:184|288:160|288:160,1,86.6666666666667
290,164,26823,2,0,B|264:128|224:120|216:136|208:144|208:144,1,86.6666666666667
216,136,27529,1,2
136,256,28235,5,0
96,232,28470,1,0
80,192,28705,1,0
104,152,28941,2,0,B|128:144|144:144|168:160|192:192|192:192,1,86.6666666666667
216,208,29647,1,0
200,248,29882,1,0
160,240,30117,1,0
136,200,30352,6,0,B|104:184|104:136|152:120|152:120,1,86.6666666666667
160,88,31058,2,0,B|184:64|224:64|240:80|240:80,1,86.6666666666667
272,112,31764,2,0,B|305:100|339:134|317:179|317:179,1,86.6666666666667
312,208,32470,2,0,B|304:232|288:264|256:272|232:272|216:264|200:248|200:248,1,130
256,48,33882,5,0
224,80,34117,1,0
256,112,34352,1,0
288,144,34588,2,0,B|336:192|312:224|296:232|296:232,1,86.6666666666667
272,248,35294,1,0
232,256,35529,1,0
240,208,35764,1,0
200,184,35999,1,2
256,80,36470,5,0
296,104,36705,1,0
328,136,36941,1,0
352,176,37176,1,0
328,216,37411,2,0,B|328:248|272:264|272:192|272:192,1,86.6666666666667
232,200,38117,1,0
184,208,38352,1,0
160,168,38588,1,0
192,136,38823,1,2
96,24,39529,5,0
64,56,39764,1,0
96,88,39999,1,0
96,128,40235,2,0,B|96:216|96:216,1,86.6666666666667
96,256,40941,1,0
128,288,41176,1,0
96,320,41411,1,0
64,288,41647,1,2
128,208,42117,5,0
160,176,42352,1,0
192,208,42588,1,0
224,240,42823,1,0
256,208,43058,1,2
256,208,43529,1,0
288,240,43764,1,2
320,208,43999,1,0
352,176,44235,1,0
384,208,44470,1,2
384,352,45176,5,0
344,320,45411,1,0
328,272,45647,1,0
360,232,45882,2,2,B|368:208|408:184|408:264|408:264,1,86.6666666666667
448,232,46588,1,0
480,272,46823,1,0
464,320,47058,1,0
424,352,47294,1,2
312,240,47999,5,0
280,280,48235,1,0
232,304,48470,1,0
192,272,48705,2,2,B|168:232|144:208|144:192,1,86.6666666666667
168,152,49411,2,0,B|232:80|232:80,1,86.6666666666667
256,48,50117,1,2
256,48,50823,5,0
304,64,51058,1,0
352,88,51294,1,0
392,120,51529,2,2,B|400:144|408:160|416:184|432:216|432:216,1,86.6666666666667
424,200,52235,1,2
400,248,52470,1,0
344,264,52705,1,0
304,224,52941,1,2
224,296,53411,5,0
192,256,53647,1,2
96,136,54352,1,2
192,16,55058,1,2
288,136,55764,6,2,B|288:184|272:208|240:224|224:224|200:208|200:208,1,130
104,168,56941,1,0
64,200,57176,1,2
104,232,57411,1,0
144,256,57647,1,0
184,232,57882,2,0,B|216:256|240:264|256:224|256:224,1,86.6666666666667
256,176,58588,1,2
376,80,59294,6,0,B|376:64|400:40|416:24|456:32|456:32,1,86.6666666666667
488,40,59999,1,2
472,88,60235,1,0
440,128,60470,1,0
392,152,60705,2,0,B|376:176|368:208|368:224|376:240|376:240,1,86.6666666666667
400,280,61411,1,2
304,320,61882,5,0
256,296,62117,1,0
232,248,62352,1,0
256,200,62588,1,0
304,224,62823,1,2
352,200,63058,1,0
376,248,63294,1,0
352,296,63529,2,0,B|352:320|296:336|272:344|272:344,1,86.6666666666667
232,320,64235,1,2
256,176,64941,5,0
232,128,65176,1,0
208,176,65411,1,0
232,224,65647,1,2
280,248,65882,1,0
256,296,66117,1,0
208,272,66352,1,2
256,192,67529,12,2,69882
256,192,70588,5,0
328,120,71058,1,0
368,160,71294,1,2
344,208,71529,1,0
320,256,71764,1,0
272,280,71999,1,2
224,256,72235,2,2,B|184:216|184:216,2,43.3333333333333
272,184,73176,5,0
272,128,73411,2,0,B|240:128|224:104|232:72|264:64|264:64,1,86.6666666666667
304,56,74117,1,2
328,104,74352,1,0
304,152,74588,1,0
352,176,74823,1,2
112,192,75529,5,2
136,144,75764,1,0
184,120,75999,1,0
232,144,76235,1,2
256,192,76470,1,0
256,192,76705,1,0
280,144,76941,1,2
328,120,77176,1,0
376,144,77411,1,0
400,192,77647,2,0,B|408:224|401:270|383:305|336:336|296:360|256:392|256:392|216:360|176:336|136:304|111:272|104:224|121:174|121:174,1,520
256,192,83294,5,0
256,104,83647,1,2
256,104,83764,1,2
256,48,83999,1,0
296,152,84470,1,0
256,192,84705,1,0
296,232,84941,1,0
256,272,85176,1,0
216,232,85411,1,2
176,160,85764,5,2
176,160,85882,1,2
176,160,86117,1,2
136,120,86352,1,0
176,80,86588,1,0
216,120,86823,2,0,B|240:104|248:80|240:56|216:32|216:32,1,86.6666666666667
280,24,87529,1,0
320,64,87764,1,0
320,120,87999,1,0
280,160,88235,1,2
256,240,88588,5,2
256,240,88705,1,2
256,192,88941,12,2,91058
256,192,91411,5,2
256,192,91529,1,2
256,136,91764,1,0
304,160,91999,1,0
304,216,92235,1,0
256,248,92470,2,0,B|216:240|200:224|200:192|200:176|200:176,1,86.6666666666667
232,144,93176,1,0
272,104,93411,1,0
328,112,93647,1,0
360,160,93882,1,2
360,216,94117,5,2
320,256,94352,1,2
264,256,94588,5,0
208,256,94823,1,0
168,216,95058,1,0
208,176,95294,2,0,B|240:168|280:136|296:128|296:128,1,86.6666666666667
336,128,95999,1,0
336,128,96235,1,0
384,160,96470,1,0
336,192,96705,1,2
256,272,97176,5,2
208,240,97411,2,0,B|176:216|152:176|160:152|160:152,1,86.6666666666667
152,112,98117,2,0,B|160:72|200:64|224:96|224:96,1,86.6666666666667
264,128,98823,2,0,B|272:88|320:80|336:112|336:112,1,86.6666666666667
368,152,99529,1,2
256,296,100235,5,0
208,264,100470,1,0
176,216,100705,1,0
224,184,100941,2,0,B|256:216|256:216|288:184|288:184,1,86.6666666666667
336,216,101647,1,2
304,264,101882,1,2
256,296,102117,1,2
256,296,102352,1,2
256,192,102823,12,2,105176
256,192,105882,6,6,B|128:104|120:128|104:192|120:240|192:264|192:264,1,260
256,192,107058,1,2
304,160,107294,1,2
360,152,107529,1,2
368,208,107764,1,2
336,256,107999,1,2
256,336,108470,5,2
208,304,108705,1,2
256,272,108941,1,2
304,304,109176,1,2
312,360,109411,2,2,B|368:360|392:328|392:272|392:224|392:224,1,173.333333333333
392,176,110117,1,2
336,160,110352,1,2
368,112,110588,1,2
424,96,110823,1,2
256,80,111529,5,2
224,128,111764,1,2
256,176,111999,1,2
232,224,112235,2,2,B|152:224|120:288|208:352|248:296|256:272|256:272,1,173.333333333333
288,288,112941,1,2
312,240,113176,1,2
336,288,113411,1,2
360,240,113647,1,2
256,192,114117,12,2,116470
256,88,116823,5,2
256,88,116941,1,2
256,144,117176,5,0
296,184,117411,1,0
256,224,117647,1,0
216,184,117882,2,0,B|192:216|208:240|208:264|224:272|224:272,1,86.6666666666667
272,264,118588,1,0
328,264,118823,1,0
288,304,119058,1,0
248,344,119294,1,2
256,192,119999,5,0
216,152,120235,1,0
176,192,120470,1,0
216,232,120705,2,0,B|256:224|280:224|296:192|296:192,1,86.6666666666667
312,152,121411,2,2,B|352:144|368:160|384:168|384:184|384:184,1,86.6666666666667
368,232,122117,1,2
432,88,122823,5,2
392,48,123058,1,0
352,88,123294,1,0
312,48,123529,2,0,B|272:56|256:48|272:120|272:120,1,86.6666666666667
304,152,124235,1,2
352,184,124470,1,0
400,152,124705,1,0
432,104,124941,1,0
336,56,125411,5,0
280,40,125647,1,2
232,72,125882,2,2,B|208:88|208:112|208:112,1,43.3333333333333
232,160,126352,1,0
280,128,126588,2,2,B|296:112|328:128|328:128|328:120,1,43.3333333333333
344,176,127058,1,0
320,224,127294,2,2,B|288:248|272:216|272:216,1,43.3333333333333
232,224,127764,6,2,B|160:208|160:232|160:272|184:280|208:248|208:248,1,130
112,216,128941,1,0
80,168,129176,1,2
136,176,129411,1,0
176,136,129647,1,0
208,88,129882,1,2
256,192,130352,1,0
256,192,130588,1,2
232,248,130823,6,2,B|232:280|208:288|208:288|216:288,1,43.3333333333333
168,320,131294,2,2,B|152:336|120:328|120:328,1,43.3333333333333
72,312,131764,1,0
40,264,131999,1,0
72,216,132235,1,0
120,184,132470,1,0
168,216,132705,2,2,B|216:256|216:256,1,43.3333333333333
184,296,133176,1,0
240,288,133411,1,2
256,168,133882,5,0
216,128,134117,1,2
272,112,134352,1,0
304,160,134588,1,0
272,208,134823,1,2
216,192,135058,1,0
232,248,135294,1,0
264,296,135529,2,0,B|256:320|296:336|336:304|336:304,1,86.6666666666667
360,256,136235,1,2
304,256,136470,6,2,B|320:224|296:208|296:208,1,43.3333333333333
256,184,136941,1,0
256,184,137176,1,0
224,136,137411,1,0
224,136,137647,1,0
192,184,137882,1,0
192,184,138117,1,0
224,232,138352,2,2,B|224:264|176:256|168:224|120:216|120:264|120:264|128:264,1,130
256,192,139529,12,2,141882
384,216,142588,6,0,B|288:168|288:168,1,86.6666666666667
256,160,143294,2,0,B|192:120|192:72|216:48|256:80|256:80|296:48|320:72|320:120|280:128|280:128,1,260
256,256,145176,5,0
256,256,145411,2,0,B|200:256|192:224|184:200|184:200,1,86.6666666666667
232,176,146117,1,2
288,192,146352,1,2
320,240,146588,1,2
288,288,146823,1,2
256,144,147529,5,2
216,184,147764,1,0
248,232,147999,1,0
304,216,148235,1,2
312,160,148470,1,0
256,144,148705,1,0
216,184,148941,1,2
248,232,149176,1,0
304,216,149411,1,0
304,216,149647,2,2,B|360:240|344:296|312:320|296:336|296:336,1,130
256,192,161882,5,2
256,192,161999,1,2
256,192,162117,1,2
256,192,162235,1,2
256,192,162352,1,4
256,56,162823,1,0
256,56,163058,1,2
256,192,163529,1,0
256,192,163764,5,2
256,224,163882,1,2
256,256,163999,1,2
256,288,164117,1,2
256,320,164235,1,2
256,376,164470,1,4
312,248,164941,1,0
312,248,165176,5,2
312,192,165411,1,2
312,192,165529,1,2
312,192,165647,1,2
312,192,165764,1,2
312,192,165882,1,4
312,136,166117,5,0
360,168,166352,1,0
360,224,166588,1,2
312,248,166823,1,0
264,224,167058,1,0
264,168,167294,1,4
120,56,167999,5,2
112,88,168117,1,2
104,120,168235,1,2
104,152,168352,1,2
104,184,168470,1,2
120,248,168705,1,2
136,312,168941,1,4
200,312,169176,1,0
200,312,169411,1,2
264,312,169647,5,2
272,280,169764,1,2
280,248,169882,1,2
288,216,169999,1,2
288,184,170117,1,6
280,120,170352,1,2
224,88,170588,1,0
224,88,170823,5,2
184,128,171058,1,0
135,156,171294,1,0
83,130,171529,1,2
80,188,171764,1,0
131,213,171999,1,0
180,185,172235,1,2
184,128,172470,1,0
132,102,172705,1,0
128,160,172941,1,4
256,192,173647,12,2,175764
256,192,176470,5,0
256,136,176705,1,0
208,160,176941,1,0
208,216,177176,1,0
208,216,177647,1,0
256,248,177882,1,0
304,216,178117,1,0
304,160,178352,1,0
256,136,178588,1,0
256,192,179294,12,2,181411
256,96,182117,5,0
296,136,182352,1,0
256,176,182588,1,0
216,136,182823,1,0
216,136,183294,1,0
184,184,183529,1,0
200,240,183764,1,0
152,272,183999,1,0
104,240,184235,1,0
256,192,184941,12,2,187058
304,168,187764,5,0
256,136,187999,1,0
256,192,188235,1,0
256,248,188470,1,0
256,248,188941,1,0
312,248,189176,1,0
280,296,189411,1,0
224,296,189647,1,0
200,248,189882,1,0
256,192,190588,12,2,192705
256,264,193411,5,0
200,248,193647,1,0
168,200,193882,1,0
208,160,194117,1,0
288,216,194588,1,0
320,176,194823,1,0
296,128,195058,1,0
256,88,195294,1,0
256,144,195529,1,0
256,320,196235,6,2,B|304:304|336:264|336:264,1,86.6666666666667
368,232,196941,1,2
400,184,197176,1,2
400,128,197411,1,0
360,88,197647,1,0
312,120,197882,1,0
344,168,198117,1,0
344,168,198352,1,2
224,288,199058,5,0
176,256,199294,1,0
224,224,199529,1,0
176,192,199764,1,2
176,88,200235,1,0
224,120,200470,1,0
272,152,200705,1,0
272,208,200941,1,0
320,184,201176,1,2
320,128,201411,5,2
256,192,201882,12,2,202588
256,192,203058,5,0
256,136,203294,1,0
256,80,203529,1,0
256,24,203764,1,0
256,24,203999,1,2
160,144,204705,5,0
200,184,204941,1,0
256,192,205176,1,0
312,184,205411,1,2
312,184,205882,1,0
352,144,206117,1,2
312,184,206352,1,0
256,192,206588,1,0
256,248,206823,5,2
256,304,207058,1,2
256,360,207294,1,2
208,328,207529,5,0
168,288,207764,1,0
208,328,207999,1,0
256,360,208235,1,2
256,360,208705,5,0
304,328,208941,1,2
344,288,209176,1,0
304,328,209411,1,0
256,360,209647,1,2
256,192,210352,6,2,B|136:192|136:168|128:96|200:112|200:112|176:72|232:40|288:48|280:112|272:168|272:168,1,390
273,154,212705,1,2
256,264,213176,5,0
208,232,213411,1,0
176,184,213647,1,0
160,128,213882,1,2
192,80,214117,1,2
240,48,214352,1,0
296,64,214588,1,2
328,112,214823,1,0
296,160,215058,1,0
248,128,215294,1,2
256,192,215999,12,2,218117
256,192,218823,5,4
320,192,219058,1,0
368,240,219294,1,0
368,304,219529,2,0,B|368:352|288:368|264:368|232:264|232:264,1,173.333333333333
208,240,220235,1,2
176,296,220470,1,2
144,240,220705,1,2
112,296,220941,1,2
256,192,221647,5,8
224,136,221882,1,8
168,104,222117,1,8
112,136,222352,2,0,B|112:192|112:232|80:248|40:248|40:184|40:184,1,173.333333333333
40,120,223058,2,4,B|40:16|88:16|112:24|112:128|112:128,1,173.333333333333,2|2
152,144,223764,1,8
256,192,224470,5,2
296,136,224705,1,2
344,88,224941,1,2
408,72,225176,1,2
384,136,225411,1,2
336,184,225647,1,2
272,192,225882,1,2
216,152,226117,1,2
272,112,226352,1,2
328,152,226588,2,2,B|368:256|424:200|408:336|408:336,1,173.333333333333
360,344,227294,5,2
328,288,227529,2,8,B|248:336|248:336,1,86.6666666666667
192,360,227999,1,2
208,296,228235,2,8,B|240:208|240:208,1,86.6666666666667
256,152,228705,1,2
32,304,229411,6,2,B|32:40|32:40,1,260
88,80,230352,1,8
88,144,230588,1,8
88,208,230823,1,8
88,272,231058,1,8
32,304,231294,1,8
32,240,231529,2,2,B|32:64|32:64,1,173.333333333333
88,32,232235,1,8
128,192,232941,6,2,B|216:192|216:192|312:192,1,173.333333333333
336,136,233647,1,2
368,192,233882,1,2
336,248,234117,1,2
296,192,234352,2,2,B|272:192|256:192|216:192|112:192|112:192,1,173.333333333333
56,192,235058,1,4
256,192,235529,12,4,237882
256,192,238588,5,8
256,128,238823,1,8
312,160,239058,1,8
312,224,239294,1,8
256,256,239529,1,8
200,224,239764,1,8
200,160,239999,1,8
256,232,241176,5,2
256,168,241411,2,2,B|240:136|280:120|240:96|256:64|256:64,1,86.6666666666667
256,192,242117,12,4,243529
0,344,244235,5,2
64,320,244470,1,2
120,288,244705,1,2
152,232,244941,1,2
152,168,245176,1,2
120,112,245411,1,2
56,112,245647,1,2
0,144,245882,1,2
0,208,246117,1,2
0,208,246352,1,2
128,208,246823,5,2
128,208,247058,2,2,B|160:160|208:152|208:152,1,86.6666666666667
264,184,247764,1,2
312,240,247999,1,2
360,184,248235,1,2
432,184,248470,1,4
256,192,249176,5,2
256,192,249411,1,2
256,192,249647,1,2
256,192,249882,1,2
256,192,250117,1,2
200,152,250352,1,2
200,152,250588,1,2
256,112,250823,1,2
256,112,251058,1,2
256,112,251294,1,2
312,152,251529,5,8
312,224,251764,1,8
256,272,251999,1,4
