osu file format v7

[General]
AudioFilename: Hartes ciel, melenas walasye.mp3
AudioLeadIn: 0
PreviewTime: 139580
Countdown: 0
SampleSet: Soft
StackLeniency: 0.7
Mode: 0
LetterboxInBreaks: 1
SkinPreference:Default

[Editor]
DistanceSpacing: 0.800000011920929
BeatDivisor: 3
GridSize: 8

[Metadata]
Title:Hartes ciel, melenas walasye.
Artist:Haruka Shimotsuki
Creator:Astom
Version:Easy
Source:Ar tonelico II
Tags:world of love loving people hymnos game

[Difficulty]
HPDrainRate:1
CircleSize:3
OverallDifficulty:3
SliderMultiplier:1.2
SliderTickRate:1

[Events]
//Background and Video events
0,0,"BackG.jpg"
//Break Periods
2,80670,81854
2,116669,121383
//Storyboard Layer 0 (Background)
//Storyboard Layer 1 (Fail)
//Storyboard Layer 2 (Pass)
//Storyboard Layer 3 (Foreground)
//Storyboard Sound Samples
//Background Colour Transformations
3,100,255,255,255

[TimingPoints]
0,705.882352941176,4,2,0,26,1,0
105882,-100,4,2,0,26,0,1
116470,-100,4,2,0,26,0,0

[Colours]
Combo1 : 255,128,192
Combo2 : 255,0,128
Combo3 : 163,31,241
Combo4 : 255,0,0

[HitObjects]
256,32,10588,2,0,B|256:159|256:159,1,120
256,192,11529,2,0,B|256:256|256:256,2,40
184,184,12470,1,0
144,184,12705,2,0,B|88:184|88:184,3,40
40,184,13882,6,0,B|40:240|40:240,4,40
40,120,15294,1,0
40,80,15529,2,2,B|40:32|40:32,3,40
152,40,16941,6,2,B|96:40|96:40,2,40
192,40,17647,2,0,B|288:40|288:40,1,80,0|0
312,40,18352,2,0,B|376:40|376:40|408:72|416:96|416:112|416:112,1,120
408,168,19529,5,0
408,208,19764,2,0,B|408:264|408:328|384:352|312:352|312:352,1,200
264,352,21176,2,2,B|192:352|192:352,3,40
256,256,22588,6,0,B|304:304|304:304,2,40
224,224,23294,2,0,B|192:192|168:208|144:224|136:240|136:240,1,80
120,248,23999,2,2,B|56:264|120:288,3,40
48,192,25411,6,0,B|48:104|48:104,1,80
48,72,26117,2,0,B|64:24|128:40|128:40,1,80
144,64,26823,2,0,B|144:96|144:128|144:168|144:168,1,80
144,184,27529,1,2
112,264,28235,5,0
112,304,28470,1,0
112,344,28705,1,0
144,344,28941,2,0,B|176:344|232:344|232:344,1,80
256,336,29647,1,0
256,296,29882,1,0
256,256,30117,1,0
256,216,30352,2,0,B|256:168|256:144|256:112|256:112,1,80
256,192,31058,12,2,33176
256,40,33882,6,2,B|200:56|192:88|280:144|280:144,1,120
256,224,35294,2,2,B|320:288|232:336|232:336,1,120
176,328,36470,5,0
176,328,36705,2,2,B|128:328|88:320|72:272|64:256|80:216|104:192|136:176|176:160|264:136|264:136,1,360
344,200,39529,6,0,B|376:200|408:176|424:144|424:88|368:40|368:40,1,200
336,48,40941,2,0,B|280:48|280:48,3,40
256,96,42117,5,0
256,96,42352,2,2,B|200:120|160:152|168:208|200:256|232:280|280:280|384:216|320:96|248:184|248:184,1,360
328,104,45176,5,0
344,136,45411,1,0
360,168,45647,1,0
376,192,45882,2,0,B|344:232|312:288|384:320|440:328|448:280|464:248|416:232|416:232,1,240
424,120,47999,6,2,B|480:120|480:120|480:112,2,40
384,120,48705,2,2,B|320:96|280:112|256:152|264:192|304:224|344:208|368:192|368:192,1,240
376,288,50823,6,0,B|376:336|312:360|232:360|192:288|192:288,1,200
184,280,52235,2,0,B|150:243|158:211|174:179|222:163|222:163,1,120
256,192,53411,12,2,55058
448,320,55764,6,0,B|344:296|312:264|280:208|280:208,1,200
256,184,57176,2,0,B|256:120|256:120|248:120,2,40
216,200,57882,2,0,B|176:200|152:200|144:136|144:136,1,80,0|0
152,128,58588,1,2
88,208,59294,6,2,B|144:216|136:264|96:296|72:296|32:280|0:264|16:184|40:120|96:56|96:56,1,360
152,64,61882,5,0
192,64,62117,2,2,B|248:64|248:64|240:64,6,40
176,128,63999,1,0
176,128,64235,1,2
256,200,64941,6,2,B|248:208|216:192|216:192,5,40
184,176,66352,2,2,B|144:160|128:136|120:72|120:72,1,120
256,192,67529,12,2,69882
256,232,70588,6,0,B|144:144|184:80|240:96|256:136|256:136|288:80|344:96|352:160|280:192|280:192,1,360
336,232,73176,5,0
328,272,73411,2,2,B|304:336|240:336|240:336,1,80
232,328,74117,2,2,B|200:328|176:328|144:296|144:232|144:232,1,120
256,192,75529,6,2,B|256:136|256:136,8,40
256,192,77647,12,4,80470
256,320,83294,6,0,B|208:280|288:272|256:184|256:184|256:128|256:128,1,200
256,88,84705,2,0,B|256:40|256:40,3,40
328,40,85882,5,0
368,40,86117,2,2,B|368:128|368:128,1,80
368,160,86823,2,2,B|312:224|312:224,1,80
272,224,87529,2,0,B|232:208|232:208|232:240|232:240|176:224|176:224,1,120,0|0
256,192,88941,12,2,91058
200,248,91529,6,0,B|248:208|248:208|240:208,3,40
264,192,92470,2,0,B|328:144|352:128|400:112|440:152|432:192|384:224|384:224,1,240
312,288,94588,6,2,B|344:256|368:256|416:296|440:320|416:352|384:384|336:384|280:408|200:296|200:296,1,360
136,224,97411,6,2,B|165:258|153:296|108:307|67:302|44:270|51:221|81:181|112:140|152:32|152:32,1,360
256,232,100235,6,0,B|144:144|184:80|240:96|256:136|256:136|288:80|344:96|352:160|280:192|280:192,1,360,0|4
256,192,103058,12,2,105176
256,192,105882,6,4,B|272:160|320:160|344:200|328:224|304:272|232:264|232:264,1,200
192,264,107294,2,0,B|128:264|128:264,3,40
152,200,108470,2,2,B|152:144|152:144,3,40
152,120,109411,2,2,B|104:152|56:112|56:112,1,80,2|2
72,88,110117,2,2,B|48:56|96:8|160:24|160:24,1,120
232,72,111529,6,4,B|224:8|328:8|296:80|392:136|184:112|160:152|312:280|312:280,1,360
352,320,114117,6,2,B|416:360|456:344|472:288|472:288,1,120
456,272,115058,2,2,B|448:216|392:224|392:224,1,80
360,216,115764,2,4,B|360:176|336:168|296:200|296:200|248:176,1,120
256,192,122823,5,2
256,288,123529,1,2
352,288,124235,1,2
352,192,124941,2,0,B|352:152|352:104|352:104,1,80
352,72,125647,5,2
256,72,126352,1,2
160,72,127058,1,4
160,168,127764,6,4,B|160:208|240:256|240:256,1,120
304,256,128941,2,0,B|376:256|392:256|408:200|408:200,1,120
400,168,129882,2,2,B|368:136|296:152,1,80
288,144,130588,1,6
256,192,131294,12,4,133411
256,136,133882,6,2,B|256:72|256:72|256:64,6,40
256,176,135529,2,2,B|256:264|256:264,1,80
256,296,136235,1,4
352,280,136941,6,2,B|391:321|429:297|434:241|445:194|329:200|238:237|160:264|160:264,1,360
256,192,139529,12,2,141882
256,232,142588,6,0,B|144:144|184:80|240:96|256:136|256:136|288:80|344:96|352:160|280:192|280:192,1,360
336,232,145176,5,0
336,272,145411,2,0,B|336:344|240:352|104:344|104:344,1,240
88,248,147529,6,0,B|24:248|24:248,2,40
112,216,148235,2,2,B|144:160|144:160|200:240|200:240,1,160
224,272,149411,1,0
248,304,149647,2,4,B|272:352|312:336|336:312|336:280|336:280,1,120
