osu file format v6

[General]
AudioFilename: Haru - Voyage 1969 (Instrumental).mp3
AudioLeadIn: 496
PreviewTime: 51514
Countdown: 0
SampleSet: Soft
StackLeniency: 0.4
Mode: 0
LetterboxInBreaks: 1

[Editor]
DistanceSpacing: 1.10000002384186
BeatDivisor: 2
GridSize: 8

[Metadata]
Title:Voyage 1969 (Instrumental)
Artist:Haru
Creator:Nexy
Version:Normal
Source:Touhou
Tags:Techno Touhou Instrumental Viotex

[Difficulty]
HPDrainRate:5
CircleSize:4
OverallDifficulty:5
SliderMultiplier:1.4
SliderTickRate:0.5

[Events]
//Background and Video events
0,0,"Touhou.png"
//Break Periods
2,41433,50290
2,75793,83111
2,100921,115931
2,141946,146957
//Storyboard Layer 0 (Background)
//Storyboard Layer 1 (Fail)
//Storyboard Layer 2 (Pass)
//Storyboard Layer 3 (Foreground)
//Storyboard Sound Samples
//Background Colour Transformations
3,100,163,162,255

[TimingPoints]
1747,512.820512820513,4,2,1,30,1,0
16490,-100,4,1,1,40,0,0
16875,-100,4,2,1,70,0,0
17388,-100,4,1,1,40,0,0
17516,-100,4,2,1,70,0,0
18541,-100,4,1,1,40,0,0
18798,-100,4,2,1,70,0,0
19311,-100,4,1,1,40,0,0
19567,-100,4,2,1,70,0,0
20593,-100,4,1,1,40,0,0
20977,-100,4,2,1,70,0,0
21362,-100,4,1,1,40,0,0
21747,-100,4,2,1,70,0,0
22900,-100,4,1,1,40,0,0
23285,-100,4,2,1,70,0,0
23541,-100,4,1,1,40,0,0
23926,-100,4,2,1,70,0,0
24695,-100,4,1,1,40,0,0
25336,-100,4,2,1,70,0,0
25464,-100,4,1,1,40,0,0
25721,-100,4,2,1,70,0,0
26747,-100,4,1,1,40,0,0
27388,-100,4,2,1,70,0,0
27516,-100,4,1,1,40,0,0
27772,-100,4,2,1,70,0,0
28798,-100,4,1,1,40,0,0
29054,-100,4,2,1,70,0,0
29567,-100,4,1,1,40,0,0
29823,-100,4,2,1,70,0,0
31105,-100,4,1,1,40,0,0
31362,-100,4,2,1,70,0,0
31618,-100,4,1,1,40,0,0
31875,-100,4,2,1,70,0,0
32900,-100,4,1,1,40,0,0
33285,-100,4,2,1,100,0,0
33798,-100,4,1,1,40,0,0
33926,-100,4,2,1,100,0,0
34952,-100,4,1,1,40,0,0
35593,-100,4,2,1,100,0,0
35710,-100,4,1,1,40,0,0
35977,-100,4,2,1,100,0,0
37003,-100,4,1,1,40,0,0
37259,-100,4,2,1,100,0,0
37772,-100,4,1,1,40,0,0
38029,-100,4,2,1,100,0,0
41234,-100,4,1,1,40,0,0
51362,-100,4,1,1,70,0,0
51618,-100,4,2,1,100,0,0
53541,-100,4,1,1,70,0,0
53670,-100,4,2,1,100,0,0
54695,-100,4,1,1,70,0,0
54952,-100,4,2,1,100,0,0
55464,-100,4,1,1,70,0,0
55721,-100,4,2,1,100,0,0
57644,-100,4,1,1,70,0,0
57772,-100,4,2,1,100,0,0
59567,-100,4,1,1,70,0,0
60208,-100,4,2,1,100,0,0
60977,-100,4,1,1,70,0,0
61234,-100,4,2,1,100,0,0
61618,-100,4,1,1,70,0,0
62003,-100,4,2,1,100,0,0
63029,-100,4,1,1,70,0,0
63285,-100,4,2,1,100,0,0
63670,-100,4,1,1,70,0,0
63926,-100,4,2,1,100,0,0
65849,-100,4,1,1,70,0,0
65977,-100,4,2,1,100,0,0
67772,-100,4,1,1,70,0,0
68029,-100,4,2,1,100,0,0
69054,-100,4,1,1,70,0,0
69311,-100,4,2,1,100,0,0
69823,-100,4,1,1,70,0,0
70080,-100,4,2,1,100,0,0
71105,-100,4,1,1,70,0,0
71490,-100,4,2,1,100,0,0
71875,-100,4,1,1,70,0,0
72131,-100,4,2,1,100,0,0
74054,-100,4,1,1,70,0,0
74182,-100,4,2,1,100,0,0
84182,-100,4,2,1,70,0,0
86234,-100,4,1,1,70,0,0
86618,-100,4,2,1,70,0,0
87644,-100,4,1,1,70,0,0
87772,-100,4,2,1,70,0,0
90336,-100,4,1,1,70,0,0
90721,-100,4,2,1,70,0,0
91747,-100,4,1,1,70,0,0
91875,-100,4,2,1,70,0,0
94439,-100,4,1,1,70,0,0
94823,-100,4,2,1,70,0,0
95849,-100,4,1,1,70,0,0
95977,-100,4,2,1,70,0,0
100721,-100,4,1,1,70,0,0
117003,-100,4,2,1,100,0,0
149823,-100,4,1,1,70,0,0
150080,-100,4,2,1,100,0,0
151105,-100,4,1,1,70,0,0
151490,-100,4,2,1,100,0,0
152003,-100,4,1,1,70,0,0
152131,-100,4,2,1,100,0,0
153157,-100,4,1,1,70,0,0
153541,-100,4,2,1,100,0,0
154054,-100,4,1,1,70,0,0
154567,-100,4,2,1,100,0,0
155208,-100,4,1,1,70,0,0
155464,-100,4,2,1,100,0,0
158029,-100,4,1,1,70,0,0
158285,-100,4,2,1,100,0,0
159439,-100,4,1,1,70,0,0
159567,-100,4,2,1,100,0,0
162259,-100,4,1,1,70,0,0
162388,-100,4,2,1,100,0,0
166362,-100,4,1,1,70,0,0
166747,-100,4,2,1,100,0,0
168285,-100,4,1,1,70,0,0
168541,-100,4,2,1,100,0,0
169695,-100,4,1,1,70,0,0
169952,-100,4,2,1,100,0,0
170336,-100,4,1,1,70,0,0
170721,-100,4,2,1,100,0,0
171618,-100,4,1,1,70,0,0
171875,-100,4,2,1,100,0,0
173798,-100,4,1,1,70,0,0
173926,-100,4,2,1,100,0,0
174567,-100,4,1,1,70,0,0
174952,-100,4,2,1,100,0,0
175849,-100,4,1,1,70,0,0
175977,-100,4,2,1,100,0,0
177900,-100,4,1,1,70,0,0
178413,-100,4,2,1,100,0,0
178541,-100,4,1,1,70,0,0
179439,-100,4,2,1,100,0,0
179952,-100,4,1,1,70,0,0
180080,-100,4,2,1,100,0,0

[Colours]
Combo1 : 0,128,255
Combo2 : 255,0,128
Combo3 : 255,255,255
Combo4 : 255,0,0

[HitObjects]
416,304,1746,2,0,B|416:232,3,70,2|0|0|0
416,160,2772,1,2
72,72,5336,6,0,B|216:72,3,140,2|0|2|0
288,72,7131,2,0,B|344:72,3,35,0|2|2|2
112,296,9439,6,0,B|112:248,2,35
184,264,9952,2,0,B|184:216,3,35,0|0|2|2
400,88,11490,6,0,B|400:136,2,35
328,128,12003,2,0,B|328:176,3,35,0|0|2|2
148,167,13157,6,0,B|196:215,2,35,0|0|2
220,191,13670,1,2
292,167,13926,2,0,B|340:215,2,35,0|0|2
364,191,14439,1,2
256,208,14823,12,0,16362
432,72,16618,6,0,B|416:152,3,70,0|2|8|0
344,128,17644,2,0,B|328:208,2,70,0|2|8
200,72,18670,5,0
144,128,18926,1,2
96,192,19182,1,8
144,256,19439,5,0
144,256,19695,1,0
200,312,19952,1,2
200,312,20208,1,8
352,312,20721,6,0,B|256:312,2,70,0|2|8
352,232,21490,2,0,B|424:232,2,70,0|0|2
352,152,22259,2,0,B|264:152,2,70,8|2|0
352,72,23029,2,0,B|432:72,2,70,0|8|0
256,192,24054,1,2
256,192,24311,1,8
168,64,24823,6,0,B|72:56|88:168,1,140,0|8
160,136,25593,1,0
160,208,25849,2,0,B|246:211|233:90,1,140,0|8
344,320,26875,6,0,B|440:328|424:216,1,140,0|8
352,248,27644,1,0
346,176,27900,2,0,B|265:184|276:290,1,140,0|8
256,112,28926,6,0,B|256:64,4,35,0|0|2|0|8
256,192,29695,1,0
256,272,29952,2,0,B|256:336,4,35,0|0|2|0|8
256,112,30977,5,0
312,168,31234,2,0,B|344:200,2,35,0|0|8
256,112,31747,1,0
200,168,32003,2,0,B|160:208,2,35,0|0|2
256,112,32516,1,4
416,192,33029,6,0,B|360:248,3,70,0|2|8|0
336,168,34054,1,0
256,144,34311,2,0,B|312:88,2,70,2|8|2
336,168,35080,6,0,B|336:312,1,140,0|8
256,312,35849,1,0
176,312,36105,2,0,B|176:168,1,140,0|8
256,176,36875,1,2
256,96,37131,5,0
184,128,37388,1,2
144,192,37644,1,8
184,256,37900,1,0
256,288,38157,5,0
328,256,38413,1,2
368,192,38670,1,8
328,128,38926,1,2
256,96,39182,6,0,B|256:248,4,140,0|8|0|8|4
136,120,51490,5,0
216,120,51746,1,2
296,120,52003,1,8
376,120,52259,1,2
376,120,52516,2,0,B|432:176|384:248,2,140,0|8|0
328,184,53798,1,2
270,247,54054,2,0,B|216:176|288:104,1,140,8|0
328,184,54823,1,0
270,246,55080,2,0,B|256:320,1,70,8|0
256,314,55593,5,0
160,192,56105,1,8
256,72,56618,1,0
352,192,57131,1,8
352,192,57388,6,0,B|280:192,1,70,2|0
160,192,57900,2,0,B|240:192,1,70,2|8
256,40,58670,5,2
256,40,59182,1,8
376,128,59695,6,0,B|376:200,3,70,0|0|8|2
296,200,60721,2,0,B|296:272,3,70,0|0|8|2
216,264,61746,2,0,B|216:184,3,70,0|2|8|2
136,192,62772,2,0,B|136:120,3,70,0|0|8|2
136,192,63798,5,0
256,280,64311,1,8
376,192,64823,1,0
256,104,65336,1,8
256,104,65593,6,0,B|256:184,1,70,2|0
256,280,66105,2,0,B|256:208,1,70,2|8
104,192,66875,5,2
104,192,67388,1,8
256,192,67900,5,0
320,240,68157,1,2
360,176,68413,1,8
400,112,68670,1,2
256,192,69182,5,0
192,240,69439,1,8
152,176,69695,1,2
112,112,69952,1,0
256,88,70464,6,0,B|176:96,2,70,8|2|0
256,88,71234,2,0,B|336:96,2,70,0|8|2
256,88,72003,5,0
368,192,72516,1,8
256,296,73029,1,0
144,192,73541,1,8
144,192,73798,6,0,B|224:192,1,70,2|0
368,192,74311,2,0,B|288:192,1,70,2|8
256,336,75080,5,2
256,336,75593,1,4
368,48,84311,6,0,B|456:56|472:136,3,140
344,288,86362,6,0,B|288:344|288:344,1,70,0|2
240,280,86875,2,0,B|304:216,1,70,8|2
232,176,87388,2,0,B|168:240,1,70,0|0
128,168,87900,2,0,B|184:112,1,70,8|2
144,40,88413,6,0,B|56:48|40:128,3,140
128,192,90464,6,0,B|152:272,1,70,0|2
224,256,90977,2,0,B|200:176,1,70,8|2
280,189,91490,2,0,B|304:261,1,70,0|0
378,255,92003,2,0,B|354:183,1,70,8|2
368,344,92516,6,0,B|456:336|472:256,3,140
384,192,94567,6,0,B|360:272,1,70,0|2
288,256,95080,2,0,B|312:176,1,70,8|2
231,189,95593,2,0,B|207:261,1,70,0|0
134,255,96105,2,0,B|158:183,1,70,8|2
144,336,96618,6,0,B|56:328|40:248,3,140
256,208,98670,12,4,100721
400,296,117131,5,0
336,248,117388,1,2
272,296,117644,1,0
208,248,117900,1,2
144,296,118157,2,0,B|88:240,2,70,0|2|0
94,246,118926,1,2
256,192,119439,5,4
94,138,119952,6,0,B|152:80,2,70,2|0|2
143,88,120721,1,0
208,136,120977,1,2
272,88,121234,1,0
336,136,121490,1,2
390,89,121746,2,0,B|322:145,1,70,0|2
272,88,122259,2,0,B|208:128,1,70,0|2
144,88,122772,2,0,B|80:128,1,70,0|2
256,192,123541,5,2
256,192,123798,2,0,B|256:152,4,35,0|0|2|0|2
328,272,125336,5,0
328,120,125849,1,0
176,120,126362,1,0
176,272,126875,1,0
256,192,127644,5,4
368,88,128157,6,0,B|328:128,4,35,2|0|2|0|2
312,144,128926,1,0
256,192,129182,6,0,B|256:288,1,70,2|0
176,264,129695,6,0,B|176:224,4,35,2|0|2|0|2
176,184,130464,1,0
256,192,130721,6,0,B|256:112,1,70,2|0
256,192,131746,5,2
256,192,132003,1,0
176,112,132516,1,0
256,192,133029,1,0
336,272,133541,1,0
336,272,133798,6,0,B|392:216,2,70,2|0|2
272,224,134567,2,0,B|216:280,2,70,0|2|0
96,72,135849,5,0
96,72,136362,6,0,B|40:128,2,70,2|0|2
160,120,137131,2,0,B|216:64|216:64,2,70,0|2|0
224,168,137900,2,0,B|168:224,2,70,2|0|2
288,216,138670,2,0,B|344:160|344:160,2,70,0|2|0
376,88,139952,5,2
376,88,140208,5,0
256,192,140721,1,2
136,296,141234,1,0
256,192,141746,1,4
104,80,148157,5,2
104,80,148413,5,0
408,304,148926,1,0
104,304,149439,1,0
408,80,149952,5,0
408,80,150208,2,0,B|408:152,1,70,2|8
328,152,150721,2,0,B|328:72,1,70,2|0
248,80,151234,2,0,B|248:176,1,70,0|8
168,152,151746,2,0,B|168:72,1,70,2|0
88,85,152259,2,0,B|88:157,1,70,2|8
88,232,152772,6,0,B|88:304|88:304|88:296,1,70,2|0
168,302,153285,2,0,B|168:232,1,70,0|8
248,234,153798,2,0,B|248:304,1,70,2|0
328,302,154311,2,0,B|328:232,1,70,0|8
408,234,154823,2,0,B|408:304,1,70,2|0
408,304,155336,1,0
408,304,155593,1,8
408,304,155849,1,2
320,176,156618,5,8
408,304,157131,1,0
320,176,157644,1,8
408,304,158157,1,0
368,240,158413,5,2
320,176,158670,1,8
280,112,158926,1,2
320,176,159182,2,0,B|248:224,1,70,0|0
200,256,159695,2,0,B|128:304,1,70,8|2
96,144,160464,5,2
256,144,160977,1,2
174,144,161234,6,0,B|190:48|278:56|278:56,2,140,0|8|0
174,143,162516,1,2
96,144,162772,2,0,B|117:232|200:216|200:216,2,140,8|0|8
416,248,164567,5,2
416,248,164823,1,8
416,248,165336,6,0,B|400:344|312:336|312:336,2,140,0|8|0
312,136,166875,5,8
200,248,167388,1,0
312,136,167900,1,8
200,248,168413,1,0
160,104,169182,6,0,B|216:160|216:160,3,70,2|0|0|8
352,280,170464,2,0,B|296:224|296:224,3,70,0|2|8|2
240,176,171490,1,0
312,160,171746,1,0
240,176,172003,1,8
232,248,172259,1,2
96,64,173029,6,0,B|96:144,1,70,8|2
176,136,173541,2,0,B|176:224,1,70,0|0
256,208,174054,2,0,B|256:280,2,70,8|2|0
392,280,175080,6,0,B|392:200,1,70,8|2
312,208,175593,2,0,B|312:128,1,70,0|0
232,136,176105,2,0,B|232:56,1,70,8|2
142,265,177388,6,0,B|96:200|152:136,2,140,0|0|2
256,192,178670,1,0
361,137,178926,2,0,B|416:200|369:265,2,140,0|2|0
256,192,180208,1,8
64,56,180977,5,2
64,56,181234,5,8
256,192,181746,1,4
448,328,182259,1,4
256,192,182772,1,4
