osu file format v7

[General]
AudioFilename: Haru - Voyage 1969 (Instrumental).mp3
AudioLeadIn: 496
PreviewTime: 51514
Countdown: 0
SampleSet: Soft
StackLeniency: 0.4
Mode: 0
LetterboxInBreaks: 1

[Editor]
DistanceSpacing: 2
BeatDivisor: 2
GridSize: 8

[Metadata]
Title:Voyage 1969 (Instrumental)
Artist:Haru
Creator:Nexy
Version:Hard
Source:Touhou
Tags:Techno Touhou Instrumental Viotex

[Difficulty]
HPDrainRate:8
CircleSize:5
OverallDifficulty:8
SliderMultiplier:1.4
SliderTickRate:0.5

[Events]
//Background and Video events
0,0,"Touhou.png"
//Break Periods
2,49638,50740
2,100921,116381
//Storyboard Layer 0 (Background)
//Storyboard Layer 1 (Fail)
//Storyboard Layer 2 (Pass)
//Storyboard Layer 3 (Foreground)
//Storyboard Sound Samples
//Background Colour Transformations
3,100,163,162,255

[TimingPoints]
1747,512.820512820513,4,2,1,30,1,0
16490,-100,4,1,1,40,0,0
16865,-100,4,2,1,39,0,0
17388,-100,4,1,1,40,0,0
17516,-100,4,2,1,40,0,0
18605,-100,4,1,1,40,0,0
18734,-100,4,2,1,40,0,0
19439,-100,4,1,1,40,0,0
19685,-100,4,2,1,40,0,0
20657,-100,4,1,1,40,0,0
20849,-100,4,2,1,40,0,0
21362,-100,4,1,1,40,0,0
21747,-100,4,2,1,40,0,0
22900,-100,4,1,1,40,0,0
23157,-100,4,2,1,40,0,0
23413,-100,4,1,1,40,0,0
23670,-100,4,2,1,39,0,0
24695,-100,4,1,1,40,0,0
24952,-100,4,2,1,41,0,0
25464,-100,4,1,1,40,0,0
25721,-100,4,2,1,40,0,0
26747,-100,4,1,1,40,0,0
27003,-100,4,2,1,40,0,0
27516,-100,4,1,1,40,0,0
27772,-100,4,2,1,41,0,0
28670,-100,4,1,1,40,0,0
29054,-100,4,2,1,40,0,0
29567,-100,4,1,1,40,0,0
29952,-100,4,2,1,40,0,0
31105,-100,4,1,1,40,0,0
31490,-100,4,2,1,39,0,0
31618,-100,4,1,1,40,0,0
32003,-100,4,2,1,41,0,0
32900,-100,4,1,1,40,0,0
33157,-100,4,2,1,100,0,0
33670,-100,4,1,1,40,0,0
33926,-100,4,2,1,100,0,0
34952,-100,4,1,1,40,0,0
35208,-100,4,2,1,100,0,0
35721,-100,4,1,1,40,0,0
36105,-100,4,2,1,100,0,0
37003,-100,4,1,1,40,0,0
37644,-100,4,2,1,100,0,0
37772,-100,4,1,1,40,0,0
38413,-100,4,2,1,100,0,0
39311,-100,4,1,1,40,0,0
39567,-100,4,2,1,100,0,0
39823,-100,4,1,1,40,0,0
40080,-100,4,2,1,100,0,0
41105,-100,4,1,1,40,0,0
41362,-100,4,2,1,100,0,0
41875,-100,4,1,1,40,0,0
42131,-100,4,2,1,100,0,0
43157,-100,4,1,1,40,0,0
43413,-100,4,2,1,100,0,0
43926,-100,4,1,1,40,0,0
44182,-100,4,2,1,100,0,0
45208,-100,4,1,1,40,0,0
45849,-100,4,2,1,100,0,0
45977,-100,4,1,1,40,0,0
46234,-100,4,2,1,100,0,0
48029,-100,4,1,1,40,0,0
48285,-100,4,2,1,100,0,0
49439,-100,4,2,1,0,0,0
51362,-100,4,1,1,70,0,0
51618,-100,4,2,1,100,0,0
52644,-100,4,1,1,70,0,0
53029,-100,4,2,1,100,0,0
53477,-100,4,1,1,70,0,0
53798,-100,4,2,1,100,0,0
54759,-100,4,1,1,70,0,0
54952,-100,4,2,1,100,0,0
55721,-100,4,1,1,70,0,0
55977,-100,4,2,1,100,0,0
56747,-100,4,1,1,70,0,0
57003,-100,4,2,1,100,0,0
57580,-100,4,1,1,70,0,0
57708,-100,4,2,1,100,0,0
58926,-100,4,1,1,69,0,0
59054,-100,4,2,1,100,0,0
59567,-100,4,1,1,70,0,0
59823,-100,4,2,1,100,0,0
60849,-100,4,1,1,70,0,0
61105,-100,4,2,1,100,0,0
61618,-100,4,1,1,70,0,0
61875,-100,4,2,1,100,0,0
62900,-100,4,1,1,70,0,0
63285,-100,4,2,1,100,0,0
63670,-100,4,1,1,70,0,0
64182,-100,4,2,1,100,0,0
64952,-100,4,1,1,70,0,0
65208,-100,4,2,1,100,0,0
65721,-100,4,1,1,70,0,0
66105,-100,4,2,1,100,0,0
67131,-100,4,1,1,70,0,0
67259,-100,4,2,1,100,0,0
67772,-100,4,1,1,70,0,0
68029,-100,4,2,1,100,0,0
69182,-100,4,1,1,70,0,0
69311,-100,4,2,1,100,0,0
69823,-100,4,1,1,70,0,0
70016,-100,4,2,1,100,0,0
71105,-100,4,1,1,70,0,0
71362,-100,4,2,1,100,0,0
71875,-100,4,1,1,70,0,0
72388,-100,4,2,1,100,0,0
73157,-100,4,1,1,70,0,0
73413,-100,4,2,1,100,0,0
73990,-100,4,1,1,70,0,0
74118,-100,4,2,1,100,0,0
75336,-100,4,1,1,70,0,0
75464,-100,4,2,1,100,0,0
75977,-100,4,1,1,70,0,0
76618,-100,4,2,1,100,0,0
78029,-100,4,1,1,70,0,0
78670,-100,4,2,1,100,0,0
79311,-100,4,1,1,70,0,0
79567,-100,4,2,1,100,0,0
80208,-100,4,1,1,70,0,0
80593,-100,4,2,1,100,0,0
81362,-100,4,1,1,70,0,0
81618,-100,4,2,1,100,0,0
82195,-100,4,1,1,70,0,0
82323,-100,4,2,1,100,0,0
83413,-100,4,1,1,70,0,0
83670,-100,4,2,1,100,0,0
84182,-100,4,2,1,70,0,0
86234,-100,4,1,1,70,0,0
86490,-100,4,2,1,70,0,0
87644,-100,4,1,1,70,0,0
87772,-100,4,2,1,70,0,0
90336,-100,4,1,1,70,0,0
90721,-100,4,2,1,70,0,0
91747,-100,4,1,1,70,0,0
91875,-100,4,2,1,70,0,0
94439,-100,4,1,1,70,0,0
94823,-100,4,2,1,70,0,0
95849,-100,4,1,1,70,0,0
95977,-100,4,2,1,70,0,0
98670,-100,4,1,1,70,0,0
117003,-100,4,2,1,100,0,0
149823,-100,4,1,1,70,0,0
150080,-100,4,2,1,100,0,0
151105,-100,4,1,1,70,0,0
151362,-100,4,2,1,100,0,0
151875,-100,4,1,1,70,0,0
152259,-100,4,2,1,100,0,0
153157,-100,4,1,1,70,0,0
153413,-100,4,2,1,100,0,0
153926,-100,4,1,1,70,0,0
154311,-100,4,2,1,100,0,0
155336,-100,4,1,1,70,0,0
155464,-100,4,2,1,100,0,0
155977,-100,4,1,1,70,0,0
156234,-100,4,2,1,100,0,0
157259,-100,4,1,1,70,0,0
157516,-100,4,2,1,100,0,0
158029,-100,4,1,1,70,0,0
158285,-100,4,2,1,100,0,0
159439,-100,4,1,1,70,0,0
159567,-100,4,2,1,100,0,0
160144,-100,4,1,1,70,0,0
160272,-100,4,2,1,100,0,0
161362,-100,4,1,1,70,0,0
161618,-100,4,2,1,100,0,0
162131,-100,4,1,1,70,0,0
162644,-100,4,2,1,100,0,0
163413,-100,4,1,1,70,0,0
163670,-100,4,2,1,100,0,0
164182,-100,4,1,1,70,0,0
164439,-100,4,2,1,100,0,0
165464,-100,4,1,1,70,0,0
165849,-100,4,2,1,100,0,0
166234,-100,4,1,1,70,0,0
166618,-100,4,2,1,100,0,0
167644,-100,4,1,1,70,0,0
167772,-100,4,2,1,100,0,0
168285,-100,4,1,1,70,0,0
168541,-100,4,2,1,100,0,0
169567,-100,4,1,1,70,0,0
169952,-100,4,2,1,100,0,0
170464,-100,4,1,1,70,0,0
170593,-100,4,2,1,100,0,0
171618,-100,4,1,1,70,0,0
171875,-100,4,2,1,100,0,0
172388,-100,4,1,1,70,0,0
172644,-100,4,2,1,100,0,0
173670,-100,4,1,1,70,0,0
173926,-100,4,2,1,100,0,0
174439,-100,4,1,1,70,0,0
174952,-100,4,2,1,100,0,0
175849,-100,4,1,1,70,0,0
175977,-100,4,2,1,100,0,0
176490,-100,4,1,1,70,0,0
176875,-100,4,2,1,100,0,0
177772,-100,4,1,1,70,0,0
178413,-100,4,2,1,100,0,0
178541,-100,4,1,1,70,0,0
179439,-100,4,2,1,100,0,0
179823,-100,4,1,1,70,0,0
180464,-100,4,2,1,100,0,0
180593,-100,4,1,1,70,0,0
180849,-100,4,2,1,100,0,0

[Colours]
Combo1 : 0,128,255
Combo2 : 255,0,128
Combo3 : 255,255,255
Combo4 : 255,0,0

[HitObjects]
88,80,1746,2,0,B|168:80,3,70
224,80,2772,1,2
256,80,2900,1,2
432,312,5336,6,0,B|288:312,1,140
224,312,6105,2,0,B|144:312,1,70
80,312,6618,1,2
154,312,6875,2,0,B|226:312,1,70,0|0
288,312,7388,1,2
320,312,7516,1,2
408,88,9439,6,0,B|376:120,1,35
383,112,9695,2,0,B|344:120,1,35
348,119,9952,2,0,B|320:160|320:160|328:160,1,35
328,147,10208,2,0,B|296:176,1,35,2|2
104,296,11490,6,0,B|136:264,1,35
129,272,11747,2,0,B|168:264,1,35
164,265,12003,2,0,B|192:224|192:224|184:224,1,35
184,237,12259,2,0,B|216:208,1,35,2|2
368,160,13157,6,0,B|368:208,3,35,0|0|2|2
312,192,13670,5,0
273,191,13798,1,2
241,191,13926,1,2
209,191,14054,1,0
153,191,14182,6,0,B|153:151,2,35,2|2|2
256,208,14823,12,0,16362
400,88,16618,6,0,B|344:144,1,70
248,160,17131,2,0,B|264:240,1,70,8|0
160,256,17644,2,0,B|112:280|112:280|120:280,4,35,0|0|0|0|8
168,152,18413,5,0
168,152,18541,1,0
208,112,18670,1,0
256,128,18798,1,0
256,128,18926,1,0
360,152,19182,2,0,B|336:240,1,70,8|0
256,280,19695,1,0
256,280,19823,1,0
152,248,20080,1,0
152,248,20208,1,8
256,128,20593,5,8
256,128,20721,1,0
352,176,20977,2,0,B|408:232,1,70,0|8
312,288,21490,2,0,B|304:216,1,70
256,128,22003,2,0,B|240:208,1,70,0|8
168,272,22516,2,0,B|184:192,1,70
256,128,23029,1,0
264,232,23285,1,8
344,168,23541,1,0
408,80,23798,6,0,B|360:120,4,35,0|0|0|0|8
104,304,24823,6,0,B|152:264,4,35,0|0|0|0|8
256,232,25593,5,0
408,304,25849,6,0,B|360:264,4,35,0|0|0|0|8
104,80,26875,6,0,B|152:120,4,35,0|0|0|0|8
256,152,27644,1,0
256,152,27772,1,0
256,152,27900,1,0
256,152,28413,1,8
256,320,28798,5,8
256,320,28926,1,0
352,280,29182,2,0,B|400:216,1,70,0|8
384,120,29695,2,0,B|304:80,1,70
216,88,30208,2,0,B|128:120,1,70,0|8
88,192,30721,2,0,B|72:272,1,70
160,320,31234,2,0,B|248:336,1,70,0|8
336,328,31747,2,0,B|424:288|424:288|424:280,1,70
256,192,32516,5,4
440,88,33029,5,0
352,144,33285,1,2
256,88,33541,1,8
168,144,33798,1,0
80,88,34054,2,0,L|56:168,1,70
59,155,34567,1,8
64,296,34823,5,2
160,248,35080,1,0
256,296,35336,1,2
352,248,35593,1,8
448,296,35849,2,0,L|488:224,1,70
481,234,36362,1,2
481,234,36618,2,0,C|440:152,1,70,8|0
368,104,37131,6,0,B|296:152|312:232,1,140,0|10
200,224,37900,2,0,B|215:154|143:98,1,140,0|2
148,102,38670,1,8
148,102,38926,1,2
256,56,39182,5,4
256,192,39439,1,0
144,280,39695,1,4
256,192,39952,1,0
256,56,40208,1,4
256,192,40464,1,2
368,280,40721,1,4
256,192,41234,5,0
368,280,41490,1,2
256,192,41746,1,8
256,328,42003,1,0
256,192,42259,5,0
144,280,42516,1,2
256,192,42772,1,8
120,152,43029,1,2
256,192,43285,5,0
200,64,43541,1,2
256,192,43798,1,8
312,64,44054,1,0
256,192,44311,5,0
392,152,44567,1,2
256,192,44823,1,8
368,280,45080,1,2
392,152,45336,6,0,B|452:236|308:236|395:322,1,140,0|8
256,192,46105,1,0
120,152,46362,2,0,B|60:236|204:236|117:322,1,140,0|8
256,192,47131,1,2
320,320,47388,2,0,B|264:381|256:285|192:333,1,140,0|2
256,192,48157,1,4
320,64,48413,2,0,B|264:3|256:99|192:51,2,140
296,224,51490,5,0
344,128,51746,1,2
264,64,52003,1,8
168,104,52259,1,2
168,208,52516,1,0
256,152,52772,2,0,B|296:176|288:216|288:216,1,70,0|8
368,272,53285,5,2
368,272,53413,1,2
320,296,53541,2,0,B|272:336|224:328,1,70
176,256,54054,2,0,B|208:216|248:224,1,70,8|0
328,176,54567,1,2
328,176,54695,1,2
328,176,54823,1,0
256,96,55080,2,0,B|200:112|176:152,2,70
328,176,55849,5,0
248,248,56105,1,8
176,168,56362,1,0
256,96,56618,1,0
328,176,56875,1,0
248,248,57131,1,8
176,168,57388,5,2
176,168,57516,1,2
200,120,57644,1,0
248,104,57772,1,2
248,104,57900,1,4
328,176,58157,2,0,B|344:256|272:216,1,70,8|0
256,136,58670,2,0,B|176:120|216:192,1,70,0|4
256,136,59182,1,8
456,72,59695,5,0
256,136,59952,1,2
56,72,60208,1,8
256,136,60464,1,2
456,192,60721,1,0
256,248,60977,1,0
56,192,61234,1,8
256,248,61490,5,2
456,312,61746,1,0
256,248,62003,1,2
56,312,62259,1,8
256,248,62516,2,0,B|256:320,1,70,2|0
256,136,63029,2,0,B|256:64,1,70,0|8
256,192,63541,1,2
256,48,63798,5,0
256,192,64054,1,0
256,336,64311,1,8
256,192,64567,1,2
400,192,64823,5,0
256,192,65080,1,0
112,192,65336,1,8
256,192,65593,1,2
336,80,65849,6,0,B|296:144,1,70,0|2
336,304,66362,2,0,B|296:240,1,70,8|2
176,80,66875,2,0,B|216:144,1,70,0|0
176,304,67388,2,0,B|216:240,1,70,8|4
304,296,67900,5,0
400,256,68157,1,2
392,152,68413,2,0,B|328:216,1,70,8|2
304,296,68926,2,0,B|272:224,1,70,0|0
240,128,69439,2,0,B|192:184,1,70,8|2
88,192,69952,1,0
88,192,70080,1,2
88,192,70208,1,2
88,296,70464,2,0,B|168:336|232:296,1,140,8|0
192,200,71234,1,0
88,192,71490,2,0,B|136:128|136:128|136:136,1,70,8|2
256,72,72003,5,0
352,112,72259,1,0
256,152,72516,1,8
352,192,72772,1,2
256,232,73029,1,0
160,192,73285,1,0
256,152,73541,1,8
160,104,73798,5,2
160,104,73926,1,2
200,72,74054,1,0
248,72,74182,1,2
248,72,74311,1,2
248,72,74567,2,0,B|336:72,1,70,8|2
256,152,75080,2,0,B|184:152,1,70,0|0
256,232,75593,1,8
256,232,76105,6,0,B|320:304|320:184|392:248|392:248,1,140,0|8
456,168,76875,1,4
384,96,77131,2,0,B|320:24|320:144|248:80|248:80,1,140,0|8
192,168,77900,1,4
152,264,78157,2,0,B|80:200|80:320|16:248,2,140,0|8|0
224,336,79439,1,0
296,264,79695,2,0,B|360:336|360:216|432:280|432:280,1,140,8|0
296,264,80464,5,0
224,336,80721,1,8
152,264,80977,2,0,B|104:320,1,70,2|0
88,216,81490,1,0
144,128,81746,1,8
240,80,82003,1,2
240,80,82131,1,2
288,72,82259,1,0
328,104,82388,1,2
328,104,82516,1,2
256,184,82772,5,8
176,256,83029,2,0,B|208:304|256:288|256:288,1,70,2|0
256,184,83541,1,4
352,144,83798,1,4
152,72,84311,6,0,B|64:112|96:200,1,140
192,168,85080,1,2
240,264,85336,2,0,B|320:232|288:128,1,140
192,168,86105,1,0
256,80,86362,5,0
352,48,86618,1,2
440,104,86875,2,0,B|464:184,1,70,0|2
397,256,87388,2,0,B|373:176,1,70,0|0
272,144,87900,2,0,B|296:216,1,70,8|2
272,144,88413,5,0
192,72,88670,2,0,B|96:48|40:120,1,140,2|2
80,200,89439,2,0,B|128:144|224:168,1,140
168,264,90208,1,2
209,165,90464,6,0,B|238:245,1,70
328,192,90977,2,0,B|352:264,1,70,8|2
232,230,91490,2,0,B|209:165,1,70,0|0
303,127,92003,2,0,B|335:207,1,70,8|2
232,232,92516,5,0
317,286,92772,1,2
408,232,93029,1,0
317,286,93285,1,2
232,232,93541,1,0
142,288,93798,1,2
48,232,94054,1,0
142,288,94311,1,2
232,231,94567,6,0,B|173:189|205:157,1,70,0|2
296,169,95080,1,8
296,169,95336,1,2
344,73,95593,2,0,B|416:97|400:137,1,70,0|0
296,169,96105,2,0,B|248:89|224:137|224:137,1,70,8|2
200,218,96618,5,0
168,312,96875,2,0,B|56:280|88:192,1,140,2|2
82,219,97644,2,0,B|89:128|169:120,1,140
200,218,98413,1,2
256,208,98670,12,4,100721
112,56,117131,5,0
168,144,117388,1,2
88,208,117644,1,0
160,280,117900,1,2
160,280,118157,2,0,B|96:328,2,70,0|2|0
88,208,118926,1,2
256,80,119439,5,4
360,264,119952,5,2
360,264,120208,2,0,B|416:328,2,70,0|2|0
440,192,120977,1,2
360,120,121234,1,0
440,48,121490,1,2
360,120,121746,2,0,B|296:184,1,70,0|2
216,120,122259,2,0,B|160:176,1,70,0|2
184,296,122772,2,0,B|248:232|248:232,1,70,0|2
256,40,123541,5,0
304,128,123798,1,2
256,160,123926,1,2
216,128,124054,1,2
256,40,124311,1,2
56,56,125336,5,0
456,328,125849,1,0
56,328,126362,1,0
456,56,126875,1,0
352,240,127388,5,0
256,192,127644,1,2
160,144,128157,5,2
256,192,128413,1,0
352,240,128670,1,2
256,192,128926,1,0
160,144,129182,1,2
256,192,129439,5,0
256,88,129695,1,2
256,192,129952,1,0
256,296,130208,1,2
256,192,130464,5,0
352,144,130721,1,2
256,192,130977,1,0
160,240,131234,1,2
360,296,131746,5,2
256,328,132003,1,0
440,224,132516,1,0
256,328,133029,1,0
440,224,133541,5,0
384,136,133798,1,2
384,136,134054,1,0
296,80,134311,1,2
296,80,134567,1,0
200,120,134823,1,2
200,120,135080,1,0
256,312,135849,5,4
80,192,136362,5,2
160,128,136618,2,0,B|224:80,1,70,0|2
160,128,137131,1,0
232,200,137388,2,0,B|304:144|304:144,1,70,2|0
232,200,137900,1,2
312,264,138157,2,0,B|384:208,1,70,0|2
312,264,138670,1,0
392,328,138926,2,0,B|448:280,1,70,2|0
392,328,139439,1,2
224,192,139952,5,0
320,144,140208,1,2
344,192,140336,1,2
320,240,140464,1,2
224,192,140721,1,2
224,192,141234,1,2
224,192,141746,6,0,B|224:264,1,70,0|2
304,192,142259,2,0,B|304:264,1,70,2|2
384,192,142772,2,0,B|384:264,1,70,0|2
464,192,143285,2,0,B|464:264,1,70,2|2
304,144,144054,5,4
304,144,144567,6,0,B|304:64,1,70,2|0
224,144,145080,2,0,B|224:72,1,70,2|2
144,144,145593,2,0,B|144:72,1,70,2|0
64,144,146105,2,0,B|64:64,1,70,2|2
64,144,146618,1,2
144,74,146875,1,0
224,144,147131,1,2
304,73,147388,1,0
456,336,148157,5,4
456,336,148413,5,2
56,48,148926,1,2
456,48,149439,1,2
56,336,149952,5,4
56,336,150208,1,2
104,240,150464,1,8
104,240,150721,1,2
192,176,150977,1,0
192,176,151234,1,0
296,152,151490,1,8
296,152,151746,1,2
376,216,152003,2,0,B|320:272,1,70,0|2
376,216,152516,1,8
376,216,152772,6,0,B|428:164,1,70,2|0
352,88,153285,1,0
256,40,153541,1,8
160,88,153798,1,2
80,160,154054,2,0,B|136:216,1,70,0|2
80,296,154567,2,0,B|136:240,1,70,0|2
208,296,155080,2,0,B|152:240,1,70,0|0
208,160,155593,2,0,B|152:216,1,70,8|2
208,160,156105,5,0
280,240,156362,1,2
360,168,156618,1,8
288,96,156875,1,2
208,160,157131,1,0
304,264,157388,1,0
392,152,157644,1,8
280,64,157900,1,2
184,168,158157,5,0
184,168,158413,2,0,B|160:256,1,70,2|8
264,264,158926,1,2
264,264,159182,2,0,B|288:192,1,70,0|0
368,136,159695,1,8
368,136,159823,1,0
336,96,159952,1,2
288,80,160080,1,0
288,80,160208,1,0
176,120,160464,6,0,B|144:88,4,35,2|0|8|0|2
256,192,161234,1,0
336,264,161490,6,0,B|368:296,4,35,4|0|8|0|2
256,192,162259,1,0
176,264,162516,6,0,B|144:296,4,35,4|0|8|0|2
256,192,163285,1,0
336,120,163541,6,0,B|368:88,4,35,4|0|8|0|2
256,192,164311,1,8
256,192,164567,1,2
256,192,164823,1,8
152,192,165080,2,0,B|72:192,1,70,2|0
360,192,165593,2,0,B|440:192,1,70,0|8
256,72,166362,6,0,B|256:152,1,70,0|8
256,312,166875,2,0,B|256:232,1,70,0|8
376,88,167388,2,0,B|312:152,1,70,0|0
136,296,167900,2,0,B|200:232,1,70,0|8
256,192,168413,6,0,B|224:160,3,35
256,192,168926,6,0,B|288:224|288:224|288:216,3,35,8|0|0|0
144,88,169695,6,0,B|208:152,1,70,0|8
368,296,170208,2,0,B|304:232,1,70,0|0
120,192,170721,2,0,B|190:192,1,70,2|8
392,192,171234,2,0,B|322:192,1,70,2|8
256,272,171746,5,0
176,192,172003,1,8
256,112,172259,1,8
336,192,172516,1,4
256,192,172772,5,2
256,296,173029,5,8
152,192,173285,1,2
256,88,173541,1,0
360,192,173798,1,0
256,192,174054,5,8
256,328,174311,5,2
120,192,174567,1,4
256,56,174823,1,4
392,192,175080,1,8
256,192,175336,5,2
424,296,175593,6,0,B|357:317,1,70,8|0
88,216,176105,2,0,B|156:237,1,70,8|2
424,136,176618,2,0,B|357:157,1,70,0|2
88,56,177131,2,0,B|156:77,1,70,8|2
256,192,177644,5,4
232,88,177900,6,0,B|144:112|152:208,1,140,0|8
256,192,178670,1,0
280,296,178926,2,0,B|368:272|360:176,1,140,0|8
256,192,179695,1,0
263,87,179952,2,0,B|340:80|364:168,1,140,0|8
256,192,180721,5,4
256,192,180977,1,4
136,120,181234,5,8
256,48,181490,1,8
376,120,181747,1,2
376,264,182003,1,4
256,344,182259,1,8
136,264,182516,1,4
256,192,182772,1,4
