osu file format v9

[General]
AudioFilename: inatsukage.mp3
AudioLeadIn: 0
PreviewTime: 133200
Countdown: 0
SampleSet: Soft
StackLeniency: 0.7
Mode: 0
LetterboxInBreaks: 0

[Editor]
DistanceSpacing: 0.9
BeatDivisor: 4
GridSize: 8

[Metadata]
Title:Summer Shadow (Instrumental)
Artist:Haru
Creator:backstep
Version:Normal
Source:Air
Tags:Natsukage KEY wmfchris techno air viotex

[Difficulty]
HPDrainRate:5
CircleSize:4
OverallDifficulty:4
ApproachRate:4
SliderMultiplier:1.7
SliderTickRate:2

[Events]
//Background and Video events
0,0,"AIR_shadow_BG0.jpg"
//Break Periods
2,94396,102476
2,151996,167276
2,208996,213476
2,250396,257876
//Storyboard Layer 0 (Background)
Sprite,Background,Centre,"AIR_shadow_BG.jpg",320,240 M,0,0,,320,240 S,0,0,,0.8000001 F,0,0,92240,0,1 F,0,92240,276062,1,0.9967423
Sprite,Background,Centre,"AIR_shadow_BG3.jpg",320,240 F,0,0,184040,0.06250679,0 M,0,184040,,320,240 S,0,184040,,0.7999998 F,0,184040,276062,0,1
//Storyboard Layer 1 (Fail)
//Storyboard Layer 2 (Pass)
//Storyboard Layer 3 (Foreground)
Sprite,Foreground,Centre,"comet.png",320,240 M,0,166190,166790,614,92,383,212 F,0,166190,166790,1,0
Sprite,Foreground,Centre,"comet.png",320,240 M,0,160340,160940,349,27,164,178 F,0,160340,160940,1,0
Sprite,Foreground,Centre,"comet.png",320,240 M,0,160190,160790,376,63,214,198 F,0,160190,160790,1,0
Sprite,Foreground,Centre,"cloud-02.png",320,240 S,0,175800,,0.91808 M,0,175800,240000,984,160,-371,162
Sprite,Foreground,Centre,"comet2.png",320,240 M,0,184790,185390,49,90,253,223 F,0,184790,185390,1,0
Sprite,Foreground,Centre,"comet2.png",320,240 M,0,178190,179390,197,46,614,264 F,0,178190,179390,1,0
Sprite,Foreground,Centre,"cblight.png",320,240 M,0,132590,,138,341 S,0,132590,,0.7439998 F,0,132590,133190,1,0 F,0,133190,133790,0,1 F,0,133790,134390,1,0 F,0,134390,134990,0,1 F,0,134990,135590,1,0 F,0,135590,136190,0,1 F,0,136190,136790,1,0 F,0,136790,137390,0,1 F,0,137390,137990,1,0 F,0,137990,138590,0,1 F,0,138590,139190,1,0 F,0,139190,139790,0,1 F,0,139790,140390,1,0 F,0,140390,140690,0,1 F,0,140690,140990,1,0 F,0,140990,141590,0,1 F,0,141590,142190,1,0 F,0,142190,142790,0,1 F,0,142790,143390,1,0 F,0,143390,143990,0,1 F,0,143990,144590,1,0 F,0,144590,145190,0,1 F,0,145190,145790,1,0 F,0,145790,146390,0,1 F,0,146390,146990,1,0 F,0,146990,147590,0,1 F,0,147590,148190,1,0 F,0,148190,148790,0,1 F,0,148790,149390,1,0 F,0,149390,149990,0,1 F,0,149990,150590,1,0 F,0,150590,151190,0,1 F,0,151190,151790,1,0 F,0,151790,214190,0 F,0,214190,214790,0,1 F,0,214790,215390,1,0.03703704 F,0,215390,215990,0.03703704,1 F,0,215990,216590,1,0.07407407 F,0,216590,217190,0.07407407,1 F,0,217190,217790,1,0.1111111 F,0,217790,218390,0.1111111,1 F,0,218390,218990,1,0.1481481 F,0,218990,219590,0.1481481,1 F,0,219590,220190,1,0 F,0,220190,220790,0,1 F,0,220790,221390,1,0.2222222 F,0,221390,221990,0.2222222,1 F,0,221990,222590,1,0.2592593 F,0,222590,223190,0.2592593,1 F,0,223190,223790,1,0.2962963 F,0,223790,224390,0.2962963,1 F,0,224390,224990,1,0.3333333 F,0,224990,225590,0.3333333,1 F,0,225590,226190,1,0.3703703 F,0,226190,226790,0.3703703,1 F,0,226790,227390,1,0.4074073 F,0,227390,227990,0.4074073,1 F,0,227990,228590,1,0.4444444 F,0,228590,229190,0.4444444,1 F,0,229190,229790,1,0.4814814 F,0,229790,230390,0.4814814,1 F,0,230390,230990,1,0.5185184 F,0,230990,231590,0.5185184,1 F,0,231590,232190,1,0.5555555 F,0,232190,232790,0.5555555,1 F,0,232790,233390,1,0.5925925 F,0,233390,233990,0.5925925,1 F,0,233990,234590,1,0.6296295 F,0,234590,235190,0.6296295,1 F,0,235190,235790,1,0.6666665 F,0,235790,236390,0.6666665,1 F,0,236390,236990,1,0.2597036 F,0,236990,237590,0.2597036,1 F,0,237590,238190,1,0 F,0,238190,238790,0,1 F,0,238790,239390,1,0 F,0,239390,239990,0,1 F,0,239990,240590,1,0 F,0,240590,241190,0,1 F,0,241190,241790,1,0 F,0,241790,242390,0,1 F,0,242390,242990,1,0 F,0,242990,243590,0,1 F,0,243590,244190,1,0 F,0,244190,244790,0,1 F,0,244790,245390,1,0 F,0,245390,245990,0,0.9814814 F,0,245990,246590,0.9814814,0
Sprite,Foreground,Centre,"comet.png",320,240 M,0,128390,128990,407,39,184,215 F,0,128390,128990,1,0
Sprite,Foreground,Centre,"cloud-02.png",320,240 S,0,127500,,0.8361603 M,0,127500,210000,956,145,-335,149
Sprite,Foreground,Centre,"bs.png",320,240 M,0,132600,,133,396 S,0,132600,,0.7280002 F,0,132600,132750,0.4040003,0.974 F,0,132750,132900,0.974,0.4440001
Sprite,Foreground,Centre,"comet.png",320,240 M,0,154190,154790,192,27,25,162 F,0,154190,154790,1,0
Sprite,Foreground,Centre,"comet2.png",320,240 R,0,146390,,0.3680002 M,0,146390,146990,238,32,411,214 F,0,146390,146990,1,0
Sprite,Foreground,Centre,"comet.png",320,240 R,0,137990,,-0.288 M,0,137990,138590,185,22,13,233 F,0,137990,138590,1,0
Sprite,Foreground,Centre,"comet.png",320,240 M,0,251690,252290,537,14,371,158 F,0,251690,252290,1,0
Sprite,Foreground,Centre,"bs.png",320,240 M,0,233400,,135,395 S,0,233400,,0.7600003 F,0,233400,233550,0.3839999,1 F,0,233550,233700,1,0.3359999
Sprite,Foreground,Centre,"comet2.png",320,240 M,0,232790,233540,27,16,351,226 F,0,232790,233540,1,0
Sprite,Foreground,Centre,"comet.png",320,240 M,0,251840,252440,535,38,382,172 F,0,251840,252440,1,0
Sprite,Foreground,Centre,"cloud-02.png",320,240 S,0,259650,,0.8259201 F,0,259650,270000,1 M,0,259650,270590,955,143,194,144 F,0,270000,270600,1,0 M,0,270590,270600,194,144,-195,144
Sprite,Foreground,Centre,"comet.png",320,240 M,0,192290,192890,323,15,91,197 F,0,192290,192890,1,0
Sprite,Foreground,Centre,"bs.png",320,240 S,0,186600,,0.8259198 F,0,186600,186750,0.2143401,1 F,0,186750,186900,1,0.07610001 F,0,186900,187050,0.07610001,0 F,0,187050,187200,0,0.80032 F,0,187200,187350,0.80032,0 F,0,187350,187500,0 M,0,187500,,141,390 F,0,187500,187650,0 F,0,187650,187800,0,0.5625 F,0,187800,187950,0.5625,0
Sprite,Foreground,Centre,"comet2.png",320,240 M,0,184940,185540,65,72,261,192 F,0,184940,185540,1,0
Sprite,Foreground,Centre,"comet.png",320,240 M,0,192440,193040,246,21,52,168 F,0,192440,193040,1,0
Sprite,Foreground,Centre,"comet.png",320,240 M,0,224390,224990,196,16,24,144 F,0,224390,224990,1,0
Sprite,Foreground,Centre,"cloud-02.png",320,240 S,0,214200,,0.8361599 M,0,214200,270600,954,146,147,145 F,0,270000,270600,1,0
Sprite,Foreground,Centre,"comet2.png",320,240 M,0,209990,210590,297,16,613,190 F,0,209990,210590,1,0
Sprite,Foreground,Centre,"bs.png",320,240 M,0,127200,,135,396 S,0,127200,,0.6880004 F,0,127200,127275,0.4560001,0.756 F,0,127275,127350,0.756,1 F,0,127350,127425,1,0.7400001 F,0,127425,127500,0.7400001,0.488
Sprite,Foreground,Centre,"cloud-02.png",320,240 S,0,71100,,0.78496 M,0,71100,120000,934,136,-313,133
Sprite,Foreground,Centre,"comet.png",320,240 S,0,56390,,1.2 M,0,56390,56840,486,60,326,220 F,0,56390,56840,1,0
Sprite,Foreground,Centre,"comet2.png",320,240 R,0,41690,,0.272 M,0,41690,42140,304,34,508,177 F,0,41690,42140,1,0
Sprite,Foreground,Centre,"bs.png",320,240 M,0,75000,,139,399 S,0,75000,,0.7679998 F,0,75000,75075,0.2319998,0.5279999 F,0,75075,75150,0.5279999,0.9813331 F,0,75150,75225,0.9813331,0.6186668 F,0,75225,75300,0.6186668,0.328
Sprite,Foreground,Centre,"comet.png",320,240 S,0,82790,,1.456 M,0,82790,83240,582,30,372,216 F,0,82790,83240,1,0
Sprite,Foreground,Centre,"comet2.png",320,240 M,0,76490,76940,119,83,274,156 F,0,76490,76940,1,0
Sprite,Foreground,Centre,"comet.png",320,240 M,0,16190,16640,566,32,400,167 F,0,16190,16640,1,0
Sprite,Foreground,Centre,"cloud-02.png",320,240 S,0,0,,0.8054401 M,0,0,60000,323,141,-323,140
Sprite,Foreground,Centre,"comet2.png",320,240 R,0,23390,,0.288 M,0,23390,23840,134,67,219,191 F,0,23390,23840,1,0
Sprite,Foreground,Centre,"cb.png",320,240 S,0,36900,,0.7440003 M,0,36900,37500,203,342,139,342 F,0,36900,37500,0.2,1 M,0,37500,151800,139,342 S,0,151800,,0.744 M,0,151800,270000,139,342
Sprite,Foreground,Centre,"bs.png",320,240 M,0,36900,37500,202,400,138,400 F,0,36900,37500,0.1398402,1 S,0,36900,38925,0.6108797 M,0,37500,151800,138,400,136,398 F,0,37500,151800,1 R,0,38100,38175,0,-0.3686401 R,0,38175,38250,-0.3686401,0.22528 R,0,38250,38325,0.22528,-0.3583995 R,0,38325,38400,-0.3583995,0 R,0,38400,40500,0 S,0,38925,39000,0.6108797,0.6518395 S,0,39000,39075,0.6518395,0.6108797 S,0,39075,39525,0.6108797 S,0,39525,39600,0.6108797,0.6825597 S,0,39600,39675,0.6825597,0.6108797 S,0,39675,40125,0.6108797 S,0,40125,40200,0.6108797,0.6620797 S,0,40200,40275,0.6620797,0.6108797 S,0,40275,41325,0.6108797 R,0,40500,40575,0,-0.3891205 R,0,40575,40650,-0.3891205,0.2321067 R,0,40650,40725,0.2321067,-0.4164265 R,0,40725,40800,-0.4164265,0 R,0,40800,42900,0 S,0,41325,41400,0.6108797,0.6723198 S,0,41400,41475,0.6723198,0.6108797 S,0,41475,41925,0.6108797 S,0,41925,42000,0.6108797,0.6620797 S,0,42000,42075,0.6620797,0.6108797 S,0,42075,42525,0.6108797 S,0,42525,42600,0.6108797,0.6723198 S,0,42600,42675,0.6723198,0.6108797 S,0,42675,43725,0.6108797 R,0,42900,42975,0,-0.3891205 R,0,42975,43050,-0.3891205,0.2321067 R,0,43050,43125,0.2321067,-0.3754664 R,0,43125,43200,-0.3754664,0.2047998 R,0,43200,43275,0.2047998,0.02047974 R,0,43275,45300,0.02047974,0.01462857 S,0,43725,43800,0.6108797,0.6723201 S,0,43800,43875,0.6723201,0.6108797 S,0,43875,44325,0.6108797 S,0,44325,44400,0.6108797,0.6518401 S,0,44400,44475,0.6518401,0.6108797 S,0,44475,44925,0.6108797 S,0,44925,45000,0.6108797,0.6620797 S,0,45000,45075,0.6620797,0.6108797 S,0,45075,46125,0.6108797 R,0,45300,45375,0.01462857,-0.3891199 R,0,45375,45450,-0.3891199,0.2867206 R,0,45450,45525,0.2867206,-0.3891208 R,0,45525,45600,-0.3891208,0.02047974 R,0,45600,47625,0.02047974,0.02047915 S,0,46125,46200,0.6108797,0.6620797 S,0,46200,46275,0.6620797,0.6108797 S,0,46275,46725,0.6108797 S,0,46725,46800,0.6108797,0.6620797 S,0,46800,46875,0.6620797,0.6108797 S,0,46875,47325,0.6108797 S,0,47325,47400,0.6108797,0.6518395 S,0,47400,47475,0.6518395,0.6108797 S,0,47475,48525,0.6108797 R,0,47625,47700,0.02047915,0.3686395 R,0,47700,47775,0.3686395,-0.4352003 R,0,47775,47850,-0.4352003,0.3106133 R,0,47850,47925,0.3106133,-0.4062819 R,0,47850,47925,0.3106133,0.02047974 R,0,47925,48000,-0.4062819,-0.01702113 R,0,48000,,-0.01702113 R,0,48000,50025,-0.01702113,-0.01668816 S,0,48525,48600,0.6108797,0.6825597 S,0,48600,48675,0.6825597,0.6108797 S,0,48675,49125,0.6108797 S,0,49125,49200,0.6108797,0.6518398 S,0,49200,49275,0.6518398,0.6108797 S,0,49275,49725,0.6108797 S,0,49725,49800,0.6108797,0.6723198 S,0,49800,49875,0.6723198,0.6108797 S,0,49875,50925,0.6108797 R,0,50025,50100,-0.01668816,-0.3443559 R,0,50100,50175,-0.3443559,0.1881368 R,0,50175,50250,0.1881368,-0.3921178 R,0,50250,50325,-0.3921178,0.1847484 R,0,50325,50400,0.1847484,-0.01662649 R,0,50400,52950,-0.01662649,-0.01620719 S,0,50925,51000,0.6108797,0.6825597 S,0,51000,51075,0.6825597,0.6108797 S,0,51075,51525,0.6108797 S,0,51525,51600,0.6108797,0.66208 S,0,51600,51675,0.66208,0.6108797 S,0,51675,52125,0.6108797 S,0,52125,52200,0.6108797,0.6723198 S,0,52200,52275,0.6723198,0.6108797 S,0,52275,52725,0.6108797 S,0,52725,52800,0.6108797,0.6723198 S,0,52800,52875,0.6723198,0.6108797 S,0,52875,53925,0.6108797 R,0,52950,53025,-0.01620719,-0.4053147 R,0,53025,53100,-0.4053147,0.205002 R,0,53100,53175,0.205002,-0.3418016 R,0,53175,53250,-0.3418016,0.1763548 R,0,53250,53325,0.1763548,-0.4114096 R,0,53325,53400,-0.4114096,-0.01613319 R,0,53400,54900,-0.01613319,-0.01588654 S,0,53925,54000,0.6108797,0.6927993 S,0,54000,54075,0.6927993,0.6108797 S,0,54075,54525,0.6108797 S,0,54525,54600,0.6108797,0.6927996 S,0,54600,54675,0.6927996,0.6108797 S,0,54675,55425,0.6108797 R,0,54900,54975,-0.01588654,-0.3435543 R,0,54975,55050,-0.3435543,0.2367248 R,0,55050,55125,0.2367248,-0.3605962 R,0,55125,55200,-0.3605962,-0.01583721 R,0,55200,57300,-0.01583721,-0.0154919 S,0,55425,55500,0.6108797,0.6620797 S,0,55500,55575,0.6620797,0.6108797 S,0,55575,56325,0.6108797 S,0,56325,56400,0.6108797,0.6723201 S,0,56400,56475,0.6723201,0.6108797 S,0,56475,56925,0.6108797 S,0,56925,57000,0.6108797,0.6825597 S,0,57000,57075,0.6825597,0.6108797 S,0,57075,58125,0.6108797 R,0,57300,57375,-0.0154919,0.2098 R,0,57375,57450,0.2098,-0.3977607 R,0,57450,57525,-0.3977607,0.2849187 R,0,57525,57600,0.2849187,-0.01544257 R,0,57600,59700,-0.01544257,-0.01509726 S,0,58125,58200,0.6108797,0.6415997 S,0,58200,58275,0.6415997,0.6108797 S,0,58275,58725,0.6108797 S,0,58725,58800,0.6108797,0.6723196 S,0,58800,58875,0.6723196,0.6108797 S,0,58875,59325,0.6108797 S,0,59325,59400,0.6108797,0.6620797 S,0,59400,59475,0.6620797,0.6108797 S,0,59475,60525,0.6108797 R,0,59700,59775,-0.01509726,0.2716357 R,0,59775,59850,0.2716357,-0.4383256 R,0,59850,59925,-0.4383256,0.2853134 R,0,59925,60000,0.2853134,-0.01504793 R,0,60000,62100,-0.01504793,-0.01470262 S,0,60525,60600,0.6108797,0.6927996 S,0,60600,60675,0.6927996,0.6108797 S,0,60675,61125,0.6108797 S,0,61125,61200,0.6108797,0.6723198 S,0,61200,61275,0.6723198,0.6108797 S,0,61275,61725,0.6108797 S,0,61725,61800,0.6108797,0.6723195 S,0,61800,61875,0.6723195,0.6108797 S,0,61875,62925,0.6108797 R,0,62100,62175,-0.01470262,-0.3833298 R,0,62175,62250,-0.3833298,0.2638504 R,0,62250,62325,0.2638504,-0.3792093 R,0,62325,62400,-0.3792093,0.2952772 R,0,62400,62475,0.2952772,-0.3102354 R,0,62475,62550,-0.3102354,-0.01462863 R,0,62550,64500,-0.01462863,-0.01430799 S,0,62925,63000,0.6108797,0.6825597 S,0,63000,63075,0.6825597,0.6108797 S,0,63075,63525,0.6108797 S,0,63525,63600,0.6108797,0.6723198 S,0,63600,63675,0.6723198,0.6108797 S,0,63675,64125,0.6108797 S,0,64125,64200,0.6108797,0.6518395 S,0,64200,64275,0.6518395,0.6108797 S,0,64275,65325,0.6108797 R,0,64500,64575,-0.01430799,0.2724249 R,0,64575,64650,0.2724249,-0.3760959 R,0,64650,64725,-0.3760959,0.2758628 R,0,64725,64800,0.2758628,-0.01425866 R,0,64800,66900,-0.01425866,-0.01391335 S,0,65325,65400,0.6108797,0.6723201 S,0,65400,65475,0.6723201,0.6108797 S,0,65475,65925,0.6108797 S,0,65925,66000,0.6108797,0.6723195 S,0,66000,66075,0.6723195,0.6108797 S,0,66075,66525,0.6108797 S,0,66525,66600,0.6108797,0.6927999 S,0,66600,66675,0.6927999,0.6108797 S,0,66675,67725,0.6108797 R,0,66900,66975,-0.01391335,-0.4644613 R,0,66975,67050,-0.4644613,0.2386974 R,0,67050,67125,0.2386974,-0.3961824 R,0,67125,67200,-0.3961824,-0.01386402 R,0,67200,69450,-0.01386402,-0.01349404 S,0,67725,67800,0.6108797,0.6825594 S,0,67800,67875,0.6825594,0.6108797 S,0,67875,68325,0.6108797 S,0,68325,68400,0.6108797,0.6518398 S,0,68400,68475,0.6518398,0.6108797 S,0,68475,68925,0.6108797 S,0,68925,69000,0.6108797,0.6415997 S,0,69000,69075,0.6415997,0.6108797 S,0,69075,70125,0.6108797 R,0,69450,69525,-0.01349404,0.3141983 R,0,69525,69600,0.3141983,-0.3684559 R,0,69600,69675,-0.3684559,0.3415295 R,0,69675,69750,0.3415295,-0.01344471 R,0,69750,71700,-0.01344471,-0.01312407 S,0,70125,70200,0.6108797,0.6825597 S,0,70200,70275,0.6825597,0.6108797 S,0,70275,70725,0.6108797 S,0,70725,70800,0.6108797,0.6723201 S,0,70800,70875,0.6723201,0.6108797 S,0,70875,71325,0.6108797 S,0,71325,71400,0.6108797,0.6620797 S,0,71400,71475,0.6620797,0.6108797 S,0,71475,72525,0.6108797 R,0,71700,71775,-0.01312407,-0.4431917 R,0,71775,71850,-0.4431917,0.2736206 R,0,71850,71925,0.2736206,-0.4226873 R,0,71925,72000,-0.4226873,-0.01307474 R,0,72000,74100,-0.01307474,-0.01272943 S,0,72525,72600,0.6108797,0.6723195 S,0,72600,72675,0.6723195,0.6108797 S,0,72675,73125,0.6108797 S,0,73125,73200,0.6108797,0.6518401 S,0,73200,73275,0.6518401,0.6108797 S,0,73275,75525,0.6108797 R,0,74100,74175,-0.01272943,-0.3608775 R,0,74175,74250,-0.3608775,0.3081485 R,0,74250,74325,0.3081485,-0.3233058 R,0,74325,74400,-0.3233058,-0.0126801 R,0,74400,76500,-0.0126801,-0.01233479 S,0,75525,75600,0.6108797,0.6927996 S,0,75600,75675,0.6927996,0.6108797 S,0,75675,76125,0.6108797 S,0,76125,76200,0.6108797,0.6620797 S,0,76200,76275,0.6620797,0.6108797 S,0,76275,77325,0.6108797 R,0,76500,76575,-0.01233479,-0.3809626 R,0,76575,76650,-0.3809626,0.29489 R,0,76650,76725,0.29489,-0.3706979 R,0,76725,76800,-0.3706979,-0.01228546 R,0,76800,78900,-0.01228546,-0.01194015 S,0,77325,77400,0.6108797,0.6927999 S,0,77400,77475,0.6927999,0.6108797 S,0,77475,77925,0.6108797 S,0,77925,78000,0.6108797,0.6723195 S,0,78000,78075,0.6723195,0.6108797 S,0,78075,78525,0.6108797 S,0,78525,78600,0.6108797,0.6723195 S,0,78600,78675,0.6723195,0.6108797 S,0,78675,79725,0.6108797 R,0,78900,78975,-0.01194015,-0.4010471 R,0,78975,79050,-0.4010471,0.2611521 R,0,79050,79125,0.2611521,-0.4078492 R,0,79125,79200,-0.4078492,-0.01189082 R,0,79200,81300,-0.01189082,-0.01154551 S,0,79725,79800,0.6108797,0.66208 S,0,79800,79875,0.66208,0.6108797 S,0,79875,80325,0.6108797 S,0,80325,80400,0.6108797,0.6825597 S,0,80400,80475,0.6825597,0.6108797 S,0,80475,80925,0.6108797 S,0,80925,81000,0.6108797,0.6620797 S,0,81000,81075,0.6620797,0.6108797 S,0,81075,82125,0.6108797 R,0,81300,81375,-0.01154551,0.2547064 R,0,81375,81450,0.2547064,-0.386988 R,0,81450,81525,-0.386988,0.2308379 R,0,81525,81600,0.2308379,-0.01149618 R,0,81600,83700,-0.01149618,-0.01115087 S,0,82125,82200,0.6108797,0.6620797 S,0,82200,82275,0.6620797,0.6108797 S,0,82275,82725,0.6108797 S,0,82725,82800,0.6108797,0.66208 S,0,82800,82875,0.66208,0.6108797 S,0,82875,83325,0.6108797 S,0,83325,83400,0.6108797,0.6415997 S,0,83400,83475,0.6415997,0.6108797 S,0,83475,84525,0.6108797 R,0,83700,83775,-0.01115087,0.2551011 R,0,83775,83850,0.2551011,-0.3865927 R,0,83850,83925,-0.3865927,0.3745928 R,0,83925,84000,0.3745928,-0.01110154 R,0,84000,86100,-0.01110154,-0.01075624 S,0,84525,84600,0.6108797,0.6518395 S,0,84600,84675,0.6518395,0.6108797 S,0,84675,85125,0.6108797 S,0,85125,85200,0.6108797,0.6518398 S,0,85200,85275,0.6518398,0.6108797 S,0,85275,85725,0.6108797 S,0,85725,85800,0.6108797,0.6825597 S,0,85800,85875,0.6825597,0.6108797 S,0,85875,86925,0.6108797 R,0,86100,86175,-0.01075624,0.3374165 R,0,86175,86250,0.3374165,-0.4339848 R,0,86250,86325,-0.4339848,0.2077347 R,0,86325,86400,0.2077347,-0.01070691 R,0,86400,88500,-0.01070691,-0.0103616 S,0,86925,87000,0.6108797,0.6620797 S,0,87000,87075,0.6620797,0.6108797 S,0,87075,87525,0.6108797 S,0,87525,87600,0.6108797,0.6723201 S,0,87600,87675,0.6723201,0.6108797 S,0,87675,88125,0.6108797 S,0,88125,88200,0.6108797,0.68256 S,0,88200,88275,0.68256,0.6108797 S,0,88275,89325,0.6108797 R,0,88500,88575,-0.0103616,-0.3585091 R,0,88575,88650,-0.3585091,0.290037 R,0,88650,88725,0.290037,-0.3926175 R,0,88725,88800,-0.3926175,-0.01031227 R,0,88800,90900,-0.01031227,-0.009966958 S,0,89325,89400,0.6108797,0.6518401 S,0,89400,89475,0.6518401,0.6108797 S,0,89475,89925,0.6108797 S,0,89925,90000,0.6108797,0.66208 S,0,90000,90075,0.66208,0.6108797 S,0,90075,90525,0.6108797 S,0,90525,90600,0.6108797,0.6620797 S,0,90600,90675,0.6620797,0.6108797 S,0,90675,91725,0.6108797 R,0,90900,90975,-0.009966958,-0.4400346 R,0,90975,91050,-0.4400346,0.2972586 R,0,91050,91125,0.2972586,-0.5526497 R,0,91125,91200,-0.5526497,-0.009917628 R,0,91200,93300,-0.009917628,-0.00957232 S,0,91725,91800,0.6108797,0.6723195 S,0,91800,91875,0.6723195,0.6108797 S,0,91875,92325,0.6108797 S,0,92325,92400,0.6108797,0.6723195 S,0,92400,92475,0.6723195,0.6108797 S,0,92475,92925,0.6108797 S,0,92925,93000,0.6108797,0.6620796 S,0,93000,93075,0.6620796,0.6108797 S,0,93075,94725,0.6108797 R,0,93300,93375,-0.00957232,-0.4396393 R,0,93375,93450,-0.4396393,0.3631894 R,0,93450,93525,0.3631894,-0.3648623 R,0,93525,93600,-0.3648623,0.2451122 R,0,93600,93675,0.2451122,-0.3737129 R,0,93675,93750,-0.3737129,-0.009498325 R,0,93750,105300,-0.009498325 S,0,94725,94800,0.6108797,0.7030395 S,0,94800,94875,0.7030395,0.6108797 S,0,94875,95925,0.6108797 S,0,95925,96000,0.6108797,0.7030398 S,0,96000,96075,0.7030398,0.6108797 S,0,96075,97125,0.6108797 S,0,97125,97200,0.6108797,0.7030395 S,0,97200,97275,0.7030395,0.6108797 S,0,97275,98325,0.6108797 S,0,98325,98400,0.6108797,0.7030395 S,0,98400,98475,0.7030395,0.6108797 S,0,98475,99525,0.6108797 S,0,99525,99600,0.6108797,0.7132796 S,0,99600,99675,0.7132796,0.6108797 S,0,99675,100725,0.6108797 S,0,100725,100800,0.6108797,0.6928002 S,0,100800,100875,0.6928002,0.6108797 S,0,100875,101925,0.6108797 S,0,101925,102000,0.6108797,0.6927996 S,0,102000,102075,0.6927996,0.6108797 S,0,102075,103125,0.6108797 S,0,103125,103200,0.6108797,0.7030395 S,0,103200,103275,0.7030395,0.6108797 S,0,103275,,0.6108797 S,0,104325,,0.6108797 S,0,104325,104400,0.6108797,0.6825597 S,0,104400,104475,0.6825597,0.6108797 S,0,104475,104925,0.6108797 S,0,104925,105000,0.6108797,0.6825597 S,0,105000,105075,0.6825597,0.6108797 S,0,105075,106125,0.6108797 R,0,105300,105375,-0.009498325,-0.2501386 R,0,105375,105450,-0.2501386,0.1031421 R,0,105450,105525,0.1031421,-0.250138 R,0,105525,105600,-0.250138,0.01098263 R,0,105600,107700,0.01098263,0.01073031 S,0,106125,106200,0.6108797,0.6825597 S,0,106200,106275,0.6825597,0.6108797 S,0,106275,106725,0.6108797 S,0,106725,106800,0.6108797,0.6723201 S,0,106800,106875,0.6723201,0.6108797 S,0,106875,107325,0.6108797 S,0,107325,107400,0.6108797,0.6620797 S,0,107400,107475,0.6620797,0.6108797 S,0,107475,109125,0.6108797 R,0,107700,107775,0.01073031,-0.3988789 R,0,107775,107850,-0.3988789,0.2945067 R,0,107850,107925,0.2945067,-0.4081615 R,0,107925,108000,-0.4081615,0.2285621 R,0,108000,108075,0.2285621,-0.4403133 R,0,108075,108150,-0.4403133,0.3039302 R,0,108150,108225,0.3039302,-0.4366255 R,0,108225,108300,-0.4366255,0.01065822 R,0,108300,110100,0.01065822,0.01044195 S,0,109125,109200,0.6108797,0.6825597 S,0,109200,109275,0.6825597,0.6108797 S,0,109275,109725,0.6108797 S,0,109725,109800,0.6108797,0.6723198 S,0,109800,109875,0.6723198,0.6108797 S,0,109875,110925,0.6108797 R,0,110100,110175,0.01044195,0.3790737 R,0,110175,110250,0.3790737,-0.4196554 R,0,110250,110325,-0.4196554,0.2254552 R,0,110325,110400,0.2254552,0.01040591 R,0,110400,112500,0.01040591,0.01015359 S,0,110925,111000,0.6108797,0.6620797 S,0,111000,111075,0.6620797,0.6108797 S,0,111075,111525,0.6108797 S,0,111525,111600,0.6108797,0.6723195 S,0,111600,111675,0.6723195,0.6108797 S,0,111675,112125,0.6108797 S,0,112125,112200,0.6108797,0.6723195 S,0,112200,112275,0.6723195,0.6108797 S,0,112275,113925,0.6108797 R,0,112500,112575,0.01015359,-0.3789759 R,0,112575,112650,-0.3789759,0.2910038 R,0,112650,112725,0.2910038,-0.390697 R,0,112725,112800,-0.390697,0.2014589 R,0,112800,112875,0.2014589,-0.378866 R,0,112875,112950,-0.378866,0.2013429 R,0,112950,113025,0.2013429,-0.5496479 R,0,113025,113100,-0.5496479,0.0100815 R,0,113100,114900,0.0100815,0.009865235 S,0,113925,114000,0.6108797,0.6723198 S,0,114000,114075,0.6723198,0.6108797 S,0,114075,114525,0.6108797 S,0,114525,114600,0.6108797,0.6723198 S,0,114600,114675,0.6723198,0.6108797 S,0,114675,115725,0.6108797 R,0,114900,114975,0.009865235,-0.2768638 R,0,114975,115050,-0.2768638,0.1463812 R,0,115050,115125,0.1463812,-0.3110147 R,0,115125,115200,-0.3110147,0.00982919 R,0,115200,117300,0.00982919,0.009576876 S,0,115725,115800,0.6108797,0.68256 S,0,115800,115875,0.68256,0.6108797 S,0,115875,116325,0.6108797 S,0,116325,116400,0.6108797,0.6723195 S,0,116400,116475,0.6723195,0.6108797 S,0,116475,116925,0.6108797 S,0,116925,117000,0.6108797,0.6723201 S,0,117000,117075,0.6723201,0.6108797 S,0,117075,118725,0.6108797 R,0,117300,117375,0.009576876,-0.5638721 R,0,117375,117450,-0.5638721,0.3372381 R,0,117450,117525,0.3372381,-0.4956245 R,0,117525,117600,-0.4956245,0.2402817 R,0,117600,117675,0.2402817,-0.4318125 R,0,117675,117750,-0.4318125,0.2272934 R,0,117750,117825,0.2272934,-0.4960009 R,0,117825,117900,-0.4960009,0.009504786 R,0,117900,119700,0.009504786,0.009288517 S,0,118725,118800,0.6108797,0.6825597 S,0,118800,118875,0.6825597,0.6108797 S,0,118875,119336,0.6108797 S,0,119336,119400,0.6108797,0.6620797 S,0,119400,119475,0.6620797,0.6108797 S,0,119475,120525,0.6108797 R,0,119700,119775,0.009288517,-0.4822409 R,0,119775,119850,-0.4822409,0.3662071 R,0,119850,119925,0.3662071,-0.430571 R,0,119925,120000,-0.430571,0.5380268 R,0,120000,120075,0.5380268,-0.4543352 R,0,120075,120150,-0.4543352,0.273622 R,0,120150,120225,0.273622,-0.3501005 R,0,120225,120300,-0.3501005,0.009216427 R,0,120300,133200,0.009216427,0.007666496 S,0,120525,120600,0.6108797,0.6620797 S,0,120600,120675,0.6620797,0.6108797 S,0,120675,121125,0.6108797 S,0,121125,121200,0.6108797,0.6723201 S,0,121200,121275,0.6723201,0.6108797 S,0,121275,,0.6108797 S,0,121275,123525,0.6108797 S,0,123525,123600,0.6108797,0.6723199 S,0,123600,123675,0.6723199,0.6108797 S,0,123675,124725,0.6108797 S,0,124725,124800,0.6108797,0.6723201 S,0,124800,124875,0.6723201,0.6108797 S,0,124875,125925,0.6108797 S,0,125925,126000,0.6108797,0.6723195 S,0,126000,126075,0.6723195,0.6108797 S,0,126075,128325,0.6108797 S,0,128325,128400,0.6108797,0.6723198 S,0,128400,128475,0.6723198,0.6108797 S,0,128475,129525,0.6108797 S,0,129525,129600,0.6108797,0.6518398 S,0,129600,129675,0.6518398,0.6108797 S,0,129675,130725,0.6108797 S,0,130725,130800,0.6108797,0.6518398 S,0,130800,130875,0.6518398,0.6108797 S,0,130875,131925,0.6108797 S,0,131925,132000,0.6108797,0.6620797 S,0,132000,132075,0.6620797,0.6108797 S,0,132075,133725,0.6108797 R,0,133200,133275,0.007666496,-0.5453027 R,0,133275,133350,-0.5453027,0.3353279 R,0,133350,133425,0.3353279,-0.4838809 R,0,133425,133500,-0.4838809,0.007630451 R,0,133500,134100,0.007630451,0.007558362 S,0,133725,133800,0.6108797,0.6723201 S,0,133800,133875,0.6723201,0.6108797 S,0,133875,135525,0.6108797 R,0,134100,134175,0.007558362,-0.483971 R,0,134175,134250,-0.483971,0.2533 R,0,134250,134325,0.2533,-0.4020687 R,0,134325,134400,-0.4020687,0.007522317 R,0,134400,134850,0.007522317,0.007468249 R,0,134850,134925,0.007468249,-0.4635808 R,0,134925,135000,-0.4635808,0.4068106 R,0,135000,135075,0.4068106,0.007441216 R,0,135075,136050,0.007441216,0.00732407 S,0,135525,135600,0.6108797,0.6723195 S,0,135600,135675,0.6723195,0.6108797 S,0,135675,,0.6108797 R,0,136050,136125,0.00732407,0.5602753 R,0,136125,136200,0.5602753,-0.4123753 R,0,136200,136318,-0.4123753,0.00729187 R,0,136318,136500,0.00729187,0.007270002 R,0,136500,136575,0.007270002,0.3554208 R,0,136575,136650,0.3554208,-0.477442 R,0,136650,136725,-0.477442,0.2154563 R,0,136725,136800,0.2154563,0.007233957 R,0,136800,138000,0.007233957,0.007089778 S,0,137325,,0.6108797 S,0,137325,137400,0.6108797,0.6620797 S,0,137400,137475,0.6620797,0.6108797 S,0,137475,138525,0.6108797 R,0,138000,138075,0.007089778,0.6419612 R,0,138075,138150,0.6419612,-0.3888751 R,0,138150,138225,-0.3888751,0.3620489 R,0,138225,138300,0.3620489,0.007053733 R,0,138300,140250,0.007053733,0.006819441 S,0,138525,138600,0.6108797,0.6723195 S,0,138600,138675,0.6723195,0.6108797 S,0,138675,139125,0.6108797 S,0,139125,139200,0.6108797,0.6723198 S,0,139200,139275,0.6723198,0.6108797 S,0,139275,139725,0.6108797 S,0,139725,139800,0.6108797,0.6620797 S,0,139800,139875,0.6620797,0.6108797 S,0,139875,140925,0.6108797 R,0,140250,140325,0.006819441,0.4164107 R,0,140325,140400,0.4164107,-0.457412 R,0,140400,140475,-0.457412,0.3890857 R,0,140475,140550,0.3890857,0.006783396 R,0,140550,141300,0.006783396,0.006693284 S,0,140925,141000,0.6108797,0.66208 S,0,141000,141075,0.66208,0.6108797 S,0,141075,142125,0.6108797 R,0,141300,141375,0.006693284,0.3343643 R,0,141375,141450,0.3343643,-0.3865408 R,0,141450,141525,-0.3865408,0.2851942 R,0,141525,141600,0.2851942,-0.3606177 R,0,141600,141675,-0.3606177,0.2940502 R,0,141675,141750,0.2940502,0.006639216 R,0,141750,142800,0.006639216,0.006513059 S,0,142125,142200,0.6108797,0.6927996 S,0,142200,142275,0.6927996,0.6108797 S,0,142275,144525,0.6108797 R,0,142800,142875,0.006513059,-0.4235753 R,0,142875,142950,-0.4235753,0.3136951 R,0,142950,143025,0.3136951,-0.3723938 R,0,143025,143100,-0.3723938,0.006477014 R,0,143100,143700,0.006477014,0.006404924 R,0,143700,143775,0.006404924,0.7846357 R,0,143775,143850,0.7846357,-0.5179012 R,0,143850,143925,-0.5179012,0.452842 R,0,143925,144000,0.452842,-0.4742287 R,0,144000,144075,-0.4742287,0.339501 R,0,144075,144150,0.339501,0.006350857 R,0,144150,145200,0.006350857,0.0062247 S,0,144525,144600,0.6108797,0.6723198 S,0,144600,144675,0.6723198,0.6108797 S,0,144675,146925,0.6108797 R,0,145200,145275,0.0062247,0.313416 R,0,145275,145350,0.313416,-0.4238735 R,0,145350,145425,-0.4238735,0.3645975 R,0,145425,145500,0.3645975,0.006188655 R,0,145500,146100,0.006188655,0.006116565 R,0,146100,146175,0.006116565,0.538588 R,0,146175,146250,0.538588,-0.3666372 R,0,146250,146325,-0.3666372,0.259017 R,0,146325,146400,0.259017,-0.3577816 R,0,146400,146475,-0.3577816,0.3566203 R,0,146475,146550,0.3566203,0.006062497 R,0,146550,147600,0.006062497,0.00593634 S,0,146925,147000,0.6108797,0.6620797 S,0,147000,147075,0.6620797,0.6108797 S,0,147075,148125,0.6108797 R,0,147600,147675,0.00593634,0.4974471 R,0,147675,147750,0.4974471,0.005918318 R,0,147750,148500,0.005918318,0.005828205 S,0,148125,148200,0.6108797,0.6825594 S,0,148200,148275,0.6825594,0.6108797 S,0,148275,149325,0.6108797 R,0,148500,148575,0.005828205,0.5792592 R,0,148575,148650,0.5792592,-0.4242702 R,0,148650,148725,-0.4242702,0.3642014 R,0,148725,148800,0.3642014,-0.5676476 R,0,148800,148875,-0.5676476,0.2105837 R,0,148875,148950,0.2105837,-0.6154528 R,0,148950,149025,-0.6154528,0.4119522 R,0,149025,149100,0.4119522,0.005756116 R,0,149100,151800,0.005756116,0.002944614 S,0,149325,149400,0.6108797,0.6723198 S,0,149400,149475,0.6723198,0.6108797 S,0,149475,149925,0.6108797 S,0,149925,150000,0.6108797,0.7542395 S,0,150000,150075,0.7542395,0.6108797 S,0,150075,151800,0.6108797 S,0,151800,152925,0.6108797 R,0,151800,172500,0.005431712,0.002944614 F,0,151800,269400,1 M,0,151800,276062,136,398,135,398 S,0,152925,153000,0.6108797,0.6620794 S,0,153000,153075,0.6620794,0.6108797 S,0,153075,154125,0.6108797 S,0,154125,154200,0.6108797,0.6518398 S,0,154200,154275,0.6518398,0.6108797 S,0,154275,155325,0.6108797 S,0,155325,155400,0.6108797,0.6620797 S,0,155400,155475,0.6620797,0.6108797 S,0,155475,156525,0.6108797 S,0,156525,156600,0.6108797,0.6518398 S,0,156600,156675,0.6518398,0.6108797 S,0,156675,157738,0.6108797 S,0,157738,157800,0.6108797,0.6518398 S,0,157800,157875,0.6518398,0.6108797 S,0,157875,158925,0.6108797 S,0,158925,159000,0.6108797,0.6518398 S,0,159000,159075,0.6518398,0.6108797 S,0,159075,160125,0.6108797 S,0,160125,160200,0.6108797,0.6620797 S,0,160200,160275,0.6620797,0.6108797 S,0,160275,161325,0.6108797 S,0,161325,161400,0.6108797,0.6620797 S,0,161400,161475,0.6620797,0.6108797 S,0,161475,162525,0.6108797 S,0,162525,162600,0.6108797,0.6620797 S,0,162600,162675,0.6620797,0.6108797 S,0,162675,163725,0.6108797 S,0,163725,163800,0.6108797,0.6927999 S,0,163800,163875,0.6927999,0.6108797 S,0,163875,164925,0.6108797 S,0,164925,165000,0.6108797,0.6518395 S,0,165000,165075,0.6518395,0.6108797 S,0,165075,166125,0.6108797 S,0,166125,166200,0.6108797,0.6518401 S,0,166200,166275,0.6518401,0.6108797 S,0,166275,167325,0.6108797 S,0,167325,167400,0.6108797,0.6927999 S,0,167400,167475,0.6927999,0.6108797 S,0,167475,172125,0.6108797 S,0,172125,172200,0.6108797,0.7148796 S,0,172200,172275,0.7148796,0.6108797 S,0,172275,173325,0.6108797 R,0,172500,172575,0.002944614,-0.3170644 R,0,172575,172650,-0.3170644,0.3389263 R,0,172650,172725,0.3389263,-0.3170824 R,0,172725,172800,-0.3170824,0.002908569 R,0,172800,174900,0.002908569,0.002656255 S,0,173325,173400,0.6108797,0.6748797 S,0,173400,173475,0.6748797,0.6108797 S,0,173475,174525,0.6108797 S,0,174525,174600,0.6108797,0.6748797 S,0,174600,174675,0.6748797,0.6108797 S,0,174675,175725,0.6108797 R,0,174900,174975,0.002656255,0.258647 R,0,174975,175050,0.258647,-0.2853622 R,0,175050,175125,-0.2853622,0.3226286 R,0,175125,175200,0.3226286,0.00262021 R,0,175200,177600,0.00262021,0.002331851 S,0,175725,175800,0.6108797,0.7228798 S,0,175800,175875,0.7228798,0.6108797 S,0,175875,176925,0.6108797 S,0,176925,177000,0.6108797,0.6828799 S,0,177000,177075,0.6828799,0.6108797 S,0,177075,178125,0.6108797 R,0,177600,177675,0.002331851,-0.2376772 R,0,177675,177750,-0.2376772,0.4823138 R,0,177750,177825,0.4823138,0.002304817 R,0,177825,179700,0.002304817,0.002079536 S,0,178125,178200,0.6108797,0.7548797 S,0,178200,178275,0.7548797,0.6108797 S,0,178275,179325,0.6108797 S,0,179325,179400,0.6108797,0.6748797 S,0,179400,179475,0.6748797,0.6108797 S,0,179475,180225,0.6108797,0.6428795 R,0,179700,179775,0.002079536,0.3380709 R,0,179775,179850,0.3380709,-0.3659384 R,0,179850,179925,-0.3659384,0.4020525 R,0,179925,180000,0.4020525,0.002043491 R,0,180000,182100,0.002043491,0.001791177 S,0,180225,180300,0.6428795,0.6108797 S,0,180300,180375,0.6108797 S,0,180375,180525,0.6108797 S,0,180525,180600,0.6108797,0.6723201 S,0,180600,180675,0.6723201,0.6108797 S,0,180675,181125,0.6108797 S,0,181125,181200,0.6108797,0.6927999 S,0,181200,181275,0.6927999,0.6108797 S,0,181275,181725,0.6108797 S,0,181725,181800,0.6108797,0.6927999 S,0,181800,181875,0.6927999,0.6108797 S,0,181875,182925,0.6108797 R,0,182100,182175,0.001791177,-0.2542182 R,0,182175,182250,-0.2542182,0.4337727 R,0,182250,182325,0.4337727,-0.3662357 R,0,182325,182400,-0.3662357,0.001755132 R,0,182400,184650,0.001755132,0.001484795 S,0,182925,183000,0.6108797,0.6927999 S,0,183000,183075,0.6927999,0.6108797 S,0,183075,183525,0.6108797 S,0,183525,183600,0.6108797,0.6927996 S,0,183600,183675,0.6927996,0.6108797 S,0,183675,184125,0.6108797 S,0,184125,184200,0.6108797,0.6825597 S,0,184200,184275,0.6825597,0.6108797 S,0,184275,185325,0.6108797 R,0,184650,184725,0.001484795,-0.3025244 R,0,184725,184800,-0.3025244,0.2414674 R,0,184800,184875,0.2414674,-0.2865421 R,0,184875,184950,-0.2865421,0.00144875 R,0,184950,,0.00144875 R,0,184950,189300,0.00144875,0.001178414 R,0,184950,189300,0.00144875,0.001178414 S,0,185325,185400,0.6108797,0.6825597 S,0,185400,185475,0.6825597,0.6108797 S,0,185475,185925,0.6108797 S,0,185925,186000,0.6108797,0.6825594 S,0,186000,186075,0.6825594,0.6108797 S,0,186075,186525,0.6108797 S,0,186525,186600,0.6108797,0.6825594 S,0,186600,186675,0.6825594,0.6108797 S,0,186675,187725,0.6108797 S,0,187725,187800,0.6108797,0.6927996 S,0,187800,187875,0.6927996,0.6108797 S,0,187875,188325,0.6108797 S,0,188325,188400,0.6108797,0.7030401 S,0,188400,188475,0.7030401,0.6108797 S,0,188475,188925,0.6108797 S,0,188925,189000,0.6108797,0.6927996 S,0,189000,189075,0.6927996,0.6108797 S,0,189075,190125,0.6108797 R,0,189300,189375,0.001178414,0.205969 R,0,189375,189450,0.205969,-0.4357468 R,0,189450,189525,-0.4357468,0.2127773 R,0,189525,189600,0.2127773,0.001141497 R,0,189600,194100,0.001141497,0.0005877367 S,0,190125,190200,0.6108797,0.66208 S,0,190200,190275,0.66208,0.6108797 S,0,190275,191325,0.6108797 S,0,191325,191400,0.6108797,0.6723195 S,0,191400,191475,0.6723195,0.6108797 S,0,191475,192525,0.6108797 S,0,192525,192600,0.6108797,0.6927996 S,0,192600,192675,0.6927996,0.6108797 S,0,192675,193125,0.6108797 S,0,193125,193200,0.6108797,0.6927999 S,0,193200,193275,0.6927999,0.6108797 S,0,193275,193742,0.6108797 S,0,193742,193800,0.6108797,0.6825594 S,0,193800,193875,0.6825594,0.6108797 S,0,193875,194925,0.6108797 R,0,194100,194175,0.0005877367,0.2872979 R,0,194175,194250,0.2872979,-0.4226845 R,0,194250,194325,-0.4226845,0.1780524 R,0,194325,194400,0.1780524,0.0005508193 R,0,194400,196500,0.0005508193,0.000292398 S,0,194925,195000,0.6108797,0.6927996 S,0,195000,195075,0.6927996,0.6108797 S,0,195075,195525,0.6108797 S,0,195525,195600,0.6108797,0.7235195 S,0,195600,195675,0.7235195,0.6108797 S,0,195675,196125,0.6108797 S,0,196125,196200,0.6108797,0.6928002 S,0,196200,196275,0.6928002,0.6108797 S,0,196275,197325,0.6108797 R,0,196500,196575,0.000292398,0.3894036 R,0,196575,196650,0.3894036,-0.3751928 R,0,196650,196725,-0.3751928,0.2630911 R,0,196725,196800,0.2630911,0.0002554806 R,0,196800,198900,0.0002554806,-2.940706E-06 S,0,197325,197400,0.6108797,0.7030397 S,0,197400,197475,0.7030397,0.6108797 S,0,197475,197925,0.6108797 S,0,197925,198000,0.6108797,0.6927999 S,0,198000,198075,0.6927999,0.6108797 S,0,198075,198525,0.6108797 S,0,198525,198600,0.6108797,0.6927999 S,0,198600,198675,0.6927999,0.6108797 S,0,198675,199725,0.6108797 R,0,198900,198975,-2.940706E-06,-0.3891314 R,0,198975,199050,-0.3891314,0.2525659 R,0,199050,199125,0.2525659,-0.4062175 R,0,199125,199200,-0.4062175,-3.985804E-05 R,0,199200,200700,-3.985804E-05,-0.0002244447 S,0,199725,199800,0.6108797,0.6927999 S,0,199800,199875,0.6927999,0.6108797 S,0,199875,200325,0.6108797 S,0,200325,200400,0.6108797,0.7030395 S,0,200400,200475,0.7030395,0.6108797 S,0,200475,202725,0.6108797 R,0,200700,200775,-0.0002244447,-0.4303136 R,0,200775,200850,-0.4303136,0.2846152 R,0,200850,200925,0.2846152,-0.3582799 R,0,200925,201000,-0.3582799,0.4802112 R,0,201000,201075,0.4802112,-0.5014575 R,0,201075,201150,-0.5014575,0.4302908 R,0,201150,201225,0.4302908,-0.4606801 R,0,201225,201300,-0.4606801,0.450589 R,0,201300,201375,0.450589,-0.4199017 R,0,201375,201450,-0.4199017,0.5528072 R,0,201450,201525,0.5528072,-0.5429639 R,0,201525,201600,-0.5429639,-0.0003351967 R,0,201600,201825,-0.0003351967,-0.0003628847 R,0,201825,201900,-0.0003628847,-0.389492 R,0,201900,202050,-0.389492,0.2180632 R,0,202050,202125,0.2180632,-0.000399802 R,0,202125,203700,-0.000399802,-0.000593618 S,0,202725,202800,0.6108797,0.6927993 S,0,202800,202875,0.6927993,0.6108797 S,0,202875,203325,0.6108797 S,0,203325,203400,0.6108797,0.6825594 S,0,203400,203475,0.6825594,0.6108797 S,0,203475,204525,0.6108797 R,0,203700,203775,-0.000593618,-0.5535631 R,0,203775,203850,-0.5535631,0.2656276 R,0,203850,203925,0.2656276,-0.5638211 R,0,203925,204000,-0.5638211,-0.0006305354 R,0,204000,206100,-0.0006305354,-0.0008889567 S,0,204525,204600,0.6108797,0.6825597 S,0,204600,204675,0.6825597,0.6108797 S,0,204675,205125,0.6108797 S,0,205125,205200,0.6108797,0.7030398 S,0,205200,205275,0.7030398,0.6108797 S,0,205275,205725,0.6108797 S,0,205725,205800,0.6108797,0.6927996 S,0,205800,205875,0.6927996,0.6108797 S,0,205875,206925,0.6108797 R,0,206100,206175,-0.0008889567,0.2653421 R,0,206175,206250,0.2653421,-0.3666218 R,0,206250,206325,-0.3666218,0.3906415 R,0,206325,206400,0.3906415,-0.4249596 R,0,206400,206475,-0.4249596,0.4797597 R,0,206475,206550,0.4797597,-0.3358412 R,0,206550,206625,-0.3358412,0.5688776 R,0,206625,206700,0.5688776,-0.0009627914 R,0,206700,208500,-0.0009627914,-0.001184295 S,0,206925,207000,0.6108797,0.6927996 S,0,207000,207075,0.6927996,0.6108797 S,0,207075,207525,0.6108797 S,0,207525,207600,0.6108797,0.7030395 S,0,207600,207675,0.7030395,0.6108797 S,0,207675,208125,0.6108797 S,0,208125,208200,0.6108797,0.7132796 S,0,208200,208275,0.7132796,0.6108797 S,0,208275,209325,0.6108797 R,0,208500,208575,-0.001184295,0.4903263 R,0,208575,208650,0.4903263,-0.328883 R,0,208650,208725,-0.328883,0.7975083 R,0,208725,208800,0.7975083,-0.001221213 R,0,208800,214800,-0.001221213,-0.001959559 S,0,209325,209400,0.6108797,0.68256 S,0,209400,209475,0.68256,0.6108797 S,0,209475,210525,0.6108797 S,0,210525,210600,0.6108797,0.6825597 S,0,210600,210675,0.6825597,0.6108797 S,0,210675,211725,0.6108797 S,0,211725,211800,0.6108797,0.6723201 S,0,211800,211875,0.6723201,0.6108797 S,0,211875,215325,0.6108797 R,0,214800,214875,-0.001959559,-0.554929 R,0,214875,214950,-0.554929,0.3052223 R,0,214950,215025,0.3052223,-0.524227 R,0,215025,215100,-0.524227,-0.001996477 R,0,215100,215700,-0.001996477,-0.002070311 S,0,215325,215400,0.6108797,0.6723201 S,0,215400,215475,0.6723201,0.6108797 S,0,215475,217125,0.6108797 R,0,215700,215775,-0.002070311,-0.5755195 R,0,215775,215850,-0.5755195,0.3733779 R,0,215850,215925,0.3733779,-0.305885 R,0,215925,216000,-0.305885,-0.002107229 R,0,216000,216450,-0.002107229,-0.002162605 R,0,216450,216525,-0.002162605,-0.4322524 R,0,216525,216600,-0.4322524,-0.002181063 R,0,216600,217500,-0.002181063,-0.002291815 S,0,217125,217200,0.6108797,0.6723201 S,0,217200,217275,0.6723201,0.6108797 S,0,217275,218325,0.6108797 R,0,217500,217575,-0.002291815,-0.4323816 R,0,217575,217650,-0.4323816,0.3868092 R,0,217650,217725,0.3868092,-0.6269596 R,0,217725,217800,-0.6269596,-0.002328733 R,0,217800,218700,-0.002328733,-0.002439484 S,0,218325,218400,0.6108797,0.6825597 S,0,218400,218475,0.6825597,0.6108797 S,0,218475,220125,0.6108797 R,0,218700,218775,-0.002439484,-0.7397296 R,0,218775,218850,-0.7397296,0.4071409 R,0,218850,218925,0.4071409,-0.4325475 R,0,218925,219000,-0.4325475,-0.002476402 R,0,219000,219600,-0.002476402,-0.002550237 R,0,219600,219675,-0.002550237,-0.5145596 R,0,219675,219750,-0.5145596,0.3728985 R,0,219750,219825,0.3728985,-0.3473242 R,0,219825,219900,-0.3473242,-0.002587154 R,0,219900,220500,-0.002587154,-0.002660989 S,0,220125,220200,0.6108797,0.6825594 S,0,220200,220275,0.6825594,0.6108797 S,0,220275,221325,0.6108797 R,0,220500,220575,-0.002660989,-0.4122704 R,0,220575,220650,-0.4122704,0.3386538 R,0,220650,220725,0.3386538,-0.4464221 R,0,220725,220800,-0.4464221,-0.002697906 R,0,220800,221700,-0.002697906,-0.002808658 S,0,221325,221400,0.6108797,0.6927999 S,0,221400,221475,0.6927999,0.6108797 S,0,221475,222525,0.6108797 R,0,221700,221775,-0.002808658,-0.6172179 R,0,221775,221850,-0.6172179,0.3658128 R,0,221850,221925,0.3658128,-0.4636361 R,0,221925,222000,-0.4636361,0.3657945 R,0,222000,222075,0.3657945,-0.5353353 R,0,222075,222150,-0.5353353,-0.002864034 R,0,222150,222900,-0.002864034,-0.002956327 S,0,222525,222600,0.6108797,0.7132796 S,0,222600,222675,0.7132796,0.6108797 S,0,222675,223751,0.6108797 R,0,222900,222975,-0.002956327,0.5295143 R,0,222975,223050,0.5295143,-0.3347515 R,0,223050,223125,-0.3347515,0.3625835 R,0,223125,223200,0.3625835,-0.4760821 R,0,223200,223275,-0.4760821,0.4567727 R,0,223275,223350,0.4567727,-0.003011703 R,0,223350,224400,-0.003011703,-0.003140914 S,0,223751,223800,0.6108797,0.6927999 S,0,223800,223875,0.6927999,0.6108797 S,0,223875,224916,0.6108797 R,0,224400,224475,-0.003140914,-0.5561097 R,0,224475,224550,-0.5561097,0.4269204 R,0,224550,224625,0.4269204,-0.4844483 R,0,224625,224700,-0.4844483,-0.003177831 R,0,224700,225300,-0.003177831,-0.003251666 S,0,224916,225000,0.6108797,0.7235195 S,0,225000,225075,0.7235195,0.6108797 S,0,225075,226125,0.6108797 R,0,225300,225375,-0.003251666,-0.5767009 R,0,225375,225450,-0.5767009,0.6179571 R,0,225450,225525,0.6179571,-0.3480253 R,0,225525,225600,-0.3480253,-0.003288583 R,0,225600,226800,-0.003288583,-0.003436253 S,0,226125,226200,0.6108797,0.6927996 S,0,226200,226275,0.6927996,0.6108797 S,0,226275,227325,0.6108797 R,0,226800,226875,-0.003436253,-0.5359253 R,0,226875,226950,-0.5359253,0.4402782 R,0,226950,227025,0.4402782,-0.3140773 R,0,227025,227100,-0.3140773,-0.00347317 R,0,227100,227700,-0.00347317,-0.003547005 S,0,227325,227400,0.6108797,0.7030401 S,0,227400,227475,0.7030401,0.6108797 S,0,227475,228529,0.6108797 R,0,227700,227775,-0.003547005,-0.5974765 R,0,227775,227850,-0.5974765,0.4089597 R,0,227850,227925,0.4089597,-0.4790041 R,0,227925,228000,-0.4790041,0.4557527 R,0,228000,228075,0.4557527,-0.4987709 R,0,228075,228150,-0.4987709,0.198759 R,0,228150,228225,0.198759,-0.4349108 R,0,228225,228300,-0.4349108,-0.003620839 R,0,228300,229200,-0.003620839,-0.003731591 S,0,228529,228600,0.6108797,0.6825597 S,0,228600,228675,0.6825597,0.6108797 S,0,228675,229725,0.6108797 R,0,229200,229275,-0.003731591,-0.4338214 R,0,229275,229350,-0.4338214,-0.00375005 R,0,229350,230100,-0.00375005,-0.003842343 S,0,229725,229800,0.6108797,0.6927996 S,0,229800,229875,0.6927996,0.6108797 S,0,229875,232125,0.6108797 R,0,230100,230175,-0.003842343,-0.3110519 R,0,230175,230250,-0.3110519,0.392706 R,0,230250,230325,0.392706,-0.4661603 R,0,230325,230400,-0.4661603,0.4863154 R,0,230400,230475,0.4863154,-0.4146483 R,0,230475,230550,-0.4146483,0.5451419 R,0,230550,230625,0.5451419,-0.447494 R,0,230625,230700,-0.447494,0.317054 R,0,230700,230775,0.317054,-0.5209584 R,0,230775,230850,-0.5209584,0.4705766 R,0,230850,230925,0.4705766,-0.5244489 R,0,230925,231000,-0.5244489,-0.003953095 R,0,231000,231300,-0.003953095,-0.003990012 R,0,231300,231375,-0.003990012,-0.5979189 R,0,231375,231450,-0.5979189,0.490438 R,0,231450,231525,0.490438,-0.4111794 R,0,231525,231600,-0.4111794,0.4894435 R,0,231600,231675,0.4894435,-0.4531337 R,0,231675,231750,-0.4531337,0.5157561 R,0,231750,231825,0.5157561,-0.6043138 R,0,231825,231900,-0.6043138,-0.004063847 R,0,231900,232500,-0.004063847,-0.004137682 S,0,232125,232200,0.6108797,0.7030398 S,0,232200,232275,0.7030398,0.6108797 S,0,232275,233925,0.6108797 R,0,232500,232575,-0.004137682,-0.4137465 R,0,232575,232650,-0.4137465,0.7058176 R,0,232650,232725,0.7058176,-0.4069385 R,0,232725,232800,-0.4069385,-0.004174599 R,0,232800,234300,-0.004174599,-0.004359186 S,0,233925,234000,0.6108797,0.7030398 S,0,234000,234075,0.7030398,0.6108797 S,0,234075,235725,0.6108797 R,0,234300,234375,-0.004359186,-0.6187679 R,0,234375,234450,-0.6187679,0.6919432 R,0,234450,234525,0.6919432,-0.4959066 R,0,234525,234600,-0.4959066,-0.004396103 R,0,234600,234900,-0.004396103,-0.00443302 R,0,234900,234975,-0.00443302,-0.7007625 R,0,234975,235050,-0.7007625,0.4734151 R,0,235050,235125,0.4734151,-0.5642475 R,0,235125,235200,-0.5642475,-0.004469937 R,0,235200,236400,-0.004469937,-0.004617607 S,0,235725,235800,0.6108797,0.6825594 S,0,235800,235875,0.6825594,0.6108797 S,0,235875,236925,0.6108797 R,0,236400,236475,-0.004617607,-0.7623869 R,0,236475,236550,-0.7623869,0.9033107 R,0,236550,236625,0.9033107,-0.2469921 R,0,236625,236700,-0.2469921,-0.004654524 R,0,236700,238800,-0.004654524,-0.004912945 S,0,236925,237000,0.6108797,0.6927996 S,0,237000,237075,0.6927996,0.6108797 S,0,237075,237525,0.6108797 S,0,237525,237600,0.6108797,0.7132793 S,0,237600,237675,0.7132793,0.6108797 S,0,237675,238125,0.6108797 S,0,238125,238200,0.6108797,0.7030398 S,0,238200,238275,0.7030398,0.6108797 S,0,238275,239325,0.6108797 R,0,238800,238875,-0.004912945,-0.496442 R,0,238875,238950,-0.496442,-0.004931404 R,0,238950,239700,-0.004931404,-0.005023697 S,0,239325,239400,0.6108797,0.6825597 S,0,239400,239475,0.6825597,0.6108797 S,0,239475,240521,0.6108797 R,0,239700,239775,-0.005023697,0.5274469 R,0,239775,239850,0.5274469,-0.4187385 R,0,239850,239925,-0.4187385,0.2990764 R,0,239925,240000,0.2990764,-0.5805491 R,0,240000,240075,-0.5805491,0.2396664 R,0,240075,240150,0.2396664,-0.005079073 R,0,240150,241200,-0.005079073,-0.005208284 S,0,240521,240600,0.6108797,0.6927996 S,0,240600,240675,0.6927996,0.6108797 S,0,240675,241725,0.6108797 R,0,241200,241275,-0.005208284,-0.517217 R,0,241275,241350,-0.517217,-0.005226743 R,0,241350,242400,-0.005226743,-0.005355954 S,0,241725,241800,0.6108797,0.7132796 S,0,241800,241875,0.7132796,0.6108797 S,0,241875,242925,0.6108797 R,0,242400,242475,-0.005355954,-0.5583248 R,0,242475,242550,-0.5583248,-0.005374413 R,0,242550,243600,-0.005374413,-0.005503623 S,0,242925,243000,0.6108797,0.7235201 S,0,243000,243075,0.7235201,0.6108797 S,0,243075,244125,0.6108797 R,0,243600,243675,-0.005503623,-0.2922322 R,0,243675,243750,-0.2922322,0.4996518 R,0,243750,243825,0.4996518,-0.4902246 R,0,243825,243900,-0.4902246,-0.00554054 R,0,243900,244500,-0.00554054,-0.005614375 S,0,244125,244200,0.6108797,0.6825597 S,0,244200,244275,0.6825597,0.6108797 S,0,244275,245325,0.6108797 R,0,244500,244575,-0.005614375,-0.3947429 R,0,244575,244650,-0.3947429,0.5637114 R,0,244650,244725,0.5637114,-0.4387944 R,0,244725,244800,-0.4387944,0.4838202 R,0,244800,244875,0.4838202,-0.4162855 R,0,244875,244950,-0.4162855,-0.005669751 R,0,244950,246000,-0.005669751,-0.005798962 S,0,245325,245400,0.6108797,0.6927996 S,0,245400,245475,0.6927996,0.6108797 S,0,245475,246525,0.6108797 R,0,246000,246075,-0.005798962,0.7314715 R,0,246075,246150,0.7314715,-0.005817421 R,0,246150,246900,-0.005817421,-0.005909714 S,0,246525,246600,0.6108797,0.6927999 S,0,246600,246675,0.6927999,0.6108797 S,0,246675,249525,0.6108797 R,0,246900,246975,-0.005909714,0.6904007 R,0,246975,247050,0.6904007,-0.7041109 R,0,247050,247125,-0.7041109,0.6559374 R,0,247125,247200,0.6559374,-0.5235339 R,0,247200,247275,-0.5235339,0.4832353 R,0,247275,247350,0.4832353,-0.3034589 R,0,247350,247425,-0.3034589,0.1761935 R,0,247425,247500,0.1761935,-0.2698495 R,0,247500,247575,-0.2698495,0.1852282 R,0,247575,247650,0.1852282,-0.3700411 R,0,247650,247725,-0.3700411,0.160129 R,0,247725,247800,0.160129,-0.006020466 R,0,247800,251700,-0.006020466,-0.006500391 S,0,249525,249600,0.6108797,0.6518395 S,0,249600,249675,0.6518395,0.6108797 S,0,249675,250125,0.6108797 S,0,250125,250200,0.6108797,0.7030401 S,0,250200,250275,0.7030401,0.6108797 S,0,250275,250725,0.6108797 S,0,250725,250800,0.6108797,0.6825594 S,0,250800,250875,0.6825594,0.6108797 S,0,250875,251325,0.6108797 S,0,251325,251400,0.6108797,0.6825597 S,0,251400,251475,0.6825597,0.6108797 S,0,251475,252525,0.6108797 R,0,251700,251775,-0.006500391,-0.6823501 R,0,251775,251850,-0.6823501,0.4235611 R,0,251850,251925,0.4235611,-0.4468482 R,0,251925,252000,-0.4468482,-0.006537308 R,0,252000,255750,-0.006537308,-0.006998775 S,0,252525,252600,0.6108797,0.6723198 S,0,252600,252675,0.6723198,0.6108797 S,0,252675,252825,0.6108797 S,0,252825,252900,0.6108797,0.7132799 S,0,252900,252975,0.7132799,0.6108797 S,0,252975,253125,0.6108797 S,0,253125,253200,0.6108797,0.6825597 S,0,253200,253275,0.6825597,0.6108797 S,0,253275,253725,0.6108797 S,0,253725,253800,0.6108797,0.6825597 S,0,253800,253875,0.6825597,0.6108797 S,0,253875,254025,0.6108797 S,0,254025,254100,0.6108797,0.6825597 S,0,254100,254175,0.6825597,0.6108797 S,0,254175,254325,0.6108797 S,0,254325,254400,0.6108797,0.6825597 S,0,254400,254475,0.6825597,0.6108797 S,0,254475,254625,0.6108797 S,0,254625,254700,0.6108797,0.6825594 S,0,254700,254775,0.6825594,0.6108797 S,0,254775,254925,0.6108797 S,0,254925,255000,0.6108797,0.6825597 S,0,255000,255075,0.6825597,0.6108797 S,0,255075,256425,0.6108797 R,0,255750,255825,-0.006998775,-0.6214074 R,0,255825,255900,-0.6214074,0.5664236 R,0,255900,255975,0.5664236,-0.4985462 R,0,255975,256050,-0.4985462,0.5664039 R,0,256050,256125,0.5664039,-0.5395256 R,0,256125,256200,-0.5395256,-0.007054151 R,0,256200,259350,-0.007054151,-0.007441783 S,0,256425,256500,0.6108797,0.7030395 S,0,256500,256575,0.7030395,0.6108797 S,0,256575,256725,0.6108797 S,0,256725,256800,0.6108797,0.6825594 S,0,256800,256875,0.6825594,0.6108797 S,0,256875,257025,0.6108797 S,0,257025,257100,0.6108797,0.6927999 S,0,257100,257175,0.6927999,0.6108797 S,0,257175,257325,0.6108797 S,0,257325,257400,0.6108797,0.7030398 S,0,257400,257475,0.7030398,0.6108797 S,0,257475,257925,0.6108797 S,0,257925,258000,0.6108797,0.6927999 S,0,258000,258075,0.6927999,0.6108797 S,0,258075,258525,0.6108797 S,0,258525,258600,0.6108797,0.6825594 S,0,258600,258675,0.6825594,0.6108797 S,0,258675,259125,0.6108797 S,0,259125,259200,0.6108797,0.6927996 S,0,259200,259275,0.6927996,0.6108797 S,0,259275,259725,0.6108797 R,0,259350,259425,-0.007441783,-0.580891 R,0,259425,259500,-0.580891,-0.007460242 R,0,259500,260550,-0.007460242,-0.007589453 S,0,259725,259800,0.6108797,0.6825597 S,0,259800,259875,0.6825597,0.6108797 S,0,259875,260325,0.6108797 S,0,260325,260400,0.6108797,0.7132796 S,0,260400,260475,0.7132796,0.6108797 S,0,260475,260925,0.6108797 R,0,260550,260625,-0.007589453,0.586321 R,0,260625,260700,0.586321,-0.007607912 R,0,260700,261375,-0.007607912,-0.007690976 S,0,260925,261000,0.6108797,0.6927996 S,0,261000,261075,0.6927996,0.6108797 S,0,261075,262725,0.6108797 R,0,261375,261450,-0.007690976,-0.6425806 R,0,261450,261525,-0.6425806,0.3015379 R,0,261525,261600,0.3015379,-0.5725129 R,0,261600,261675,-0.5725129,0.747357 R,0,261675,261750,0.747357,-0.650762 R,0,261750,261825,-0.650762,0.4599195 R,0,261825,261900,0.4599195,-0.5757036 R,0,261900,261975,-0.5757036,0.5083542 R,0,261975,262050,0.5083542,-0.5648153 R,0,262050,262125,-0.5648153,0.5943358 R,0,262125,262200,0.5943358,-0.007792498 R,0,262200,263700,-0.007792498,-0.007977085 S,0,262725,262800,0.6108797,0.6825597 S,0,262800,262875,0.6825597,0.6108797 S,0,262875,263025,0.6108797 S,0,263025,263100,0.6108797,0.6927996 S,0,263100,263175,0.6927996,0.6108797 S,0,263175,263325,0.6108797 S,0,263325,263400,0.6108797,0.6927996 S,0,263400,263475,0.6927996,0.6108797 S,0,263475,264538,0.6108797 R,0,263700,263775,-0.007977085,0.4220936 R,0,263775,263850,0.4220936,-0.3356756 R,0,263850,263925,-0.3356756,0.5859158 R,0,263925,264000,0.5859158,-0.008014003 R,0,264000,276062,-0.008014003,-0.009498325 S,0,264538,264600,0.6108797,0.6927996 S,0,264600,264675,0.6927996,0.6108797 S,0,264675,265125,0.6108797 S,0,265125,265200,0.6108797,0.6927999 S,0,265200,265275,0.6927999,0.6108797 S,0,265275,265425,0.6108797 S,0,265425,265500,0.6108797,0.68256 S,0,265500,265575,0.68256,0.6108797 S,0,265575,265725,0.6108797 S,0,265725,265800,0.6108797,0.6723198 S,0,265800,265875,0.6723198,0.6108797 S,0,265875,266025,0.6108797 S,0,266025,266100,0.6108797,0.6928002 S,0,266100,266175,0.6928002,0.6108797 S,0,266175,266325,0.6108797 S,0,266325,266400,0.6108797,0.7030398 S,0,266400,266475,0.7030398,0.6108797 S,0,266475,266625,0.6108797 S,0,266625,266700,0.6108797,0.6825597 S,0,266700,266775,0.6825597,0.6108797 S,0,266775,276062,0.6108797 F,0,269400,269625,1,0 M,0,276062,,135,398 R,0,276062,276075,-0.009498325,0.001178414
Sprite,Foreground,Centre,"cloud-02.png",320,240 S,0,25650,,0.7952 M,0,25650,90000,941,139,-316,139
Sprite,Foreground,Centre,"bs.png",320,240 M,0,94200,,138,399 S,0,94200,,0.7439998 F,0,94200,94275,0.5999998,0.8279998 F,0,94275,94350,0.8279998,1 F,0,94350,94425,1,0.668 F,0,94425,94500,0.668,0.3279999
Sprite,Foreground,Centre,"bs.png",320,240 M,0,113400,,136,396 S,0,113400,,0.7360001 F,0,113400,113475,0.5040002,0.7640002 F,0,113475,113550,0.7640002,1 F,0,113550,113625,1,0.6519998 F,0,113625,113700,0.6519998,0.5280001
Sprite,Foreground,Centre,"comet.png",320,240 S,0,110690,,1.08 M,0,110690,111290,497,41,287,189 F,0,110690,111290,1,0
Sprite,Foreground,Centre,"bs.png",320,240 M,0,108600,,136,397 S,0,108600,,0.7119998 F,0,108600,108675,0.548,0.781 F,0,108675,108750,0.781,1 F,0,108750,108825,1,0.744 F,0,108825,108900,0.744,0.6480002
Sprite,Foreground,Centre,"bs.png",320,240 M,0,118200,,134,395 S,0,118200,,0.7760001 F,0,118200,118275,0.4040003,0.7090001 F,0,118275,118350,0.7090001,1 F,0,118350,118425,1,0.6559999 F,0,118425,118500,0.6559999,0.3599997
Sprite,Foreground,Centre,"comet2.png",320,240 R,0,123590,,0.288 M,0,123590,124190,34,26,306,238 F,0,123590,124190,1,0
Sprite,Foreground,Centre,"bs.png",320,240 M,0,122400,,138,396 S,0,122400,,0.7360001 F,0,122400,122475,0.5480002,0.7690002 F,0,122475,122550,0.7690002,1 F,0,122550,122625,1,0.6960002 F,0,122625,122700,0.6960002,0.4880002
Sprite,Foreground,Centre,"bs.png",320,240 M,0,121800,,135,396 S,0,121800,,0.7279997 F,0,121800,121875,0.4120001,0.6750001 F,0,121875,121950,0.6750001,1 F,0,121950,122025,1,0.6600001 F,0,122025,122100,0.6600001,0.3839999
Sprite,Foreground,Centre,"comet.png",320,240 M,0,100790,101240,296,22,145,155 F,0,100790,101240,1,0
Sprite,Foreground,Centre,"comet2.png",320,240 M,0,95390,95840,116,47,248,147 F,0,95390,95840,1,0
Sprite,Foreground,Centre,"cloud-02.png",320,240 S,0,100950,,0.76448 M,0,100950,180000,559,135,-305,133
Sprite,Foreground,Centre,"comet2.png",320,240 M,0,102890,103340,35,128,249,203 F,0,102890,103340,1,0
Sprite,Foreground,Centre,"comet.png",320,240 M,0,98390,98840,456,51,354,146 F,0,98390,98840,1,0
Sprite,Foreground,Centre,"thank for playing.png",320,240 F,0,270296,270896,0,0.8461539 M,0,270296,274196,473,412,534,413 F,0,270896,274196,0.8461539,0
//Storyboard Sound Samples
//Background Colour Transformations
3,100,163,162,255

[TimingPoints]
34196,600,4,2,0,0,1,0
35396,-100,4,2,1,81,0,0
55796,-100,4,2,1,80,0,1
55946,-100,4,2,1,80,0,0
74996,-100,4,2,1,81,0,1
75296,-100,4,2,1,80,0,0
132596,-100,4,2,1,80,0,1
151796,-100,4,2,1,80,0,0
168596,-100,4,2,0,20,0,0
170996,-100,4,2,1,80,0,0
189896,-200,4,2,1,80,0,0
192746,-100,4,2,1,80,0,0
214196,-100,4,2,1,81,0,1
246596,-100,4,2,1,80,0,0
250196,-100,4,2,1,80,0,1
250346,-100,4,2,1,80,0,0

[Colours]
Combo1 : 255,255,128
Combo2 : 255,202,255
Combo3 : 198,255,255
Combo4 : 255,223,191
Combo5 : 198,255,198

[HitObjects]
256,192,31796,12,0,35396
256,192,35996,5,0
152,104,36596,5,4
192,48,36896,2,0,B|296:48,1,85,0|8
336,88,37496,1,0
376,144,37796,2,0,B|424:216|376:312,1,170,2|8
312,288,38696,1,2
264,336,38996,2,0,B|168:336,1,85,2|0
112,336,39596,2,2,B|16:336,2,85
144,280,40496,1,0
144,280,40796,1,8
128,144,41396,6,0,B|64:144|64:40|160:40|200:96|240:144|312:144|312:40|248:40,1,340,4|2
256,176,43196,2,2,B|312:176,1,42.5
200,176,43796,2,2,B|200:296|448:296|448:168,1,340
312,168,45596,1,8
144,120,46196,6,0,B|208:56|312:48,1,170,2|8
376,88,47096,1,0
376,168,47396,2,0,B|376:256|376:256|272:256,1,170,2|2
144,248,48596,1,2
144,248,48896,2,0,B|144:144,3,85,0|8|2|2
120,48,50246,6,2,B|64:48,2,42.5
232,72,50996,1,2
312,72,51296,2,0,B|376:152,1,85,0|8
376,216,51896,1,0
344,288,52196,2,0,B|240:288,1,85
184,288,52796,6,0,B|112:360,2,85,8|2|2
147,218,53696,2,0,B|91:130,1,85,0|8
101,69,54296,2,0,B|205:69,1,85,2|2
262,68,54896,2,0,B|341:67,2,42.5,0|0|8
288,272,55796,5,4
344,216,56096,2,0,B|392:296,1,85,0|8
340,349,56696,2,0,B|244:349,1,85,0|2
208,288,57296,1,0
208,288,57596,1,8
208,211,57896,2,2,B|128:131,2,85
263,158,58796,2,0,B|399:30,2,170,8|0|8
176,304,60596,6,2,B|32:304|40:64|200:80,1,340
280,192,62396,1,2
280,192,62546,1,2
344,96,62996,2,2,B|512:96|504:304|320:288,1,340
192,288,64796,1,8
104,168,65396,6,0,B|104:56|232:48,1,170,2|8
256,104,66296,1,0
304,48,66596,2,0,B|400:64|400:176,1,170,2|8
256,192,67796,1,0
256,192,68096,2,2,B|256:296,3,85
152,320,69446,6,2,B|80:320,2,42.5
152,208,70196,1,2
152,128,70496,1,0
200,64,70796,1,8
248,128,71096,1,0
248,208,71396,6,4,B|304:264|304:296|264:296|264:264|328:200,2,170
248,128,72896,2,0,B|248:32,1,85,0|8
248,128,73496,2,0,B|352:128,1,85
288,56,74096,1,0
200,56,74396,1,10
64,216,74996,5,4
192,312,75596,1,2
272,312,75896,1,0
352,312,76196,1,0
392,248,76496,2,0,B|432:168,1,85,0|8
462,102,77096,2,2,B|464:40,1,42.5
352,80,77696,6,0,B|224:80,1,85,0|8
192,80,78296,2,0,B|104:152,1,85
88,200,78896,2,0,B|88:304,1,85,0|8
136,344,79496,5,2
216,344,79796,1,2
176,272,80096,2,0,B|248:184,1,85,0|8
304,240,80696,1,2
368,192,80996,2,0,B|424:88|288:40,2,170,2|10|2
304,136,82496,2,0,B|192:136,4,85,0|8|0|0|0
304,216,83996,6,0,B|192:352,1,170,8|2
128,312,84896,1,0
72,256,85196,2,0,B|72:48,2,170,2|0|8
152,256,86696,2,2,B|200:256,1,42.5
312,256,87296,1,0
392,256,87596,2,2,B|448:160|376:80,1,170
312,96,88496,2,0,B|312:152,2,42.5,0|0|8
232,96,89096,6,2,B|232:224,1,85
152,184,89696,2,0,B|152:296,1,85,0|8
232,264,90296,2,2,B|232:376|232:376,1,85
296,312,90896,1,0
296,312,91196,2,2,B|408:312|408:312|408:216,1,170,2|6
408,176,92096,5,0
408,96,92396,2,0,B|296:96,3,85,8|0|0|0
248,96,93596,2,0,B|192:96,4,42.5,8|0|0|0|4
144,184,103796,5,2
352,184,104396,2,2,B|248:184,1,85
264,336,105296,1,0
264,336,105596,1,2
120,336,106196,2,0,B|48:240|144:168,1,170,2|2
124,184,107096,1,0
248,112,107696,2,0,B|248:64,2,42.5,0|0|2
384,72,108596,6,2,B|384:192|384:192|296:192,1,170,6|2
256,192,109496,1,2
112,248,110096,1,0
112,248,110396,1,2
256,304,110996,2,0,B|384:304|384:176,1,170,2|2
382,214,111896,1,0
232,216,112496,2,0,B|184:216,2,42.5,0|0|2
136,304,113396,5,6
136,160,113996,1,2
136,80,114296,1,2
288,80,114896,1,0
288,80,115196,1,2
472,80,115796,2,0,B|472:208|352:208,1,170,2|2
383,206,116696,1,0
224,208,117296,2,0,B|168:208,2,42.5,0|0|2
424,344,118196,6,2,B|216:344,1,170,6|2
176,344,119096,1,2
64,216,119696,2,0,B|0:216,2,42.5,0|0|8
120,160,120296,1,0
176,104,120596,2,2,B|128:208|176:296,1,170
240,272,121496,1,0
328,272,121796,2,4,B|384:184|304:88,1,170
176,112,122996,5,0
48,40,123596,1,2
48,192,124196,1,0
143,296,124796,2,0,B|263:296,2,85,2|0|0
144,112,125996,1,2
232,112,126296,1,0
320,112,126596,1,0
472,40,127196,1,6
472,192,127796,5,0
256,192,128396,1,2
256,272,128696,1,0
256,352,128996,1,0
464,352,129596,1,2
464,272,129896,1,0
464,192,130196,1,0
464,32,130796,5,2
256,32,131396,1,0
48,32,131996,1,2
48,152,132596,5,4
48,264,133196,2,2,B|48:320,2,42.5
128,264,133796,2,0,B|200:256|200:136|264:136,1,170,2|2
320,64,134846,2,2,B|368:64,1,42.5
320,176,135596,1,2
320,256,135896,1,0
240,256,136196,2,0,B|32:256,1,170,2|2
32,112,137396,1,4
160,48,137996,6,2,B|216:48,2,42.5
160,128,138596,2,0,B|160:256|288:256,2,170,2|2|2
240,128,140096,2,0,B|352:128,1,85,2|0
480,128,140996,1,2
448,200,141296,5,2
408,264,141596,2,0,B|232:264,1,170,2|2
88,264,142796,2,2,B|32:264,2,42.5
88,184,143396,1,6
168,184,143696,5,0
248,184,143996,2,0,B|424:184,1,170,2|2
456,336,145196,1,0
376,336,145496,1,2
296,336,145796,1,6
216,336,146096,5,0
136,336,146396,2,2,B|136:160,1,170
136,88,147296,1,0
200,40,147596,2,2,B|376:40,1,170
376,192,148796,1,0
316,239,149096,1,0
255,192,149396,2,0,B|151:264,2,85,2|2|8
256,192,150296,12,2,151796
256,192,168596,12,0,170996
376,192,171596,5,2
376,48,172196,1,2
296,48,172496,1,0
296,48,172796,1,8
112,48,173396,5,0
32,48,173696,2,0,B|32:136,1,85,2|0
33,209,174296,2,0,B|105:281,1,85
152,320,174896,2,0,B|152:368,2,42.5,0|0|8
240,160,175796,5,0
240,80,176096,2,0,B|360:80,1,85,2|0
432,192,176996,1,2
352,192,177296,1,0
272,192,177596,2,0,B|272:240,1,42.5,2|2
272,352,178196,1,2
200,328,178496,6,0,B|104:328,1,85
56,272,179096,2,0,B|-8:192,1,85
5,128,179696,1,0
5,128,179996,1,8
80,128,180296,2,0,B|184:128,1,85,8|2
168,48,180896,6,0,B|272:48,1,85,0|8
304,104,181496,2,0,B|376:184,1,85,0|2
410,225,182096,1,0
410,225,182396,1,8
338,251,182696,1,2
264,232,182996,1,2
144,232,183596,6,0,B|48:232,2,85,8|2|2
145,155,184496,1,0
68,156,184796,1,8
40,88,185096,1,0
96,40,185396,1,2
160,80,185696,2,0,B|247:79,1,85,0|8
320,80,186296,1,2
368,144,186596,2,4,B|368:328,2,170
297,176,188096,6,0,B|225:248,1,85,0|8
160,234,188696,2,0,B|80:154,1,85
23,174,189296,2,0,B|23:270,1,85,0|10
192,344,190196,6,0,B|280:344,4,85,2|0|2|0|2
192,264,192896,6,0,B|296:264,1,85,0|8
352,264,193496,2,0,B|408:184,1,85
400,120,194096,1,0
400,120,194396,1,8
320,120,194696,6,2,B|200:120,1,85
160,120,195296,2,0,B|80:200,1,85,0|8
152,240,195896,1,2
208,296,196196,2,0,B|128:336|32:296,2,170,2|10|2
256,232,197696,6,0,B|304:200|344:200,1,85,0|8
408,200,198296,2,2,B|456:200|464:128,1,85
440,72,198896,1,0
376,112,199196,2,0,B|176:112,3,170,8|2|8|2
128,112,201296,1,0
128,112,201596,1,8
128,192,201896,5,2
208,192,202196,2,0,B|248:176|232:128|272:152|312:128|288:176|352:200,1,170
360,352,203396,1,2
367,277,203696,1,0
367,277,203996,1,8
289,287,204296,6,0,B|185:287,1,85,2|2
127,286,204896,2,0,B|55:214,1,85,0|8
29,159,205496,1,2
67,92,205796,2,0,B|107:68|171:156|227:92,2,170,2|8|2
30,159,207296,2,0,B|30:263,1,85,0|8
106,246,207896,2,0,B|154:326,1,85
224,344,208496,1,0
296,320,208796,1,8
256,192,214796,6,2,B|256:136,2,42.5
176,192,215396,2,0,B|120:240|80:216|40:192|40:144,1,170,2|2
40,80,216296,1,0
112,48,216596,2,0,B|296:48,1,170,2|2
344,96,217496,1,0
400,152,217796,2,0,B|400:336,1,170,2|2
248,320,218996,1,4
72,320,219596,5,2
72,320,219896,1,2
72,320,220196,2,0,B|72:136,2,170,2|10|2
136,272,221696,1,0
208,240,221996,1,2
229,166,222296,1,0
168,120,222596,6,0,B|224:72|288:96|304:160,1,170,2|2
357,208,223496,1,2
416,160,223796,2,0,B|416:56,2,85,2|0|2
416,160,224696,1,2
336,160,224996,2,0,B|336:272,1,85,6|0
336,320,225596,5,2
336,320,225896,2,0,B|212:319,1,85,2|2
189,273,226496,1,0
189,196,226796,1,2
189,119,227096,1,2
121,82,227396,1,4
168,24,227696,5,0
168,24,227996,2,2,B|353:24,1,170
294,86,228896,1,2
292,162,229196,2,2,B|468:162,1,170
392,248,230096,6,0,B|456:248,6,42.5,0|0|2|2|2|8|8
312,248,231296,2,0,B|256:248,4,42.5,8|0|0|0|8
312,328,232196,1,8
392,328,232496,2,0,B|440:328,2,42.5,8|8|8
312,328,233096,2,0,B|192:328,1,85,8|4
150,323,233696,2,0,B|102:251,1,85,0|2
57,190,234296,1,0
120,144,234596,2,0,B|312:144,2,170,2|2|4
211,40,236396,5,0
211,40,236696,1,0
288,40,236996,2,0,B|408:40|448:152,2,170,2|8|2
287,116,238496,1,2
288,192,238796,2,2,B|360:192|360:256|360:332,1,170
280,320,239696,5,0
280,320,239996,1,8
208,288,240296,1,2
208,288,240596,1,2
136,256,240896,1,0
80,200,241196,5,2
80,200,241496,1,2
104,128,241796,2,0,B|184:80|280:80,1,170,4|8
336,48,242696,1,0
408,80,242996,1,2
408,160,243296,1,0
408,240,243596,1,2
408,240,243896,1,2
328,240,244196,1,4
248,240,244496,5,0
248,240,244796,1,8
171,241,245096,1,0
113,291,245396,1,2
80,224,245696,2,0,B|80:136,1,85,0|8
134,85,246296,1,2
192,136,246596,1,0
268,136,246896,1,0
344,136,247196,2,0,B|344:88,4,42.5,8|2|2|2|2
256,272,249596,5,2
256,120,250196,1,6
88,136,259196,5,8
88,136,259496,2,2,B|208:136,1,85
376,136,260396,1,8
376,136,260696,2,2,B|256:136,1,85
224,136,261296,2,0,B|224:88,6,42.5,0|0|8|2|2|2|2
224,288,262796,2,2,B|104:288,2,85
424,288,263996,1,4
424,128,264596,5,2
248,128,265196,2,2,B|152:128,2,85
248,208,266096,2,2,B|248:296,2,85
256,192,266996,12,4,269996
