osu file format v5

[General]
AudioFilename: Haru - Shanghai Tea House (Instrumental).mp3
AudioLeadIn: 0
PreviewTime: 80413
Countdown: 1
SampleSet: Normal
StackLeniency: 0.7
Mode: 0
LetterboxInBreaks: 1
EditorBookmarks: 143125
EditorDistanceSpacing: 1.10000002384186

[Metadata]
Title:Shanghai Tea House (Instrumental)
Artist:Haru
Creator:Starrodkirby86
Version:Lunatic
Source:Touhou
Tags:Techno Instrumental Viotex hong meiling touhou 6 embodiment scarlet devil

[Difficulty]
HPDrainRate:8
CircleSize:5
OverallDifficulty:8
SliderMultiplier:1.8
SliderTickRate:1

[Events]
//Background and Video events
0,0,"meiling.png"
//Break Periods
2,33646,47450
2,122416,126630
//Storyboard Layer 0 (Background)
//Storyboard Layer 1 (Failing)
//Storyboard Layer 2 (Passing)
//Storyboard Layer 3 (Foreground)
//Storyboard Sound Samples
//Background Colour Transformations
3,100,198,198,255

[TimingPoints]
15746.3496470346,491.803278688525,4,1,1,70,1,0

[Colours]
Combo1 : 111,155,111
Combo2 : 152,202,255
Combo3 : 255,172,142
Combo4 : 176,207,176
Combo5 : 9,131,204

[HitObjects]
352,192,17713,5,0
256,160,17959,1,0
160,192,18205,1,8
224,256,18451,6,0,B|224:288|192:288,2,45
256,160,18943,5,0
304,80,19188,1,8
208,80,19434,1,0
256,160,19680,5,0
288,256,19926,2,0,B|288:288|320:288,2,45,0|0|8
352,184,20418,5,0
304,160,20541,1,0
256,144,20664,1,0
208,160,20787,1,0
160,184,20910,1,0
256,256,21156,1,8
256,64,21647,5,0
208,144,21892,1,0
304,144,22138,1,8
352,232,22385,5,0
304,256,22508,1,0
256,272,22631,1,0
208,256,22754,1,0
160,232,22877,1,0
256,192,23123,1,8
256,96,23369,1,4
160,128,23615,5,0
136,176,23738,1,0
160,224,23861,1,0
208,256,23984,1,0
256,272,24107,1,8
256,272,24352,1,4
352,128,24598,5,0
376,176,24721,1,0
352,224,24844,1,0
304,256,24967,1,0
256,272,25090,1,8
256,272,25335,1,4
192,192,25582,5,0
256,128,25828,1,0
320,192,26074,1,4
256,272,26320,5,0
208,256,26443,1,0
160,272,26566,1,4
256,272,26811,5,0
304,256,26934,1,0
352,272,27057,1,12
320,192,27303,5,0
256,128,27549,1,0
192,192,27795,1,0
256,272,28041,6,0,B|256:64,2,180,8|4|12
304,96,29516,5,0
208,96,29762,1,0
256,176,30008,1,8
256,272,30254,5,2
208,256,30377,1,2
192,208,30500,1,2
256,112,30746,5,2
304,128,30869,1,2
320,176,30992,1,10
96,192,31238,5,2
192,96,31484,1,2
256,192,31729,1,2
320,288,31975,1,10
416,192,32221,1,2
320,96,32467,5,12
192,288,32959,1,12
256,192,33451,5,4
192,96,48205,5,12
320,288,48697,1,12
256,192,49189,5,4
320,96,49434,1,0
192,96,49680,1,8
256,192,49926,5,0
232,240,50049,1,0
280,240,50172,1,0
256,288,50295,1,0
352,240,50418,5,0
160,240,50664,1,8
256,192,51156,5,4
192,288,51401,1,0
320,288,51647,1,8
256,192,51893,5,0
280,144,52016,1,0
232,144,52139,1,0
256,96,52262,1,0
160,144,52385,5,0
352,144,52631,1,8
192,288,53123,6,8,B|128:288,6,45,10|8|8|8|10|10|10
192,96,54107,5,2
144,112,54229,1,2
96,96,54352,1,10
144,176,54598,1,14
320,288,55090,6,8,B|384:288,6,45,10|8|8|8|10|10|10
320,96,56074,5,2
368,112,56196,1,2
416,96,56319,1,10
368,176,56565,5,14
256,192,56811,5,2
144,176,57057,5,14
256,304,57795,5,6
256,80,58287,5,6
232,120,58410,1,0
280,120,58533,1,2
176,192,58779,5,2
336,192,59270,1,6
256,304,59516,5,8
256,192,59762,1,0
256,80,60008,1,8
176,144,60254,5,0
208,176,60377,1,0
256,192,60500,1,0
304,176,60623,1,0
336,144,60746,1,0
368,176,60869,1,8
384,224,60992,5,12
352,256,61115,1,0
304,288,61238,1,0
256,304,61361,1,0
208,288,61484,1,8
168,256,61607,1,0
128,224,61729,5,4
144,176,61852,1,0
176,144,61975,1,8
224,160,62098,1,0
256,120,62221,1,0
288,160,62344,1,0
336,144,62467,1,8
368,176,62590,1,0
384,224,62713,1,0
344,256,62836,1,0
256,192,62959,12,4,63943
192,128,64434,6,2,B|256:128|256:192|256:256|320:256,1,180,10|2
384,192,65172,1,0
320,128,65418,1,10
256,192,65664,5,2
208,176,65787,1,0
176,144,65910,1,2
176,96,66033,1,0
216,72,66156,1,2
256,192,66402,5,10
256,288,66647,1,2
336,240,66893,1,2
336,144,67139,1,0
256,96,67385,1,10
176,144,67631,6,0,B|112:144|112:80,1,90,0|2
176,240,68123,6,0,B|112:240|112:304,1,90,2|14
256,192,68615,5,6
256,96,68861,2,0,B|256:160|160:160,1,90,2|0
256,288,69352,2,0,B|256:224|352:224,1,90,10|0
352,192,69721,5,0
304,176,69844,1,2
256,160,69967,1,0
208,176,70090,1,2
160,96,70336,1,10
160,192,70582,5,2
208,176,70705,1,2
256,160,70828,1,2
304,176,70951,1,0
352,192,71074,1,2
384,288,71320,5,14
128,288,71566,1,6
256,64,71811,2,6,B|256:256,1,180,6|14
320,320,72549,6,2,B|256:256|256:192|186:344|169:349,1,180
167,224,73287,1,10
344,224,73533,5,2
360,176,73656,1,0
320,144,73779,1,2
272,160,73901,1,0
256,208,74025,1,2
256,208,74270,1,10
168,224,74516,5,2
152,176,74639,1,0
192,144,74762,1,2
240,160,74884,1,0
256,208,75008,1,2
256,208,75253,1,10
256,208,75500,1,2
256,208,75746,6,0,B|256:320,2,90,2|10|10
256,192,76729,12,4,79680
416,96,80664,5,8
384,128,80787,1,0
336,144,80910,1,8
288,144,81033,1,0
240,144,81156,2,8,B|176:144|176:208,1,90,8|12
96,288,81647,5,8
128,256,81770,1,0
176,240,81893,1,8
224,240,82016,1,0
272,240,82139,2,8,B|336:240|336:176,1,90,8|12
256,96,82631,5,8
160,240,82877,1,0
352,240,83123,1,12
336,144,83369,5,8
304,112,83492,1,0
256,96,83615,1,8
208,112,83738,1,0
176,144,83861,1,4
256,192,84107,6,8,B|256:288,1,90,8|12
160,280,84598,5,8
128,240,84721,1,0
112,192,84844,1,0
128,144,84967,1,0
160,104,85090,2,8,B|256:104,1,90,8|12
352,280,85582,5,8
384,240,85705,1,0
400,192,85828,1,0
384,144,85951,1,0
352,104,86074,2,8,B|256:104,1,90,8|12
256,336,86566,6,8,B|256:288,3,45
304,240,87057,5,2
208,240,87303,1,6
256,48,87549,6,8,B|256:96,3,45
208,144,88040,5,2
304,144,88286,1,6
400,192,88533,5,8
384,144,88656,1,0
352,112,88779,1,0
304,96,88902,1,0
256,96,89025,1,8
256,192,89270,1,12
112,192,89516,5,8
128,240,89639,1,0
160,272,89762,1,0
208,288,89885,1,0
256,288,90008,1,8
256,192,90253,1,12
112,96,90500,5,8
160,112,90623,1,0
176,160,90746,1,0
224,176,90869,1,0
240,224,90992,1,8
288,240,91115,1,0
320,280,91238,1,0
360,248,91361,1,0
400,280,91484,1,4
112,96,91975,5,12
400,96,92467,5,8
256,192,92713,1,0
112,288,92959,1,12
192,192,93205,5,8
224,160,93328,1,0
256,128,93451,1,8
288,160,93574,1,0
320,192,93697,1,8
288,224,93820,1,0
256,256,93942,1,8
224,224,94065,1,0
256,192,94188,1,12
256,192,94311,12,4,95172
160,192,95418,5,10
352,192,95910,1,14
72,96,96402,5,2
104,64,96525,1,0
144,48,96647,1,0
176,80,96770,1,0
208,112,96893,1,2
256,128,97016,1,0
304,112,97139,1,2
336,80,97262,1,0
368,48,97385,1,0
408,64,97508,1,0
440,96,97631,1,2
256,192,97877,5,6
440,288,98369,5,2
408,320,98492,1,0
368,336,98614,1,0
336,304,98737,1,0
304,272,98860,1,2
256,256,98983,1,0
208,272,99106,1,2
176,304,99229,1,0
144,336,99352,1,0
104,320,99475,1,0
72,288,99598,1,2
256,192,99844,5,6
256,64,100336,5,8
208,80,100459,1,0
160,64,100582,1,0
112,80,100705,1,0
64,64,100828,1,8
64,112,100951,1,0
112,128,101074,1,0
160,112,101197,1,0
208,128,101320,1,8
256,112,101443,1,0
304,88,101566,1,8
304,88,101811,1,12
256,320,102303,5,8
304,304,102426,1,0
352,320,102549,1,0
400,304,102672,1,0
448,320,102795,1,8
448,272,102918,1,0
400,256,103041,1,0
352,272,103164,1,0
304,256,103287,1,8
256,272,103410,1,0
208,296,103533,1,8
256,192,103778,5,2
336,96,104025,1,2
176,96,104270,1,6
256,192,104516,5,2
256,192,104639,1,2
256,192,104762,1,6
256,288,105008,5,2
256,192,105254,1,0
288,96,105500,5,2
256,128,105623,1,2
224,96,105746,1,2
256,192,105992,1,6
176,240,106238,5,8
256,288,106484,1,0
336,240,106729,1,8
336,144,106975,2,2,B|240:80,1,90,2|6
176,144,107467,2,2,B|272:80,1,90,2|6
440,288,108205,5,2
408,320,108328,1,0
368,336,108450,1,0
336,304,108573,1,0
304,272,108696,1,2
256,256,108819,1,0
208,272,108942,1,2
176,304,109065,1,0
144,336,109188,1,0
104,320,109311,1,0
72,288,109434,1,2
256,192,109680,5,6
72,96,110172,5,2
104,64,110295,1,0
144,48,110417,1,0
176,80,110540,1,0
208,112,110663,1,2
256,128,110786,1,0
304,112,110909,1,2
336,80,111032,1,0
368,48,111155,1,0
408,64,111278,1,0
440,96,111401,1,2
256,192,111647,5,6
176,128,112139,5,0
256,192,112385,1,0
336,128,112631,1,8
256,192,112877,2,0,B|256:256,4,45
256,96,113615,1,8
256,96,113861,1,0
256,192,114107,5,0
208,272,114352,1,0
304,272,114598,1,8
256,192,114844,5,0
256,192,114967,1,0
256,192,115090,1,0
256,96,115336,2,0,B|256:48,4,45,0|0|8|0|0
192,192,116074,6,0,B|192:256|128:256,1,90
320,192,116566,2,0,B|320:256|384:256,1,90,8|0
384,160,117057,1,0
320,96,117303,1,0
256,160,117549,1,8
192,96,117795,1,0
128,160,118041,1,0
192,224,118287,1,0
256,288,118533,1,8
320,224,118779,1,0
256,160,119025,1,4
224,64,119270,5,0
256,96,119393,1,0
288,64,119516,5,2
256,192,119762,1,2
224,320,120008,1,6
224,224,120254,5,2
256,192,120377,1,0
288,224,120500,1,2
256,128,120746,1,6
336,304,121238,5,2
256,192,121484,1,2
176,304,121729,1,6
256,64,122221,1,6
320,256,127385,6,2,B|256:256|256:192|256:128|192:128,1,180,10|2
128,192,128123,1,0
192,256,128369,1,10
256,192,128615,5,2
304,208,128738,1,0
336,240,128861,1,2
336,288,128984,1,0
296,312,129107,1,2
256,192,129353,5,10
256,96,129598,1,2
176,144,129844,1,2
176,240,130090,1,0
256,288,130336,1,10
336,240,130582,6,0,B|400:240|400:304,1,90,0|2
336,144,131074,6,0,B|400:144|400:80,1,90,2|14
256,192,131566,5,6
256,288,131812,2,0,B|256:224|352:224,1,90,2|0
256,96,132303,2,0,B|256:160|160:160,1,90,10|0
160,192,132672,5,0
208,208,132795,1,2
256,224,132918,1,0
304,208,133041,1,2
352,288,133287,1,10
352,192,133533,5,2
304,208,133656,1,2
256,224,133779,1,2
208,208,133902,1,0
160,192,134025,1,2
128,96,134271,5,14
384,96,134517,1,6
256,320,134762,2,6,B|256:128,1,180,6|14
192,64,135500,6,2,B|256:128|256:192|326:40|343:35,1,180
344,160,136238,1,10
168,160,136484,5,2
152,208,136607,1,0
192,240,136730,1,2
240,224,136852,1,0
256,176,136976,1,2
256,176,137221,1,10
344,160,137467,5,2
360,208,137590,1,0
320,240,137713,1,2
272,224,137835,1,0
256,176,137959,1,2
256,176,138204,1,10
256,176,138451,1,2
256,176,138697,6,0,B|256:64,2,90,2|10|10
304,288,139434,5,10
256,304,139557,1,0
208,288,139680,1,2
160,192,139926,5,8
256,96,140172,1,2
352,192,140418,1,8
256,192,140664,5,2
304,160,140787,1,8
256,128,140910,1,2
208,160,141033,1,8
208,208,141156,1,2
256,240,141279,1,8
304,208,141402,1,14
256,192,141647,12,4,143123
