osu file format v9

[General]
AudioFilename: haru instrumental.mp3
AudioLeadIn: 0
PreviewTime: 15455
Countdown: 1
SampleSet: Normal
StackLeniency: 0.7
Mode: 0
LetterboxInBreaks: 1

[Editor]
DistanceSpacing: 0.8
BeatDivisor: 4
GridSize: 8

[Metadata]
Title:Septette for the Dead Princess
Artist:Haru
Creator:touko
Version:lunatic
Source:
Tags:

[Difficulty]
HPDrainRate:5
CircleSize:6
OverallDifficulty:6
ApproachRate:6
SliderMultiplier:1.4
SliderTickRate:1

[Events]
//Background and Video events
0,0,"1282409.jpg"
//Break Periods
//Storyboard Layer 0 (Background)
//Storyboard Layer 1 (Fail)
//Storyboard Layer 2 (Pass)
//Storyboard Layer 3 (Foreground)
//Storyboard Sound Samples
//Background Colour Transformations
3,100,163,162,255

[TimingPoints]
1799,447.761194029851,4,1,0,31,1,0
9626,-100,4,1,0,5,0,0
10186,-100,4,1,0,31,0,0
13216,-100,4,1,0,5,0,0
13552,-100,4,1,0,31,0,0
33925,-100,4,2,0,50,0,0
37619,-100,4,1,0,31,0,0
55446,-100,4,1,0,60,0,0
55642,-100,4,1,0,31,0,0
56313,-100,4,1,0,50,0,0
56537,-100,4,1,0,31,0,0
57209,-100,4,1,0,50,0,0
58328,-100,4,1,0,31,0,0

[Colours]
Combo1 : 255,150,0
Combo2 : 245,146,146
Combo3 : 255,255,128
Combo4 : 240,5,5

[HitObjects]
96,64,8963,1,0
216,64,9410,1,8
152,152,9858,1,0
144,296,10306,1,8
200,296,10530,1,0
256,296,10754,5,0
384,296,11201,1,8
320,192,11649,1,0
320,72,12097,1,8
264,72,12321,1,0
208,72,12545,5,0
80,72,12993,1,8
144,168,13440,1,0
144,264,13888,1,8
200,264,14112,1,0
256,264,14336,5,0
408,256,14784,1,0
392,112,15119,1,0
352,64,15343,1,0
352,64,15455,5,0
288,64,15679,1,0
176,48,15903,1,0
176,48,16127,2,0,B|176:136|272:152,1,140,4|0
160,256,16799,1,0
160,256,17022,2,0,B|216:248|264:168,1,140
384,240,17694,1,0
384,240,17918,2,0,B|352:160|264:152,1,140,4|0
232,80,18590,1,0
208,80,18701,1,0
184,136,18925,1,0
160,136,19037,5,0
120,200,19261,1,0
256,200,19485,1,0
256,200,19709,2,0,B|176:224|184:320,1,140,4|0
256,200,20381,1,0
256,200,20604,2,0,B|304:264|392:216,1,140,4|0
256,200,21276,1,0
256,200,21500,2,0,B|296:128|240:48,1,140,4|4
160,64,22172,1,0
136,64,22284,1,0
72,128,22507,1,0
96,128,22619,5,0
144,200,22843,1,0
248,200,23067,1,0
248,200,23291,2,0,B|328:240|304:328,1,140
232,280,23963,1,0
232,280,24075,1,0
128,56,24410,5,0
184,56,24634,2,0,B|264:56,1,70
256,136,25082,2,0,B|320:136|320:136|336:104|336:104|384:104,1,140
448,152,25754,1,0
448,176,25866,1,0
376,208,26090,1,0
376,232,26201,5,0
304,288,26425,1,0
128,288,26649,1,0
128,288,26873,2,0,B|128:208|128:208|112:184|112:184|112:128,1,140
208,32,27545,1,0
208,32,27769,2,0,B|208:104|208:104|232:128|232:128|232:176,1,140
320,288,28440,1,0
320,288,28664,2,0,B|320:224|320:224|336:200|336:200|336:128,1,140,4|4
416,56,29336,1,0
392,56,29448,1,0
320,56,29672,1,0
296,56,29784,1,0
216,56,30007,1,0
216,56,30231,1,0
464,208,30455,6,0,B|416:288,1,70
336,208,30903,1,0
336,208,31127,1,0
400,208,31351,2,0,B|359:278,1,70
280,208,31799,1,0
280,208,32022,1,0
248,56,32246,6,0,B|294:122,1,70
120,56,32694,2,0,B|184:136,1,70
184,56,33142,1,0
184,56,33366,1,0
56,56,33590,1,0
56,56,33813,1,0
48,120,34037,5,0
56,152,34149,1,0
72,176,34261,1,0
96,192,34373,1,0
128,200,34485,1,0
160,200,34597,1,0
184,200,34709,1,0
168,112,34933,5,0
200,120,35045,1,0
224,144,35157,1,0
240,176,35269,1,0
248,208,35380,1,0
248,240,35492,1,0
240,272,35604,1,0
344,312,35828,5,0
368,288,35940,1,0
376,264,36052,1,0
376,232,36164,1,0
384,200,36276,1,0
400,176,36388,1,0
432,160,36500,1,0
328,48,36724,5,0
336,80,36836,1,0
336,112,36948,1,0
328,144,37060,1,0
312,168,37172,1,0
288,184,37284,1,0
264,192,37396,1,0
72,32,37619,6,0,B|72:96|72:96|96:120|96:120|96:184,1,140,0|8
96,272,38403,1,0
96,272,38515,1,0
152,272,38739,1,0
96,272,38963,1,8
472,192,39410,5,0
416,192,39634,1,0
360,192,39858,1,8
96,112,40194,1,8
152,112,40418,1,0
168,112,40530,1,0
224,112,40754,1,8
88,216,41201,6,0,B|90:306|186:306,2,140
160,240,42321,1,0
192,224,42433,1,0
224,224,42545,1,0
256,240,42657,1,0
288,240,42769,1,0
320,224,42881,1,0
336,192,42993,2,0,B|384:112|288:64,1,140
160,96,43776,1,0
96,128,44000,1,0
96,128,44112,5,0
96,192,44336,1,0
96,256,44560,1,0
144,304,44784,2,0,B|224:304,1,70
272,304,45231,1,0
336,304,45455,1,0
368,304,45567,1,0
400,304,45679,2,0,B|432:288|432:240,1,70
408,128,46127,2,0,B|440:160|440:208,1,70
408,128,46575,1,0
144,40,47022,5,0
224,40,47246,1,0
224,72,47358,1,0
296,96,47582,1,0
296,128,47694,1,0
360,184,47918,1,0
360,248,48142,1,0
360,312,48366,1,0
48,320,48813,5,0
120,320,49037,1,0
152,320,49149,1,0
184,320,49261,2,0,B|264:320,1,70
320,320,49709,1,0
320,256,49933,1,0
320,256,50157,2,0,B|240:256,2,70
400,216,50828,5,0
400,192,50940,1,0
328,144,51164,1,0
328,168,51276,1,0
240,168,51500,1,0
160,168,51724,1,0
80,168,51948,2,0,B|80:264,1,70
80,304,52395,1,0
408,272,52843,6,0,B|328:272,1,70
272,272,53291,1,0
272,272,53515,1,0
272,208,53739,2,0,B|192:208,2,70
336,208,54410,1,0
336,208,54522,1,0
336,208,54634,1,0
464,96,54858,5,0
344,32,55082,1,0
208,96,55306,1,0
88,32,55530,1,4
32,168,55754,5,0
160,232,55978,1,0
288,168,56201,1,0
416,232,56425,1,4
472,352,56649,5,0
344,288,56873,1,0
216,352,57097,1,0
88,280,57321,1,4
96,128,57769,5,4
392,56,58216,1,4
336,56,58440,1,0
280,56,58664,1,0
48,336,59112,1,4
160,56,59560,1,0
256,336,60007,1,0
360,56,60455,1,0
360,56,60679,1,0
360,56,60903,1,4
88,192,61351,5,0
200,144,61799,1,0
200,144,62022,1,0
296,160,62246,1,0
360,224,62470,1,0
360,224,62694,1,4
400,40,63142,5,0
344,40,63366,1,0
96,40,63813,5,0
152,40,64037,1,4
312,104,64485,2,0,B|312:256,1,140
112,272,65381,1,0
176,176,65604,1,0
88,144,65828,1,0
200,96,66052,1,0
200,96,66276,1,0
256,40,66724,1,0
80,48,67172,5,0
80,112,67396,1,0
80,176,67619,1,0
416,72,68067,6,0,B|416:136|416:136|432:160|432:160|432:232,1,140,4|0
408,280,68963,1,0
352,280,69187,1,0
288,280,69410,1,0
232,280,69634,1,0
176,280,69858,5,4
120,40,70306,1,0
64,280,70754,1,4
120,40,71201,1,0
192,40,71425,1,0
264,40,71649,2,4,B|304:40|304:40|328:56|328:56|400:56,1,140
448,192,72545,1,4
144,200,72993,5,0
88,144,73216,1,0
144,200,73440,1,0
72,240,73664,1,0
144,200,73888,1,0
152,280,74112,1,0
152,280,74224,1,0
152,280,74336,1,0
296,288,74672,1,0
240,168,75007,1,0
56,120,75231,5,0
120,136,75455,1,0
168,88,75679,1,0
104,72,75903,1,0
104,72,76015,1,0
104,72,76127,1,0
152,248,76463,1,0
320,224,76799,5,0
336,256,76910,1,0
352,280,77022,2,0,B|410:283|432:216,2,105
328,296,77806,1,0
304,304,77918,1,0
272,152,78254,1,0
424,96,78590,5,0
392,40,78813,1,0
352,96,79037,1,0
320,40,79261,1,0
248,40,79485,1,0
224,40,79597,1,0
192,96,79821,1,0
160,96,79933,1,0
32,192,80157,5,0
72,256,80380,1,0
144,256,80604,1,0
144,256,80828,1,0
216,256,81052,1,0
288,256,81276,1,0
288,256,81388,1,0
288,256,81500,1,0
448,192,81836,1,0
320,88,82171,1,0
256,88,82395,5,0
256,88,82619,1,0
192,88,82843,1,0
128,88,83067,1,0
128,88,83179,1,0
128,88,83291,1,0
320,88,83627,1,0
192,192,83963,5,0
160,224,84074,1,0
128,224,84186,2,0,B|104:272|152:320,2,105
128,192,84970,1,0
112,160,85082,1,0
240,48,85418,1,0
400,192,85754,5,4
344,192,85978,1,0
192,296,86425,1,0
248,296,86649,1,4
232,80,87097,1,0
176,80,87321,1,0
120,80,87545,1,4
64,176,89560,5,0
64,176,89784,1,0
208,176,90119,1,0
352,176,90455,2,0,B|464:176,2,105
384,48,91575,5,0
256,48,91910,1,0
128,48,92246,1,0
128,144,92470,1,0
128,144,92582,1,0
128,208,92806,1,0
128,208,93030,5,0
248,272,93366,1,0
360,216,93701,1,0
360,88,94037,2,0,B|472:88,2,105
64,48,95157,5,0
192,48,95493,1,0
128,160,95828,1,0
128,240,96052,1,0
128,240,96164,1,0
128,304,96388,1,0
128,304,96612,5,0
256,304,96948,1,0
128,304,97284,1,0
256,304,97619,2,0,B|368:304,2,105
256,176,98739,5,0
256,32,99075,1,0
256,176,99410,1,0
320,176,99634,1,0
336,176,99746,1,0
400,176,99970,1,0
400,176,100194,5,0
400,48,100530,1,0
280,48,100866,1,0
160,48,101201,2,0,B|48:48,2,105
256,192,102097,12,0,102993
392,96,103440,5,0
424,48,103664,1,0
392,96,103888,2,0,B|352:168|256:168,1,140
104,160,104560,1,0
104,160,104784,2,0,B|136:120|200:112,2,105
104,160,105679,2,0,B|104:240,1,70
168,208,106127,2,0,B|168:288,1,70
232,256,106575,2,0,B|232:352,1,70
424,336,107022,5,0
424,264,107246,1,0
424,192,107470,2,0,B|424:96|312:96,1,140
168,104,108142,1,0
168,104,108366,2,0,B|168:32|248:32,2,105
168,104,109261,2,0,B|168:200,1,70
112,144,109709,2,0,B|112:240,1,70
56,184,110157,2,0,B|56:264,1,70
160,312,110604,5,0
224,272,110828,1,0
288,312,111052,2,0,B|336:312|336:312|360:296|360:296|448:296,1,140
424,120,111724,1,0
424,120,111948,2,0,B|384:120|384:120|360:112|360:112|320:112,2,105
320,112,112843,2,0,B|322:198,1,70
264,72,113291,2,0,B|264:168,1,70
208,32,113739,2,0,B|208:128,1,70
144,192,114187,5,0
80,192,114410,1,0
40,248,114634,1,0
80,296,114858,1,0
144,296,115082,1,0
176,240,115306,2,0,B|248:240|248:240|264:224|264:224|320:224,1,140
296,160,115978,1,0
432,256,116425,6,0,B|432:352,1,70
368,256,116873,2,0,B|368:352,1,70
288,256,117321,5,0
256,256,117433,1,0
224,256,117545,1,0
192,256,117657,1,0
160,256,117769,1,0
96,256,117993,1,0
96,112,118216,5,0
96,112,118440,1,0
160,112,118664,1,8
224,112,118888,1,0
288,112,119112,2,0,B|368:112|368:208,1,140,0|8
368,272,119784,1,0
288,288,120007,5,0
272,256,120157,1,0
240,240,120306,1,0
224,208,120455,1,0
224,176,120604,1,0
240,144,120754,1,0
288,96,120903,1,0
392,64,121201,1,0
368,160,121500,1,0
416,320,121799,5,0
352,336,122022,1,0
288,336,122246,1,0
256,320,122358,1,0
240,288,122470,1,0
224,256,122582,1,0
208,224,122694,2,0,B|160:176|99:224,2,93.3333333333333
240,96,123590,5,0
256,128,123701,1,0
288,144,123813,1,0
320,144,123925,1,0
352,160,124037,1,0
384,224,124261,1,0
384,288,124485,1,0
352,304,124597,1,0
320,304,124709,1,0
288,288,124821,1,0
256,288,124933,1,0
168,264,125157,5,0
120,176,125381,1,0
120,176,125604,1,0
200,88,125828,1,0
200,88,125940,1,0
200,88,126052,1,0
248,184,126276,1,0
248,184,126500,1,0
320,112,126724,1,0
320,112,126836,1,0
320,112,126948,1,0
480,264,127172,5,0
368,264,127396,1,0
256,264,127619,1,0
256,264,127843,1,0
144,264,128067,1,0
144,264,128179,1,0
144,264,128291,1,0
32,264,128515,1,0
32,264,128627,1,0
32,264,128739,1,0
40,120,128963,5,0
160,40,129187,1,0
296,120,129410,1,0
432,40,129634,1,0
432,216,129858,5,0
296,120,130082,1,0
160,216,130306,1,0
40,120,130530,1,0
40,312,130754,5,0
160,216,130978,1,0
296,312,131201,1,0
432,216,131425,1,0
256,192,131649,12,0,132545
320,256,132769,1,0
256,256,132993,1,0
192,256,133217,1,0
128,256,133441,2,0,B|80:208|80:208|80:112,1,140
80,48,134113,1,0
176,48,134336,5,0
192,80,134486,1,0
224,96,134635,1,0
256,112,134784,1,0
272,144,134933,1,0
272,176,135083,1,0
280,240,135232,1,0
224,336,135530,1,0
280,240,135829,1,0
384,320,136128,5,0
384,320,136351,1,0
384,240,136575,1,0
416,224,136687,1,0
432,192,136799,1,0
432,160,136911,1,0
416,128,137023,2,0,B|384:96|320:112,2,93.3333333333333
256,112,137919,5,0
224,112,138030,1,0
192,112,138142,1,0
160,112,138254,1,0
128,112,138366,1,0
48,192,138590,1,0
144,192,138814,1,0
176,192,138926,1,0
208,192,139038,1,0
240,192,139150,1,0
272,192,139262,1,0
368,192,139486,5,0
368,288,139710,1,0
448,240,139933,1,0
368,192,140157,1,0
368,192,140269,1,0
368,192,140381,1,0
448,240,140604,1,0
448,240,140828,1,0
448,144,141053,1,0
448,144,141165,1,0
448,144,141277,1,0
456,40,141501,5,0
360,40,141725,1,0
256,40,141948,1,0
256,40,142172,1,0
152,40,142396,1,0
152,40,142508,1,0
152,40,142620,1,0
48,40,142844,1,0
48,40,142956,1,0
48,40,143068,1,0
32,192,143292,5,0
104,328,143516,1,0
256,328,143739,1,0
328,192,143963,1,0
128,192,144187,5,0
224,56,144411,1,0
384,64,144635,1,0
480,184,144859,1,0
256,192,145082,12,0,145978
