osu file format v9

[General]
AudioFilename: Haru - Same Thing.mp3
AudioLeadIn: 0
PreviewTime: 90300
Countdown: 0
SampleSet: Soft
StackLeniency: 0.8
Mode: 0
LetterboxInBreaks: 0

[Editor]
DistanceSpacing: 1
BeatDivisor: 4
GridSize: 8

[Metadata]
Title:Same Thing
Artist:Haru
Creator:vivicat
Version:Normal
Source:The Girl Who Leapt Through Time
Tags:Beren Gabriela Robin Toki wo Kakeru Shoujo Kawaranai Mono

[Difficulty]
HPDrainRate:3
CircleSize:4
OverallDifficulty:3
ApproachRate:4
SliderMultiplier:1.20000000596046
SliderTickRate:2

[Events]
//Background and Video events
0,0,"BG.jpg"
//Break Periods
2,195187,206570
//Storyboard Layer 0 (Background)
//Storyboard Layer 1 (Fail)
//Storyboard Layer 2 (Pass)
//Storyboard Layer 3 (Foreground)
//Storyboard Sound Samples
//Background Colour Transformations
3,100,255,255,255

[TimingPoints]
5310,645.161290322581,4,2,1,30,1,0
46257,-100,4,2,2,30,0,0
46902,-100,4,2,1,30,0,0
67064,-100,4,2,0,40,0,0
67386,-100,4,2,1,40,0,0
77386,-100,4,2,2,30,0,0
77709,-100,4,2,1,30,0,0
88535,-100,4,2,1,25,0,0
90310,-100,4,2,2,40,0,0
90471,-100,4,2,2,40,0,1
90632,-100,4,2,1,40,0,1
100622,-100,4,2,0,40,0,1
100945,-100,4,2,1,40,0,1
116277,-100,4,2,1,40,0,0
119977,-100,4,2,1,40,0,0
140632,-100,4,2,2,40,0,0
140955,-100,4,2,1,40,0,0
164019,-100,4,2,2,40,0,1
164180,-100,4,2,1,40,0,1
184664,-100,4,2,1,40,0,0
207568,-100,4,2,1,30,0,0
229503,-100,4,2,2,40,0,0
229987,-100,4,2,1,40,0,0
257568,-100,4,2,1,30,0,0

[Colours]
Combo1 : 103,33,40
Combo2 : 91,126,219
Combo3 : 67,45,172

[HitObjects]
88,192,25955,1,4
88,192,26277,2,0,B|128:176|176:208,1,60.000000298023,4|8
232,280,27245,2,0,B|267:284|296:280,2,60.000000298023,0|0|8
320,192,28535,2,0,B|256:168|202:193,1,120.000000596046,4|8
128,280,29826,2,0,B|93:289|64:280,4,60.000000298023,0|4|10|0|4
128,219,31439,5,4
128,160,31761,1,8
216,80,32406,2,0,B|280:96|352:80,1,120.000000596046,0|8
400,184,33697,2,0,B|409:221|395:259,1,60.000000298023,4|2
344,224,34342,2,0,B|353:261|344:296,1,60.000000298023,8|0
288,264,34987,2,0,B|297:301|286:334,2,60.000000298023,4|4|8
288,144,36277,5,4
228,133,36600,1,4
168,144,36922,1,8
168,264,37568,2,0,B|232:280|304:260,1,120.000000596046,2|8
286,144,38858,2,0,B|231:128|167:144,1,120.000000596046,4|8
168,264,40148,2,0,B|232:280|304:260,1,120.000000596046,2|8
371,184,41439,5,4
371,184,41761,1,4
371,184,42084,2,0,B|299:184,1,60.000000298023,8|2
251,184,42729,2,0,B|195:168|131:184,1,120.000000596046,0|8
47,268,44019,2,0,B|111:284|167:268,1,120.000000596046,4|8
225,268,44987,2,0,B|285:268,1,60.000000298023,0|4
344,256,45632,1,4
392,216,45955,2,0,B|392:144,1,60.000000298023,8|2
392,95,46600,5,12
277,131,47245,2,0,B|240:143|208:127,2,60.000000298023,8|0|0
361,215,48535,2,0,B|374:278|361:343,1,120.000000596046,8|4
242,334,49826,2,0,B|225:279|242:190,1,120.000000596046,8|0
357,215,51116,2,0,B|370:278|357:343,1,120.000000596046,10|4
304,304,52084,1,4
251,279,52406,6,0,B|215:289|176:276,2,60.000000298023,8|0|0
166,194,53697,2,0,B|226:214|286:194,1,120.000000596046,8|4
264,80,54987,2,0,B|228:90|187:77,1,60.000000298023,8|0
150,107,55632,2,0,B|136:174|148:236,2,120.000000596046,0|10|4
210,107,57245,1,4
270,107,57568,6,0,B|342:107,3,60.000000298023,8|0|0|2
372,149,58858,2,0,B|380:213|372:277,1,120.000000596046,8|4
252,268,60148,2,0,B|244:212|252:148,1,120.000000596046,8|0
372,149,61439,2,0,B|380:213|372:277,1,120.000000596046,8|4
312,288,62406,1,4
256,312,62729,5,8
176,216,63374,1,0
104,312,64019,1,8
32,216,64664,5,4
64,168,64987,1,4
104,120,65309,1,8
176,216,65955,1,4
296,216,66600,2,0,B|376:216,1,60.000000298023,8|2
416,216,67245,6,0,B|384:352|216:336,1,240.000001192092,6|0
147,257,69180,1,8
62,172,69826,6,0,B|104:32|248:56,1,240.000001192092,2|0
363,55,71761,1,8
415,162,72406,6,0,B|355:182|308:246,1,120.000000596046,2|8
234,316,73697,2,0,B|186:276|114:260,1,120.000000596046,0|8
127,143,74987,6,0,B|128:104|111:55,1,60.000000298023,0|2
160,40,75632,1,8
216,64,75955,1,0
272,40,76277,1,0
384,80,76922,1,8
344,192,77568,6,0,B|424:192,2,60.000000298023,12|4|8
284,192,78535,2,0,B|223:214|160:192,1,120.000000596046,0|0
112,176,79503,1,8
55,196,79826,1,0
64,256,80148,2,0,B|64:328,3,60.000000298023,4|4|8|0
120,336,81439,2,0,B|180:313|255:346,1,120.000000596046,0|8
336,280,82729,6,0,B|336:200,1,60.000000298023,4|4
362,166,83374,1,8
336,112,83697,2,0,B|276:134|216:112,1,120.000000596046
168,88,84664,1,8
112,112,84987,1,0
80,160,85310,6,0,B|80:304,1,120.000000596046,4|8
184,336,86600,2,0,B|184:216,1,120.000000596046,4|8
184,155,87568,1,0
184,95,87890,1,2
184,96,89180,1,2
184,96,90471,6,0,B|256:96,1,60.000000298023,12|4
304,120,91116,2,0,B|384:120,1,60.000000298023,8|0
416,152,91761,2,0,B|488:152,3,60.000000298023,4|0|8|0
472,216,93051,6,0,B|408:216,1,60.000000298023,4|0
360,248,93697,2,0,B|288:248,1,60.000000298023,8|0
256,288,94342,2,0,B|196:299|136:288,1,120.000000596046,4|8
64,192,95632,6,0,B|64:128,1,60.000000298023,4|4
120,104,96277,2,0,B|120:192,1,60.000000298023,8|0
176,192,96922,2,0,B|176:112,2,60.000000298023,4|0|8
256,280,98213,5,4
336,192,98858,1,12
256,104,99503,2,0,B|242:140|260:182,1,60.000000298023,4|2
256,224,100148,2,0,B|273:263|245:305,1,60.000000298023,8|2
200,288,100793,6,0,B|128:288|136:200,1,120.000000596046,4|8
224,128,102084,2,0,B|250:139|284:128,3,60.000000298023,4|4|8|0
344,144,103374,6,0,B|400:208,1,60.000000298023,4|0
328,208,104019,2,0,B|296:264,1,60.000000298023,8|0
352,296,104664,2,0,B|292:332|231:290,1,120.000000596046,4|8
136,240,105955,6,0,B|112:160|192:120,1,120.000000596046,4|8
232,136,106922,1,0
296,136,107245,2,0,B|355:137,2,60.000000298023,4|4|8
320,256,108535,5,4
200,288,109180,1,12
128,192,109826,2,0,B|248:192,1,120.000000596046,4|8
368,192,111116,6,0,B|248:192,1,120.000000596046,2|8
176,88,112406,2,0,B|224:152,1,60.000000298023,2|0
240,80,113051,2,0,B|248:152,1,60.000000298023,8|0
296,96,113697,2,0,B|272:176,1,60.000000298023,2|0
336,136,114342,2,0,B|288:192,1,60.000000298023,10|0
352,192,114987,2,0,B|311:238|240:240,1,120.000000596046,2|8
136,280,116277,5,2
196,259,116600,1,0
255,280,116922,1,2
315,258,117245,1,0
375,280,117568,1,2
256,72,118858,6,0,B|256:-8,2,60.000000298023,2|0|10
344,152,120148,5,4
344,152,120470,2,0,B|304:136|256:168,1,60.000000298023,4|8
280,280,121438,2,0,B|245:284|216:280,2,60.000000298023,0|0|8
192,192,122728,2,0,B|256:168|310:193,1,120.000000596046,4|8
384,280,124019,2,0,B|419:289|448:280,4,60.000000298023,0|4|10|0|4
384,219,125632,1,4
384,160,125954,5,8
312,64,126599,2,0,B|248:80|176:64,1,120.000000596046,4|8
165,184,127890,2,0,B|156:221|170:259,1,60.000000298023,4|2
221,224,128535,2,0,B|212:261|221:296,1,60.000000298023,8|0
277,264,129180,2,0,B|268:301|279:334,2,60.000000298023,4|4|8
224,144,130470,5,4
284,133,130793,1,4
344,144,131115,1,8
344,264,131761,2,0,B|280:280|208:260,1,120.000000596046,2|8
225,144,133051,2,0,B|279:128|343:144,1,120.000000596046,6|8
344,264,134342,2,0,B|280:280|208:260,1,120.000000596046,2|8
141,184,135632,5,4
141,184,135954,1,4
141,184,136277,2,0,B|213:184,1,60.000000298023,8|2
261,184,136922,2,0,B|317:168|381:184,1,120.000000596046,0|8
465,268,138212,6,0,B|401:284|345:268,1,120.000000596046,4|8
287,268,139180,2,0,B|227:268,1,60.000000298023,0|4
168,256,139825,1,4
120,216,140148,2,0,B|120:144,1,60.000000298023,8|2
120,95,140793,5,12
240,112,141439,1,8
328,192,142084,2,0,B|400:192,2,60.000000298023,0|0|8
392,296,143374,5,4
272,279,144020,1,8
184,192,144665,2,0,B|112:192,2,60.000000298023,0|0|8
120,296,145955,5,4
240,279,146601,1,8
328,199,147246,2,0,B|400:199,2,60.000000298023,0|0|8
208,192,148535,5,0
248,80,149180,2,0,B|284:90|325:77,1,60.000000298023,8|0
362,107,149825,2,0,B|376:174|364:236,2,120.000000596046,0|10|4
302,107,151438,5,4
242,107,151761,2,0,B|170:107,3,60.000000298023,8|0|0|2
140,149,153051,2,0,B|132:213|140:277,1,120.000000596046,8|4
260,268,154341,2,0,B|275:202|260:132,1,120.000000596046,8|0
143,148,155632,1,8
144,264,156277,5,4
200,288,156599,1,4
256,312,156922,1,8
336,216,157567,1,0
408,312,158212,1,8
480,216,158857,5,4
448,168,159180,1,4
408,120,159502,1,8
336,216,160148,1,4
216,216,160793,2,0,B|136:216,1,60.000000298023,8|2
256,192,161439,12,8,162729
328,96,164019,6,0,B|256:96,1,60.000000298023,4|4
208,120,164664,2,0,B|128:120,1,60.000000298023,8|0
96,152,165309,2,0,B|24:152,3,60.000000298023,4|0|8|0
40,216,166599,6,0,B|104:216,1,60.000000298023,4|0
152,248,167245,2,0,B|224:248,1,60.000000298023,8|0
256,288,167890,2,0,B|316:299|376:288,1,120.000000596046,4|8
448,192,169180,6,0,B|448:128,1,60.000000298023,4|4
392,104,169825,2,0,B|392:192,1,60.000000298023,8|0
336,192,170470,2,0,B|336:112,2,60.000000298023,4|0|8
256,280,171761,5,4
176,192,172406,1,12
256,104,173051,2,0,B|270:140|252:182,1,60.000000298023,4|2
256,224,173696,2,0,B|239:263|267:305,1,60.000000298023,8|2
312,288,174341,6,0,B|384:288|376:200,1,120.000000596046,4|8
288,128,175632,2,0,B|262:139|228:128,3,60.000000298023,4|4|8|0
168,144,176922,6,0,B|112:208,1,60.000000298023,4|0
184,208,177567,2,0,B|216:264,1,60.000000298023,8|0
160,296,178212,2,0,B|220:332|281:290,1,120.000000596046,4|8
376,240,179503,6,0,B|400:160|320:120,1,120.000000596046,4|8
280,136,180470,1,0
224,136,180793,2,0,B|165:137,2,60.000000298023,4|4|8
192,256,182083,5,4
312,288,182728,1,12
432,320,183374,1,4
312,288,184019,1,8
384,192,184664,6,0,B|264:192,1,120.000000596046,4|8
144,192,185954,2,0,B|264:192,1,120.000000596046,2|8
336,88,187244,2,0,B|288:152,1,60.000000298023,2|0
272,80,187889,2,0,B|264:152,1,60.000000298023,8|0
216,96,188535,2,0,B|240:176,1,60.000000298023,2|0
176,136,189180,2,0,B|224:192,1,60.000000298023,10|0
160,192,189825,6,0,B|201:238|272:240,1,120.000000596046,2|8
376,280,191115,1,2
257,280,191760,1,0
137,280,192406,1,2
256,280,193051,1,8
256,160,193697,2,0,B|256:96,2,60.000000298023,2|0|10
256,280,194987,1,4
136,64,207890,6,0,B|256:97|392:64,1,240.000001192092
368,312,210471,2,0,B|251:282|130:316,1,240.000001192092
380,317,213051,2,0,B|346:196|376:80,1,240.000001192092
132,74,215632,2,0,B|161:191|128:312,1,240.000001192092
200,80,218213,5,0
138,310,219503,1,0
368,372,220793,1,0
431,140,222083,1,0
198,78,223374,5,0
429,140,224664,1,0
367,372,225955,1,0
135,310,227245,2,0,B|168:256|233:240,1,120.000000596046
160,143,228535,2,0,B|127:89|61:73,1,120.000000596046,0|8
184,96,229826,6,0,B|256:96,1,60.000000298023,12|4
304,120,230471,2,0,B|384:120,1,60.000000298023,8|0
416,152,231116,2,0,B|488:152,3,60.000000298023,4|0|8|0
472,216,232406,6,0,B|408:216,1,60.000000298023,4|0
360,248,233052,2,0,B|288:248,1,60.000000298023,8|0
256,288,233697,2,0,B|196:299|136:288,1,120.000000596046,4|8
64,192,234987,6,0,B|64:128,1,60.000000298023,4|4
120,104,235632,2,0,B|120:192,1,60.000000298023,8|0
176,192,236277,2,0,B|176:112,2,60.000000298023,4|0|8
256,280,237568,5,4
336,192,238213,1,12
256,104,238858,2,0,B|242:140|260:182,1,60.000000298023,4|2
256,224,239503,2,0,B|273:263|245:305,1,60.000000298023,8|2
200,288,240148,6,0,B|128:288|136:200,1,120.000000596046,4|8
224,128,241439,2,0,B|250:139|284:128,3,60.000000298023,4|4|8|0
344,144,242729,6,0,B|400:208,1,60.000000298023,4|0
328,208,243374,2,0,B|296:264,1,60.000000298023,8|0
352,296,244019,2,0,B|292:332|231:290,1,120.000000596046,4|8
136,240,245310,6,0,B|112:160|192:120,1,120.000000596046,4|8
232,136,246277,1,0
296,136,246600,2,0,B|355:137,2,60.000000298023,4|4|8
320,256,247890,5,4
200,288,248535,1,12
128,192,249181,2,0,B|248:192,1,120.000000596046,4|8
368,192,250471,6,0,B|248:192,1,120.000000596046,2|8
176,88,251761,2,0,B|208:160,1,60.000000298023,2|0
228,196,252406,1,0
312,111,253051,1,0
432,111,253697,1,0
363,209,254342,6,0,B|322:255|251:257,1,120.000000596046,2|8
136,280,255632,1,2
196,259,255955,1,0
255,280,256277,1,2
315,258,256600,1,0
375,280,256923,1,2
256,72,258213,5,0
256,312,259503,1,0
128,112,260793,2,0,B|184:176,1,60.000000298023,0|2
208,200,261439,2,0,B|256:248,1,60.000000298023,0|2
296,288,262084,5,0
465,118,263374,1,0
225,118,264664,1,0
96,320,265955,2,0,B|152:304,1,60.000000298023,0|2
208,288,266600,2,0,B|285:264,1,60.000000298023,0|2
320,248,267245,5,0
150,78,268535,1,0
150,318,269826,1,0
352,192,271116,2,0,B|280:192,1,60.000000298023,0|2
232,192,271761,2,0,B|168:192,1,60.000000298023,0|2
112,192,272406,5,0
336,288,273697,1,0
168,112,274987,2,0,B|232:112|288:160,1,120.000000596046,0|2
320,192,275955,1,0
344,248,276277,1,0
256,328,276922,1,2
256,192,277568,12,0,280148
