osu file format v5

[General]
AudioFilename: Haru - March Handyman (Instrumental).mp3
AudioLeadIn: 0
PreviewTime: -1
Countdown: 1
SampleSet: Normal
StackLeniency: 0.7
Mode: 0
LetterboxInBreaks: 0
EditorBookmarks: 237772
EditorDistanceSpacing: 1

[Metadata]
Title:March Handyman (Instrumental)
Artist:Haru
Creator:Metroid
Version:Hard
Source:Old Wood's Hut
Tags:Techno Instrumental Viotex Nexy's Collab Nexy Touhou

[Difficulty]
HPDrainRate:8
CircleSize:5
OverallDifficulty:7
SliderMultiplier:1.4
SliderTickRate:1

[Events]
//Background and Video events
0,0,"Touhou21.png"
//Break Periods
2,66265,72970
2,116996,119799
2,191143,205653
//Storyboard Layer 0 (Background)
//Storyboard Layer 1 (Fail)
//Storyboard Layer 2 (Pass)
//Storyboard Layer 3 (Foreground)
Sprite,Foreground,Centre,"MetroidRemi.png",563,398 M,0,16473,,563,398 F,0,19426,,0 F,0,19426,19553,0,1 S,0,19454,19756,1.168,1 F,0,19553,21238,1,0.984252 F,0,48435,,1 F,0,48435,48607,1,0 S,0,48435,48607,1,1.2 F,0,49765,49996,0,0.984252 S,0,49765,49996,1.171905,1 F,0,66065,66415,0.9459045,0 S,0,66065,66415,1,1.2 F,0,73807,74184,0,0.984252 S,0,73807,74184,1.201705,1 F,0,81595,81793,0.9607552,0 S,0,81595,81793,1,1.16 F,0,97025,97456,0,1 S,0,97025,97456,1.148403,1 F,0,110866,111068,0.9930394,0.04903964 S,0,110866,111068,1,1.136 F,0,112134,112328,0.08642576,1 S,0,112134,112328,1.12494,1 F,0,117126,117431,0.9717451,0 S,0,117126,117431,1,1.112 F,0,121859,122085,0,1 S,0,121859,122085,1.101439,1 F,0,122606,122793,0.9911504,0 S,0,122606,122793,1,1.112 F,0,123661,123846,0.06890354,1 S,0,123661,123846,1.107677,1 F,0,144075,144254,0.994967,0 S,0,144075,144254,1,1.136 F,0,159597,160054,0,1 S,0,159597,160054,1.147934,1 F,0,173206,173461,0.9890591,0 S,0,173206,173461,1,1.136 F,0,174707,174994,0.05042262,1 S,0,174707,174994,1.121461,1 F,0,191222,191591,1,0 S,0,191222,191591,1,1.176
Sprite,Foreground,Centre,"MetroidMax.png",564,402 M,0,9697,11147,496,402,564,402 F,0,9697,11147,0,1 F,0,19158,19426,0.994536,0 S,0,19158,19426,1,1.12 S,0,48260,,1 F,0,48617,48824,0,1 S,0,48617,48824,1.272,1 F,0,49391,49676,1,0.02800003 S,0,49391,49676,1,1.2 F,0,81826,82067,0,1 S,0,81826,82067,1.121488,1 F,0,96303,,1 F,0,96303,96751,1,0 S,0,96303,96751,1,1.12 F,0,111050,111280,0.04241073,1 S,0,111050,111280,1.1059,1 F,0,111768,111977,0.9500389,0 S,0,111768,111977,1,1.104 F,0,120203,120616,0,1 S,0,120203,120616,1.084972,1 F,0,121498,121736,1,0 S,0,121498,121736,1,1.096 F,0,122846,123078,0.03361344,1 S,0,122846,123078,1.080596,1 F,0,123432,123675,0.9666763,0 S,0,123432,123675,1,1.152 F,0,144394,144754,0,1 S,0,144394,144754,1.106596,1 F,0,159235,159598,0.9638889,0 S,0,159235,159598,1,1.208 F,0,173596,173891,0.01593203,1 S,0,173596,173891,1.124293,1 F,0,174296,174644,0.9933283,0 S,0,174296,174644,1,1.128 F,0,206509,206976,0,0.9998431 S,0,206509,206976,1.161849,1 F,0,222119,222827,0.9934201,0 S,0,222119,222827,1,1.24
Sprite,Foreground,Centre,"Metroidsig.png",411,424 F,0,9697,10754,0,1 S,0,10754,,0.4959998 M,0,9697,11034,324,428,411,424 F,0,10754,238095,1 F,0,238095,239923,1,0 M,0,238095,240201,411,424,411,393
Animation,Foreground,Centre,"Bahamut.png",320,240,5,500 M,0,66443,73619,-94,239,736,212 P,0,66443,73619,H M,0,195278,198336,737,168,-92,176
Sprite,Foreground,Centre,"clouds-0.png",-180,236 S,0,10060,,1.184 F,0,10060,11633,0,1 M,0,10060,125094,946,236,81,236 F,0,237819,238660,1,0 M,0,125094,238677,81,236,-772,236
Sprite,Foreground,Centre,"clouds-0.png",-748,199 F,0,23323,28316,0,1 M,0,23323,102906,1379,199,-749,199 P,0,23323,102906,H F,0,100475,102906,1,0 S,0,102906,,1
Animation,Foreground,Centre,"WalkMH.png",320,240,4,500 M,0,119610,127462,673,447,-32,447
Animation,Foreground,TopLeft,"walkFront00.png",320,240,8,500 M,0,117376,127347,-128,353,639,352 M,0,191473,206385,639,352,-127,354 P,0,191473,206385,H
//Storyboard Sound Samples
//Background Colour Transformations
3,100,108,182,255

[TimingPoints]
10709,487.80487804878,4,2,0,80,1,0
19138,-100,4,1,0,60,0,0
19236,487.80487804878,4,1,0,60,1,0
48626,-100,4,2,0,80,0,0
49601,-100,4,1,0,60,0,0
81553,-100,4,2,0,80,0,0
82290,-100,4,1,0,60,0,0
82533,-100,4,2,0,80,0,0
83266,-100,4,1,0,60,0,0
83509,-100,4,2,0,80,0,0
84242,-100,4,1,0,60,0,0
84485,-100,4,2,0,80,0,0
84723,-100,4,1,0,60,0,0
84966,-100,4,2,0,80,0,0
85217,-100,4,1,0,60,0,0
85460,-100,4,2,0,80,0,0
85948,-100,4,2,0,80,0,0
86193,-100,4,1,0,60,0,0
86436,-100,4,2,0,80,0,0
87168,-100,4,1,0,60,0,0
87411,-100,4,2,0,90,0,0
88144,-100,4,1,0,60,0,0
88387,-100,4,2,0,80,0,0
89114,-100,4,1,0,60,0,0
89357,-100,4,2,0,80,0,0
90095,-100,4,1,0,60,0,0
90338,-100,4,2,0,80,0,0
91071,-100,4,1,0,60,0,0
91314,-100,4,2,0,80,0,0
92046,-100,4,1,0,60,0,0
92289,-100,4,2,0,80,0,0
93022,-100,4,1,0,60,0,0
93265,-100,4,2,0,80,0,0
93998,-100,4,1,0,60,0,0
94241,-100,4,2,0,80,0,0
94973,-100,4,1,0,60,0,0
95216,-100,4,2,0,80,0,0
97150,-100,4,1,0,60,0,0
110950,-100,4,2,0,80,0,0
112040,-100,4,1,0,60,0,0
119090,-100,4,2,0,80,0,0
121697,-100,4,1,0,60,0,0
122650,-100,4,2,0,80,0,0
123504,-100,4,1,0,60,0,0
143880,-100,4,2,0,80,0,0
144723,-100,4,1,0,60,0,0
144966,-100,4,2,0,80,0,0
145699,-100,4,1,0,60,0,0
145942,-100,4,2,0,80,0,0
146675,-100,4,1,0,60,0,0
146918,-100,4,2,0,80,0,0
147162,-100,4,1,0,60,0,0
147405,-100,4,2,0,80,0,0
147650,-100,4,1,0,60,0,0
147893,-100,4,2,0,80,0,0
148626,-100,4,1,0,60,0,0
148870,-100,4,2,0,80,0,0
149601,-100,4,1,0,60,0,0
149844,-100,4,2,0,80,0,0
150577,-100,4,1,0,60,0,0
150820,-100,4,2,0,80,0,0
151553,-100,4,1,0,60,0,0
151796,-100,4,2,0,80,0,0
152528,-100,4,1,0,60,0,0
152771,-100,4,2,0,80,0,0
153504,-100,4,1,0,60,0,0
153747,-100,4,2,0,80,0,0
154479,-100,4,1,0,60,0,0
154722,-100,4,2,0,80,0,0
155455,-100,4,1,0,60,0,0
155698,-100,4,2,0,80,0,0
156431,-100,4,1,0,60,0,0
156674,-100,4,2,0,80,0,0
157406,-100,4,1,0,60,0,0
157649,-100,4,2,0,80,0,0
159570,-100,4,1,0,60,0,0
173504,-100,4,2,0,80,0,0
174479,-100,4,1,0,60,0,0
203231,-100,4,2,0,80,0,0

[Colours]
Combo1 : 255,200,117
Combo2 : 131,252,131
Combo3 : 128,191,255
Combo4 : 252,124,124

[HitObjects]
96,240,10709,2,0,B|192:240,1,70
224,272,11196,1,2
224,208,11440,1,0
280,240,11684,1,0
280,240,11928,1,0
280,240,12172,1,2
416,144,12660,6,0,B|320:144,1,70
288,112,13147,1,2
280,240,13635,1,0
232,192,13879,1,0
216,128,14123,1,2
256,352,14611,5,10
256,32,15099,1,10
224,88,15343,6,0,B|304:88,1,70
296,160,15830,2,0,B|216:160,1,70,0|2
224,296,16562,2,0,B|296:296,1,70
294,296,17050,1,2
256,192,17294,12,0,19001
256,32,19236,5,0
288,96,19479,1,0
224,96,19723,1,8
224,288,20455,1,0
288,288,20699,1,8
288,224,20943,1,0
160,224,21431,5,0
112,176,21675,1,8
112,112,21918,1,0
160,64,22162,1,0
224,32,22406,2,0,B|304:32,1,70,8|8
352,136,23138,5,0
352,208,23382,1,0
320,272,23626,1,8
256,304,23870,1,0
256,128,24357,5,0
176,224,24601,1,8
336,224,24845,1,0
256,304,25333,2,2,B|256:224,1,70,2|8
256,160,25821,2,2,B|256:64,1,70,2|8
320,48,26309,5,0
256,16,26553,1,8
192,48,26796,1,0
176,112,27040,2,0,B|176:192,2,70,0|0|8
240,96,27772,2,2,B|336:96|336:192,1,140
256,176,28504,1,8
176,176,28748,2,2,B|176:272|272:256,1,140
256,176,29479,1,8
256,176,29723,1,4
192,208,29967,1,0
128,176,30211,1,0
144,112,30455,1,8
192,64,30699,1,0
256,32,30943,5,0
320,64,31187,1,0
352,128,31431,1,8
336,192,31675,1,0
288,240,31918,1,0
232,288,32162,1,0
200,352,32406,1,8
232,288,32650,1,0
208,160,33138,6,0,B|128:160,1,70,0|8
304,128,33626,2,2,B|400:128,1,70,2|2
208,96,34114,2,0,B|128:96,1,70,0|8
304,64,34601,6,2,B|384:64,1,70
208,32,35089,2,0,B|128:32,1,70,0|8
136,32,35577,1,0
256,32,36065,2,2,B|256:112,1,70,2|10
288,160,36553,5,0
224,160,36796,1,0
160,192,37040,1,0
112,240,37284,1,8
96,304,37528,1,0
224,304,38016,2,2,B|320:304,2,70,2|10|2
160,304,38748,5,0
176,240,38992,1,0
240,224,39235,1,8
304,224,39479,1,0
432,224,39967,2,2,B|432:144,1,70,2|10
432,128,40333,1,2
432,96,40455,2,2,B|432:16|368:24|368:96,1,140
368,160,41187,1,8
304,128,41431,1,0
304,192,41675,1,0
240,160,41918,1,0
176,128,42162,1,8
176,192,42406,1,0
112,160,42650,5,0
64,208,42894,1,0
64,272,43138,1,8
112,320,43382,1,0
328,256,43870,2,2,B|392:336,2,70,2|10|2
256,128,44845,2,2,B|256:32,2,70,2|10|2
184,256,45821,2,2,B|120:336,2,70,2|10|2
256,192,46553,6,0,B|288:128|368:192|320:240,1,140,0|8
288,288,47284,1,0
176,224,47772,1,0
144,160,48016,1,8
160,96,48260,1,0
256,32,48747,1,2
320,48,48992,1,10
336,112,49235,1,2
304,176,49479,1,2
256,224,49723,2,2,B|224:256|160:240,2,70,2|10|2
191,245,50455,5,0
128,224,50699,1,0
80,176,50943,1,8
64,112,51187,1,0
176,48,51675,2,0,B|224:48|256:80,1,70,0|8
288,112,52162,1,0
336,160,52406,1,0
352,224,52650,1,0
336,288,52894,1,8
272,320,53138,1,0
144,320,53626,6,0,B|96:320|64:288,2,70,0|8|0
208,288,54357,1,0
256,240,54601,1,0
288,176,54845,1,8
304,112,55089,1,0
192,16,55577,5,2
128,32,55821,1,10
96,48,55943,1,2
80,80,56065,2,2,B|32:160|96:224,1,140
112,272,56796,1,8
176,304,57040,1,0
248,304,57284,1,0
312,272,57528,1,0
360,224,57772,1,8
384,160,58016,1,0
384,96,58260,5,0
320,64,58504,1,0
320,128,58748,1,8
256,96,58992,1,0
208,240,59479,1,2
256,288,59723,1,8
304,240,59967,1,2
304,80,60455,1,2
256,32,60699,1,8
208,80,60943,1,2
160,128,61187,5,0
144,160,61309,1,0
128,192,61431,1,0
128,224,61553,1,0
128,256,61675,1,8
152,288,61796,1,0
184,304,61918,1,0
224,304,62040,1,0
256,288,62162,6,0,B|336:256|272:160,1,140,0|8
208,160,62894,2,0,B|224:112|272:80|336:128,1,140
368,160,63626,1,8
400,224,63870,2,0,B|400:320|304:352,1,140
272,352,64601,1,8
208,336,64845,1,0
160,288,65089,1,0
128,224,65333,1,0
128,160,65577,1,8
160,96,65821,1,0
160,96,66065,1,4
256,32,73870,6,0,B|336:32|336:128,1,140,0|8
272,128,74601,1,0
272,128,75089,1,0
272,192,75333,1,8
216,224,75577,2,0,B|248:272|304:272|336:208,1,140
272,192,76309,1,8
272,128,76553,1,0
144,64,77040,5,0
96,112,77284,1,8
64,176,77528,2,0,B|48:256|128:304,1,140
144,240,78260,1,8
128,176,78504,2,0,B|208:176|224:288,1,140
240,336,79235,5,8
304,304,79479,1,0
272,240,79723,1,0
336,208,79967,1,0
288,160,80211,1,8
352,128,80455,1,0
256,32,80943,1,0
256,32,81187,1,12
96,128,81674,5,0
64,192,81918,1,0
128,192,82161,1,2
96,256,82406,2,0,B|96:320|144:352|208:304,1,140,0|0
256,288,83137,1,2
320,240,83382,1,0
432,144,83870,1,0
448,80,84114,1,2
400,32,84357,1,0
256,80,84844,6,0,B|256:160,1,70,4|4
256,320,85333,2,0,B|256:240,1,70,4|4
256,176,85821,5,2
304,128,86065,1,0
368,96,86309,2,0,B|448:80|480:176,1,140,0|0
496,224,87039,1,2
480,288,87284,1,0
352,352,87772,1,0
288,352,88015,1,2
224,320,88260,1,0
352,256,88748,5,2
384,192,88992,1,2
336,144,89235,1,0
320,208,89479,5,0
256,208,89723,1,0
192,176,89967,1,2
256,144,90211,2,0,B|320:144|368:128|368:64,1,140,0|0
304,48,90943,1,2
240,64,91187,1,0
128,144,91675,1,0
80,192,91917,1,2
128,240,92162,1,0
224,304,92650,6,0,B|272:336|320:304,1,70
352,288,93138,1,0
400,240,93382,1,0
432,176,93626,1,0
416,112,93869,1,2
368,64,94114,1,0
304,48,94357,1,0
240,64,94601,1,0
192,112,94845,1,2
176,176,95089,1,8
304,224,95577,6,0,B|384:224,1,70,0|8
208,256,96065,2,2,B|112:256,1,70,2|2
304,288,96553,2,0,B|384:288,1,70,0|8
208,320,97040,6,0,B|128:320,1,70
304,352,97528,2,0,B|384:352,1,70,0|8
374,352,98016,1,0
496,272,98504,2,2,B|496:192,1,70,2|10
496,128,98992,5,0
448,80,99235,1,0
384,64,99479,1,0
320,80,99723,1,8
288,144,99967,1,0
288,288,100455,2,2,B|288:368,2,70,2|10|2
288,224,101187,5,0
256,160,101431,1,0
208,112,101675,1,8
144,80,101918,1,0
16,144,102406,2,2,B|16:240,1,70,2|10
16,248,102772,1,2
16,280,102894,2,2,B|16:360|96:344|96:264,1,140
96,216,103626,1,8
80,144,103870,1,0
112,80,104114,1,0
160,32,104357,1,0
224,32,104601,1,8
288,64,104845,1,0
336,112,105089,6,0,B|368:144|368:192,1,70
304,208,105577,2,0,B|304:160|272:144,1,70,8|0
160,224,106309,1,2
96,272,106553,1,8
160,304,106796,1,2
288,256,107284,1,2
320,320,107528,1,8
256,352,107772,1,2
224,208,108260,1,0
208,144,108504,1,8
240,80,108748,1,0
304,48,108992,6,0,B|384:16|448:96,1,140,0|8
464,144,109723,1,0
448,288,110211,1,0
400,336,110455,1,8
336,320,110699,1,0
224,240,111187,1,2
256,176,111431,1,8
224,112,111675,1,2
160,80,111918,1,2
96,112,112162,2,2,B|64:160|96:208,2,70,2|10|2
160,80,112894,5,0
224,112,113138,1,0
272,160,113382,1,8
256,224,113626,1,0
336,336,114114,2,2,B|400:272,1,70,2|10
432,240,114601,1,0
448,176,114845,1,0
448,112,115089,1,0
400,64,115333,1,8
336,48,115577,1,0
192,64,116065,2,2,B|128:96,2,70,2|10|2
256,32,116796,1,4
224,32,120699,5,0
288,64,120943,1,0
224,96,121187,1,2
288,128,121431,1,0
288,272,121918,1,0
224,304,122162,1,8
288,336,122406,1,0
416,288,122894,1,0
448,224,123138,1,2
432,160,123382,1,0
384,112,123625,5,0
352,96,123748,1,0
320,96,123870,1,0
288,112,123992,1,0
272,144,124114,1,8
240,160,124235,1,0
208,160,124357,1,0
176,144,124479,1,0
160,112,124601,6,0,B|112:64|48:64|16:128,1,140,0|8
96,144,125333,2,0,B|96:192|144:240|224:224,1,140
256,224,126065,1,8
304,176,126309,2,0,B|352:144|416:144|448:192,1,140
464,240,127040,1,8
448,304,127284,1,0
384,336,127528,1,0
320,336,127772,1,0
272,288,128016,1,8
208,256,128260,1,0
144,224,128504,6,0,B|96:192|32:208|32:288,1,140,0|8
32,336,129235,1,0
160,272,129723,1,0
224,240,129967,1,8
256,176,130211,2,0,B|288:96|384:128,1,140
432,160,130943,1,8
432,160,131187,1,0
448,304,131675,5,0
384,336,131918,1,8
320,320,132162,2,0,B|256:304|224:224,1,140
224,225,132894,1,8
240,160,133138,1,0
384,160,133626,5,0
400,96,133870,1,8
352,48,134114,2,0,B|304:16|192:32,1,140
160,64,134845,1,8
208,112,135089,1,0
160,160,135333,1,0
208,208,135577,1,0
160,256,135821,1,8
208,304,136065,1,0
256,256,136309,6,0,B|352:256|352:160,1,140,0|8
304,128,137040,1,0
400,32,137528,1,0
448,80,137772,1,8
480,144,138016,2,0,B|496:224|464:304,1,140
432,336,138748,1,8
368,352,138992,1,0
224,352,139479,5,0
160,320,139723,1,8
160,320,139967,2,0,B|96:288|80:256|80:208,1,140,0|0
96,144,140699,1,8
144,192,140943,2,0,B|208:256|304:224,1,140
336,208,141675,1,8
400,176,141918,1,0
432,112,142162,1,0
368,112,142406,1,0
304,144,142650,1,8
256,192,142894,1,0
256,48,143382,2,0,B|256:144,1,70,0|12
176,240,144114,5,0
208,304,144357,1,0
272,336,144601,1,2
336,336,144844,2,0,B|432:320|464:256,1,140,0|0
480,208,145577,1,2
480,128,145821,1,0
368,48,146309,1,0
320,96,146553,1,2
320,160,146796,1,0
256,336,147283,6,4,B|256:256,1,70
256,96,147772,2,4,B|256:176,1,70,4|4
256,240,148260,5,0
192,272,148504,1,2
128,240,148748,2,0,B|96:208|80:160|112:112,1,140,0|0
160,64,149479,1,2
224,48,149722,1,0
368,80,150211,1,0
432,112,150455,1,2
448,176,150699,1,0
464,320,151187,5,2
416,368,151431,1,2
368,320,151674,1,0
416,272,151918,5,0
400,208,152162,1,0
352,160,152406,1,2
352,160,152649,2,0,B|288:112|224:96,1,140,0|0
227,97,153382,1,2
160,112,153625,1,0
48,192,154114,1,0
112,192,154357,1,2
176,192,154600,1,0
304,192,155089,6,0,B|384:192,1,70,0|2
432,224,155576,1,0
496,192,155821,1,0
432,160,156065,1,0
368,128,156309,1,2
304,144,156552,1,0
256,96,156796,1,0
208,144,157040,1,0
144,128,157284,1,2
80,160,157527,1,8
288,144,158016,6,0,B|288:64,1,70
320,240,158504,2,2,B|320:336,1,70,2|2
352,144,158992,2,0,B|352:64,1,70,0|8
384,240,159479,6,0,B|384:320,1,70
416,144,159967,2,0,B|416:64,1,70,0|8
416,75,160455,1,0
288,32,160943,2,2,B|208:32,1,70,2|10
144,48,161431,5,0
80,80,161675,1,0
48,144,161918,1,0
48,208,162162,1,8
64,272,162406,1,0
176,352,162894,2,2,B|256:368,2,70,2|10|2
112,320,163626,5,0
64,272,163870,1,0
48,208,164114,1,8
96,160,164357,1,0
192,64,164845,2,2,B|224:32|272:32,1,70
288,32,165211,1,2
320,32,165333,2,2,B|368:32|416:48|432:128,1,140
448,176,166065,1,8
448,240,166309,1,0
416,304,166553,1,0
352,336,166796,1,0
288,320,167040,1,8
288,320,167284,1,0
224,288,167528,6,0,B|256:240|304:256,1,70
240,192,168016,2,0,B|192:192|176:256,1,70,8|0
128,352,168748,1,0
64,320,168992,1,8
64,320,169235,2,0,B|32:272|32:224|80:160,1,140
112,240,169967,1,8
160,288,170211,2,0,B|192:240|192:192|160:144,1,140
112,112,170943,1,8
48,80,171187,1,0
48,80,171431,6,0,B|96:48|144:32|208:64,1,140,0|8
240,80,172162,1,0
320,192,172650,1,0
320,192,172894,1,8
320,192,173138,1,0
304,336,173625,1,2
240,368,173870,1,10
176,336,174114,1,2
240,304,174357,1,2
240,304,174601,2,2,B|240:224,2,70,2|10|2
176,336,175333,5,0
176,272,175577,1,0
176,208,175821,1,8
192,144,176065,1,0
304,48,176553,6,2,B|336:16|384:16,1,70,2|10
432,16,177040,1,0
480,64,177284,1,0
480,128,177528,1,0
448,192,177772,1,8
448,192,178016,1,0
336,272,178504,6,2,B|304:304|256:304,2,70,2|10|2
384,224,179235,1,0
400,160,179479,1,0
368,96,179723,1,8
304,64,179967,1,0
160,80,180455,5,2
96,112,180699,1,10
64,128,180821,1,2
48,160,180943,2,2,B|32:208|32:256|64:304,1,140
112,336,181675,1,8
176,352,181918,1,0
240,336,182162,1,0
304,304,182406,1,0
352,256,182650,1,8
384,192,182894,1,0
400,128,183138,5,0
368,64,183382,1,0
304,48,183626,1,8
240,48,183870,1,0
208,192,184357,1,2
256,240,184601,1,8
304,192,184845,1,2
304,48,185333,1,2
256,0,185577,1,8
208,48,185821,1,2
256,96,186065,5,0
256,128,186187,1,0
256,160,186309,1,0
256,192,186431,1,0
240,224,186553,1,8
208,240,186674,1,0
176,240,186796,1,0
144,240,186918,1,0
112,224,187040,6,0,B|80:208|64:160|64:96,1,140,0|8
128,144,187772,2,0,B|144:96|128:48|96:32|48:32,1,140
16,80,188504,1,8
16,160,188748,2,0,B|16:224|64:256|128:256,1,140
176,256,189479,2,0,B|256:256,1,70,8|0
208,192,189967,2,0,B|288:192,1,70
320,256,190455,2,0,B|416:256,1,70,8|0
390,256,190943,1,4
256,32,206553,5,0
320,32,206796,1,0
384,48,207040,1,0
448,80,207284,2,0,B|480:96|512:160|496:224,1,140,2|0
432,192,208016,1,0
368,160,208260,2,0,B|320:224|336:256|416:272,1,140,2|0
448,304,208992,1,0
448,304,209235,1,2
256,80,209723,6,0,B|256:160,1,70,2|4
256,320,210211,2,0,B|256:240,1,70,2|4
224,192,210699,5,0
224,192,210943,1,0
192,256,211187,2,0,B|144:224|144:176|176:128,1,140,2|0
224,192,211918,1,0
224,192,212162,1,2
336,288,212650,1,0
384,336,212894,1,0
432,288,213138,2,0,B|480:256|480:208|448:160,1,140,2|0
400,128,213870,1,0
336,112,214114,1,2
272,112,214357,5,0
224,160,214601,1,0
224,224,214845,1,0
224,224,215089,2,0,B|224:280|176:288|144:272|144:224,1,140,2|0
144,160,215821,1,0
144,160,216065,1,2
256,64,216553,1,0
256,128,216796,1,0
256,64,217040,1,2
256,192,217528,6,2,B|256:288,1,70
256,336,218016,1,2
320,304,218260,1,0
320,240,218504,1,0
320,176,218748,1,0
256,144,218992,1,2
192,176,219235,1,0
192,240,219479,1,0
192,304,219723,1,0
256,336,219967,1,2
256,192,220211,12,14,221675
256,288,222406,6,0,B|256:368,2,70,0|2|0
432,80,223382,2,0,B|496:16,2,70,0|2|0
80,80,224357,2,0,B|16:16,2,70,0|2|0
208,192,225333,1,0
256,240,225577,1,2
304,192,225821,1,2
256,96,226309,6,0,B|256:16,2,70,0|2|0
80,304,227285,2,0,B|16:368,2,70,0|2|0
432,304,228260,2,0,B|496:368,2,70,0|2|0
304,192,229236,1,0
256,144,229480,1,2
208,192,229724,1,2
80,256,230211,5,0
32,208,230455,1,2
80,160,230699,1,0
432,256,231187,1,0
480,208,231431,1,2
432,160,231675,1,0
304,304,232162,1,0
256,352,232406,1,2
208,304,232650,1,0
304,80,233138,1,0
256,32,233382,1,2
208,80,233626,1,2
256,192,234114,12,2,237528
