osu file format v5

[General]
AudioFilename: ikim.mp3
AudioLeadIn: 1000
PreviewTime: -1
Countdown: 0
SampleSet: Normal
StackLeniency: 0.7
Mode: 0
LetterboxInBreaks: 1
EditorDistanceSpacing: 1.60000002384186

[Metadata]
Title:Garamon Song (Instrumental)
Artist:Haru
Creator:Shinxyn
Version:Normal
Source:Viotex Instrumentals
Tags:Techno Touhou Instrumental Viotex

[Difficulty]
HPDrainRate:5
CircleSize:4
OverallDifficulty:6
SliderMultiplier:1.4
SliderTickRate:1

[Events]
//Background and Video events
0,0,"Touhou05.png"
//Break Periods
2,31190,33383
2,35125,37317
2,73977,74694
//Storyboard Layer 0 (Background)
//Storyboard Layer 1 (Failing)
//Storyboard Layer 2 (Passing)
//Storyboard Layer 3 (Foreground)
4,3,1,"hitcirclesb.png",320,263 F,0,130580,130826,0,1 S,0,130580,130580,0.6313599,0.6313599 C,0,130580,130826,0,0,160,0,0,160 F,0,130826,131318,1,1 F,0,131318,131564,1,0
4,3,1,"approachcirclesb.png",320,263 F,0,130580,130826,0,1 S,0,130580,131564,1.8192,0.6108803 C,0,130580,130826,0,0,160,0,0,160 F,0,130826,131318,1,1 F,0,131318,131564,1,0
4,3,1,"hitcircleoverlaysb.png",320,263 F,0,130580,130826,0,1 S,0,130813,130813,0.5801598,0.5801598 F,0,130826,131318,1,1 F,0,131318,131564,1,0
//Storyboard Sound Samples
//Background Colour Transformations
3,100,0,0,0

[TimingPoints]
7,491.803278688525,4,2,0,80,1,0
41318,-100,4,1,0,80,0,0
75744,-200,4,2,0,80,0,0
94195,-100,4,1,0,80,0,0

[Colours]
Combo1 : 0,0,160
Combo2 : 132,0,132
Combo3 : 107,182,97
Combo4 : 173,3,3

[HitObjects]
152,120,3941,1,0
112,160,4187,1,0
152,192,4433,1,2
112,232,4679,1,0
224,232,5170,1,0
336,232,5662,1,0
376,192,5908,1,2
264,192,6400,1,0
376,192,6892,5,0
152,192,7384,1,0
152,304,7875,5,0
128,248,8121,1,0
152,192,8367,1,2
176,144,8613,1,0
232,48,9105,1,0
296,144,9597,1,2
232,144,9843,1,0
112,144,10334,1,0
112,256,10826,5,0
376,256,11318,1,0
296,336,11810,5,0
240,336,12056,1,0
184,336,12302,1,2
184,280,12547,1,0
296,280,13039,1,0
296,168,13531,1,2
240,168,13777,1,0
128,168,14269,1,0
352,168,14761,5,0
128,168,15252,1,0
128,280,15744,5,0
184,280,15990,1,0
240,280,16236,1,2
240,336,16482,1,0
336,280,16974,1,0
240,224,17466,1,2
184,224,17711,1,0
184,336,18203,1,0
296,336,18695,5,0
296,112,19187,1,0
408,112,19679,5,0
408,168,19925,1,0
408,224,20170,1,2
352,224,20416,1,0
240,224,20908,1,0
240,112,21400,1,2
240,168,21646,1,0
128,168,22138,1,0
240,168,22629,5,0
464,168,23121,1,0
256,192,23613,12,0,26072
144,192,26564,5,0
368,192,27056,1,0
256,192,27547,12,0,29515
256,64,30007,6,2,B|256:144,1,70,2|2
256,192,30498,5,0
256,192,30990,1,0
256,80,34433,5,0
256,304,34925,1,0
144,192,38367,5,0
368,192,38859,1,0
256,192,39597,12,4,41318
408,192,41810,5,8
296,192,42302,1,0
408,192,42793,1,8
296,192,43285,2,0,B|200:192,1,70
168,192,43777,1,8
56,192,44269,5,0
56,80,44761,1,8
168,80,45252,1,0
168,136,45498,1,0
168,192,45744,1,8
280,192,46236,1,0
280,248,46482,1,0
280,304,46728,1,8
376,248,47220,5,0
280,192,47711,2,0,B|280:120,1,70,8|0
280,64,48203,2,0,B|360:64,2,70,0|0|8
184,120,49187,5,0
72,120,49679,1,8
168,176,50170,1,0
152,232,50416,1,0
136,288,50662,1,8
248,288,51154,5,0
264,232,51400,1,0
280,176,51646,1,8
392,176,52138,5,0
376,232,52384,1,8
360,288,52629,1,8
392,176,53121,5,0
280,176,53613,2,0,B|184:96|72:184,1,210,8|0
88,232,54597,1,8
184,288,55088,5,0
280,232,55580,2,0,B|328:152|264:80,1,140,8|0
240,136,56318,1,0
200,176,56564,1,8
184,288,57056,6,0,B|184:384,2,70,0|0|8
296,288,58039,2,0,B|392:288,2,70,0|0|8
296,176,59023,2,0,B|296:104,4,70,8|0|8|0|0
240,176,60252,1,0
184,176,60498,1,8
184,64,60990,5,0
296,64,61482,2,0,B|416:72|464:184,1,210,8|0
464,232,62466,1,8
352,232,62957,6,0,B|352:328,1,70
296,304,63449,2,0,B|296:216,2,70,8|0|0
240,304,64187,1,0
184,304,64433,1,8
184,192,64925,5,12
376,304,65908,1,8
376,80,66892,1,8
256,272,67875,1,8
184,192,68367,1,4
184,80,68859,5,8
408,80,69843,1,8
184,80,70826,1,8
184,304,71810,1,8
280,240,72302,1,4
184,304,72793,1,8
184,304,73777,1,8
256,192,75744,12,0,77711
312,80,78695,5,0
312,192,79187,1,0
216,136,79679,1,0
312,80,80170,1,0
256,192,80662,12,0,82138
424,192,82629,6,2,B|376:240,1,35
232,216,83613,6,2,B|280:168,1,35
88,184,84597,6,2,B|128:224,1,35
256,120,85580,1,0
256,176,85826,1,2
256,232,86072,1,0
256,288,86318,2,2,B|256:320,2,17.5
256,232,86810,1,2
96,288,87547,5,0
176,208,88039,2,0,B|176:152,2,35,0|2|0
232,208,88777,1,0
288,208,89023,1,2
288,96,89515,6,0,B|288:160,2,35,0|2|0
232,96,90252,1,0
176,96,90498,1,2
256,192,90744,12,0,93203
256,80,94187,5,0
256,192,94679,1,8
344,120,95170,1,0
256,192,95662,1,8
168,120,96154,5,0
168,176,96400,1,0
176,232,96646,1,8
208,280,96892,1,8
256,304,97138,1,8
256,192,97629,1,0
344,120,98121,5,0
424,192,98613,1,8
344,264,99105,2,0,B|168:264,1,140,0|8
88,264,100088,2,0,B|168:264,4,70,0|0|8|0|0
88,208,101318,2,0,B|88:112,1,70,0|8
200,136,102056,5,0
288,200,102547,1,8
288,88,103039,1,0
328,120,103285,1,0
368,152,103531,1,8
368,264,104023,1,0
320,288,104269,1,0
272,312,104515,2,0,B|192:312,1,70,8|0
144,312,105007,6,0,B|144:144,1,140,0|8
144,56,105990,1,0
88,56,106236,1,0
32,56,106482,1,8
32,168,106974,6,0,B|32:248,2,70,0|0|8
144,168,107957,1,0
200,168,108203,1,0
256,168,108449,1,8
312,168,108695,1,0
368,168,108941,1,0
424,168,109187,1,0
480,168,109433,1,8
480,280,109925,5,0
368,280,110416,2,0,B|216:280,1,140,8|0
168,280,111154,1,0
168,224,111400,1,8
280,224,111892,5,0
280,112,112384,2,0,B|280:24,3,70,8|0|0|0
336,40,113367,1,8
224,40,113859,5,0
224,152,114351,1,8
336,152,114843,1,0
392,152,115088,1,0
392,208,115334,1,8
280,208,115826,5,0
168,208,116318,1,8
168,96,116810,1,8
224,96,117056,1,0
280,96,117302,1,8
280,208,117793,5,12
96,336,118777,1,8
96,112,119761,1,8
320,112,120744,1,8
368,216,121236,1,4
416,112,121728,5,8
368,328,122711,1,8
240,144,123695,1,8
48,264,124679,2,0,B|104:192,1,70,8|0
144,208,125170,1,4
144,80,125662,5,8
256,304,126646,1,0
480,304,127629,1,0
368,112,128613,1,0
256,112,129105,1,0
256,224,129597,1,0
32,192,130580,1,0
