osu file format v5

[General]
AudioFilename: ikim.mp3
AudioLeadIn: 1000
PreviewTime: -1
Countdown: 0
SampleSet: Soft
StackLeniency: 1
Mode: 0
LetterboxInBreaks: 1
EditorDistanceSpacing: 1

[Metadata]
Title:Garamon Song (Instrumental)
Artist:Haru
Creator:Shinxyn
Version:Insane
Source:Viotex Instrumentals
Tags:Techno Touhou Instrumental Viotex

[Difficulty]
HPDrainRate:8
CircleSize:5
OverallDifficulty:8
SliderMultiplier:2
SliderTickRate:0.5

[Events]
//Background and Video events
0,0,"Touhou05.png"
//Break Periods
2,31190,33683
2,35125,37617
2,73977,74994
//Storyboard Layer 0 (Background)
//Storyboard Layer 1 (Failing)
//Storyboard Layer 2 (Passing)
//Storyboard Layer 3 (Foreground)
4,3,1,"hitcirclesb.png",320,263 F,0,130580,130826,0,1 S,0,130580,130580,0.5187198,0.5187198 C,0,130580,130826,132,0,132,132,0,132 F,0,130826,131318,1,1 F,0,131318,131564,1,0
4,3,1,"hitcircleoverlaysb.png",320,263 F,0,130580,130826,0,1 S,0,130580,130580,0.4880002,0.4880002 F,0,130826,131318,1,1 F,0,131318,131564,1,0
4,3,1,"approachcirclesb.png",320,263 F,0,130580,130826,0,1 F,0,130580,130580,0,0 S,0,130580,130580,1.879177,1.879177 S,0,130580,131564,1.879177,0.4250969 C,0,130580,130826,132,0,132,132,0,132 F,0,130826,131318,1,1 F,0,131318,131564,1,0.07328003
//Storyboard Sound Samples
//Background Colour Transformations
3,100,0,0,0

[TimingPoints]
7,491.803278688525,4,2,0,60,1,0
41318,-100,4,1,0,60,0,0
75744,-200,4,2,0,60,0,0
94187,-100,4,1,0,60,0,0

[Colours]
Combo1 : 0,0,160
Combo2 : 132,0,132
Combo3 : 107,182,97
Combo4 : 173,3,3

[HitObjects]
112,80,3941,2,0,L|64:96|48:160,1,100,2|0
152,128,4433,2,0,L|136:184|80:200,2,100,2|0|0
224,64,5170,2,0,L|208:176|160:288,1,200,0|2
97,196,5908,1,0
296,192,6400,1,0
432,48,6892,5,0
160,344,7384,1,0
296,192,7875,5,2
392,192,8121,1,2
296,192,8367,2,0,L|240:192,2,50,10|0|2
296,88,8859,1,2
192,88,9105,2,0,L|192:144,2,50,2|0|10
296,88,9597,1,0
392,88,9843,2,0,L|392:152,2,50,2|0|2
296,88,10334,2,0,L|296:192,1,100,8|2
296,288,10826,5,0
16,16,11318,1,0
16,112,11564,6,0,L|16:168,2,50,2|0|2
112,112,12056,2,2,L|168:56,2,50,2|2|10
112,160,12425,1,2
160,160,12547,1,0
256,160,12793,2,0,L|312:160|384:200,1,100,0|2
352,280,13285,2,0,L|384:264|392:216,2,50,8|0|0
304,280,13654,1,0
256,280,13777,1,0
208,280,13900,6,0,L|152:280|112:216,1,100,2|10
80,240,14269,1,0
104,200,14392,1,0
152,200,14515,1,0
208,280,14761,5,0
496,0,15252,1,0
408,40,15498,5,0
360,40,15622,1,0
352,80,15744,1,2
368,176,15990,1,2
384,272,16236,5,10
392,320,16359,1,0
352,344,16482,1,2
280,272,16728,1,2
204,206,16974,5,2
160,224,17097,1,8
168,272,17220,1,8
152,176,17466,2,0,L|136:56,2,100
138,77,18203,2,0,L|131:27,2,50,10|0|2
152,177,18695,5,0
496,368,19187,1,0
376,208,19679,6,0,L|320:208,3,50,2|0|0|0
272,208,20170,2,0,L|272:280,2,50,10|0|0
168,208,20662,2,0,L|216:152|280:152,1,100,0|2
344,152,21154,2,0,L|400:152,2,50,10|0|2
241,151,21646,6,0,L|200:152|160:88,1,100,0|2
80,152,22138,1,2
80,152,22261,1,10
80,152,22384,1,0
56,248,22629,5,0
456,248,23121,1,0
256,272,23613,5,0
256,168,23859,1,2
336,216,24105,1,10
296,192,24228,1,0
256,168,24351,1,0
168,120,24597,5,2
168,216,24843,1,0
168,264,24966,1,8
168,312,25088,1,10
168,216,25334,1,0
168,120,25580,1,2
272,290,26072,5,8
218,205,26318,1,2
368,64,26564,1,0
64,328,27056,1,0
112,144,27547,5,0
160,232,27793,2,0,L|216:232,2,50,2|0|10
160,280,28162,2,0,L|224:280,1,50,0|10
312,280,28531,1,2
400,232,28777,1,0
312,280,29023,1,10
312,328,29146,1,10
264,328,29269,1,10
160,328,29515,6,0,L|32:328,1,100,0|0
64,232,30007,2,0,L|64:136,1,50,10|0
64,128,30252,1,0
64,24,30498,5,0
424,192,30990,1,0
56,192,34433,5,0
456,192,34925,1,0
392,64,38367,5,0
104,344,38859,1,0
88,63,39597,6,0,L|88:135,1,50,0|0
88,114,39843,2,0,L|88:178,1,50,0|0
89,164,40088,2,0,L|161:164,1,50,2|0
90,163,40334,2,0,L|90:234,1,50,0|0
91,214,40580,2,0,L|91:265,1,50,0|0
91,264,40826,2,0,B|176:264,1,50,2|0
91,264,41072,2,0,B|90:341,1,50
90,313,41318,6,0,L|136:288|216:320,1,100,0|0
180,305,41687,1,0
180,305,41809,2,0,L|240:328|296:296,1,100,0|8
272,208,42302,6,0,L|336:208,3,50,0|0|0|0
272,208,42793,2,0,L|128:208,1,100,0|8
160,104,43285,6,0,L|104:104,4,50,0|0|0|0|0
256,104,44023,1,8
352,104,44269,2,0,L|408:104,4,50,0|0|0|0|8
264,352,45252,5,0
288,312,45375,1,0
312,264,45498,1,0
264,264,45621,1,0
216,264,45744,1,0
120,264,45990,1,8
72,176,46236,5,0
120,176,46359,1,0
168,176,46482,1,0
144,128,46605,1,0
120,88,46728,1,0
16,88,46974,1,8
72,176,47220,5,0
96,224,47343,1,0
120,264,47466,1,0
168,264,47588,1,0
216,264,47711,1,0
312,264,47957,1,8
408,264,48203,5,0
456,264,48326,1,0
504,264,48449,1,0
456,264,48572,1,0
408,264,48695,1,0
312,264,48941,1,8
208,264,49187,6,0,L|176:224|208:176,1,100,0|0
232,144,49556,1,0
264,104,49679,2,0,L|320:104|360:144,1,100,0|0
384,176,50047,1,0
416,208,50170,2,0,L|472:208|528:160,1,100,0|8
504,80,50662,1,8
504,80,51154,6,0,L|392:80,1,100,0|0
304,80,51646,2,0,L|304:8,2,50,0|0|0
304,80,52138,2,0,L|248:80,4,50,0|0|0|0|8
104,72,53121,6,0,L|104:144,1,50,0|0
104,176,53367,1,0
104,276,53613,2,0,L|104:132,1,100,8|0
200,176,54105,2,0,L|264:176,2,50,0|0|0
296,176,54597,2,0,L|296:288,1,100,8|0
296,276,55088,5,0
296,224,55211,1,0
296,176,55334,1,0
392,176,55580,1,0
344,264,55826,1,0
256,328,56072,1,0
256,224,56318,1,0
256,224,56441,1,0
256,224,56564,1,8
256,120,56810,1,0
155,120,57056,6,0,L|67:120,2,50,0|0|0
205,120,57425,1,0
254,120,57547,2,0,L|368:120,1,100,0|8
354,120,58039,5,0
448,120,58285,1,0
448,120,58408,1,0
448,120,58531,1,8
448,320,59023,6,0,L|448:232,2,50,0|0|0
344,320,59515,2,0,L|288:320|264:264,1,100,0|8
270,279,59884,1,0
270,279,60007,2,0,L|248:224|200:224,2,100,0|0|8
270,279,60621,1,0
270,279,60744,1,8
168,280,60990,5,0
136,240,61113,1,0
112,200,61236,2,0,L|112:136,1,50,0|0
112,96,61482,2,0,L|232:96,1,100,0|8
312,96,61974,6,0,L|264:144,2,50,0|0|0
312,96,62343,2,0,L|312:192,1,50,0|8
312,248,62711,1,0
208,248,62957,5,0
184,208,63080,1,0
208,168,63203,1,0
184,120,63326,1,0
208,80,63449,1,0
208,80,63695,5,8
208,80,63941,5,0
240,120,64064,1,0
208,168,64187,1,0
240,208,64310,1,0
208,248,64433,1,8
96,80,64925,5,0
296,80,65416,1,0
344,80,65539,1,0
296,80,65662,1,0
384,120,65908,5,0
296,176,66154,1,0
216,240,66400,1,0
256,208,66523,1,0
216,240,66646,1,0
112,240,66892,6,8,L|208:336,1,100,0|0
256,376,67384,1,0
256,376,67507,1,0
256,376,67629,1,0
256,272,67875,6,0,L|328:192|432:192,1,200,0|4
368,192,68490,1,0
320,192,68613,1,0
216,192,68859,1,0
24,192,69351,5,0
120,192,69597,1,0
216,192,69843,1,0
408,128,70334,1,0
312,160,70580,1,0
264,176,70703,1,0
216,192,70826,1,0
408,264,71318,5,0
312,224,71564,1,0
216,192,71810,1,0
112,192,72056,1,0
8,192,72302,5,4
216,192,72793,1,0
216,192,73777,1,0
256,192,75744,12,0,77711
480,352,78695,5,2
312,232,79187,1,0
480,128,79679,1,2
312,24,80170,1,0
112,24,80662,2,0,B|-16:128|120:248,1,250,2|0
216,240,82138,5,2
312,240,82384,1,0
216,240,82629,2,0,L|216:312,1,50,2|0
312,240,83121,2,0,L|312:304,1,50,2|0
312,288,83613,2,0,B|312:72,1,200,0|2
416,88,84843,5,2
312,88,85088,1,0
112,88,85580,1,2
208,88,85826,1,0
208,184,86072,1,2
112,184,86318,1,2
112,232,86441,1,2
112,280,86564,1,2
208,280,86810,2,0,B|304:280,3,50,2|0|0|2
304,80,88039,5,2
352,168,88285,1,0
251,168,88531,1,2
200,80,88777,1,0
151,168,89023,6,0,B|255:168,1,100,2|0
200,256,89761,1,0
296,256,90007,1,2
352,168,90252,1,2
251,168,90498,2,0,B|355:168,1,100,2|0
256,192,91236,12,0,93203
256,328,93695,5,0
256,136,94188,6,0,L|256:80,4,50,0|0|0|0|8
336,192,94925,6,0,L|360:144|440:144,1,100
408,192,95293,1,0
408,240,95416,2,0,L|360:240|336:288,2,100,0|8|8
296,240,96154,6,0,B|296:104,2,100,0|0|0
192,240,96892,2,0,B|96:240,2,50,0|0|0
192,240,97261,1,0
192,240,97384,2,0,L|192:104,1,100,0|8
144,136,98121,5,0
96,136,98244,1,0
48,136,98367,1,0
96,136,98490,1,0
144,136,98613,1,0
240,136,98859,5,8
344,136,99105,5,0
392,136,99228,1,0
440,136,99351,1,0
392,136,99474,1,0
344,136,99597,1,0
256,320,100088,6,0,L|256:216,1,100,0|0
256,220,100457,1,0
256,168,100580,1,8
256,64,100826,5,0
256,64,101072,1,0
256,64,101195,1,0
256,64,101318,1,0
152,64,101564,1,8
152,168,101810,1,0
72,224,102056,5,0
72,272,102179,1,0
72,320,102302,1,0
120,320,102425,1,0
168,320,102547,1,0
168,224,102793,1,8
264,224,103039,5,0
264,272,103162,1,0
264,320,103285,1,0
312,320,103408,1,0
360,320,103531,1,0
360,224,103777,1,8
360,120,104023,5,0
459,120,104269,2,0,L|331:120,1,100,0|0
260,120,104761,2,0,L|372:120,1,100,0|0
360,120,105129,2,0,L|360:232,1,100,0|0
360,220,105498,1,8
184,120,105990,5,0
184,168,106113,1,0
184,216,106236,1,8
184,312,106482,1,0
184,120,106974,1,0
184,168,107097,1,8
184,216,107220,1,0
232,216,107343,1,8
280,216,107466,1,8
72,216,107957,5,0
104,176,108080,1,0
136,136,108203,2,0,L|232:184,1,100,0|0
272,160,108572,1,0
320,144,108695,2,0,L|432:216,1,100,0|0
440,232,109064,1,0
408,272,109187,2,0,L|336:352,1,100,0|8
192,232,109925,6,0,L|192:280|128:304,2,100,0|0|0
192,232,110662,1,0
192,232,110785,1,0
192,232,110908,2,0,L|192:280|256:312,2,100,0|0|8
128,40,111892,5,0
128,88,112015,1,0
128,136,112138,1,0
208,192,112384,2,0,B|208:96,2,50,0|0|0
256,192,112752,2,0,B|336:192,2,50,0|0|0
256,240,113121,2,0,L|256:328,2,50,0|0|8
352,240,113613,1,8
400,152,113859,6,0,B|304:64|184:184,1,200,0|0
136,216,114597,2,0,L|72:264,2,50,0|0|0
176,248,114966,1,0
224,248,115088,2,0,L|224:312,2,50,0|0|8
416,192,115826,5,0
376,160,115949,1,0
336,192,116072,1,0
296,160,116195,1,0
256,192,116318,1,0
176,128,116564,5,8
96,192,116810,5,0
136,160,116933,1,0
176,192,117056,1,0
216,160,117179,1,0
256,192,117302,1,8
256,192,117793,5,0
392,48,118285,1,0
392,96,118408,1,0
392,144,118531,1,0
392,240,118777,1,0
208,312,119269,5,0
208,312,119392,1,0
208,312,119515,1,0
104,312,119761,1,0
104,208,120007,1,0
104,208,120252,1,0
104,208,120375,1,0
104,208,120498,1,0
104,104,120744,1,0
216,264,121236,5,0
216,160,121482,1,0
216,64,121728,1,0
408,120,122220,1,0
408,320,122711,1,0
328,256,122957,1,0
288,224,123080,1,0
328,192,123203,1,0
136,192,123695,5,0
136,240,123818,1,0
136,288,123941,1,0
176,312,124064,1,0
216,336,124187,1,0
184,136,124679,5,0
336,248,125170,1,0
256,192,125416,1,0
184,136,125662,1,0
256,192,126646,1,0
336,248,127629,1,0
456,40,128613,5,0
256,192,129105,1,0
56,344,129597,1,0
456,344,130580,1,0
