osu file format v5

[General]
AudioFilename: ikim.mp3
AudioLeadIn: 1000
PreviewTime: -1
Countdown: 0
SampleSet: Normal
StackLeniency: 0.7
Mode: 0
LetterboxInBreaks: 0
EditorDistanceSpacing: 1

[Metadata]
Title:Garamon Song (Instrumental)
Artist:Haru
Creator:Shinxyn
Version:Hard
Source:Viotex Instrumentals
Tags:Techno Touhou Instrumental Viotex

[Difficulty]
HPDrainRate:8
CircleSize:5
OverallDifficulty:7
SliderMultiplier:1.6
SliderTickRate:0.5

[Events]
//Background and Video events
0,0,"Touhou05.png"
//Break Periods
2,31190,33533
2,35125,37467
2,73977,74844
//Storyboard Layer 0 (Background)
//Storyboard Layer 1 (Failing)
//Storyboard Layer 2 (Passing)
//Storyboard Layer 3 (Foreground)
4,3,1,"hitcirclesb.png",320,263 F,0,130580,130826,0,1 S,0,130580,130580,0.5187198,0.5187198 C,0,130580,130826,0,0,160,0,0,160 F,0,130826,131318,1,1 F,0,131318,131564,1,0
4,3,1,"hitcircleoverlaysb.png",320,263 F,0,130580,130826,0,1 S,0,130580,130580,0.4880002,0.4880002 F,0,130826,131318,1,1 F,0,131318,131564,1,0
4,3,1,"approachcirclesb.png",320,263 F,0,130580,130826,0,1 S,0,130580,131564,1.82944,0.4982402 C,0,130580,130826,0,0,160,0,0,160 F,0,130826,131318,1,1 F,0,131318,131564,1,0
//Storyboard Sound Samples
//Background Colour Transformations
3,100,0,0,0

[TimingPoints]
7,491.803278688525,4,2,0,80,1,0
41318,-100,4,1,0,80,0,0
75744,-200,4,2,0,80,0,0
94195,-100,4,1,0,80,0,0

[Colours]
Combo1 : 0,0,160
Combo2 : 132,0,132
Combo3 : 107,182,97
Combo4 : 173,3,3

[HitObjects]
112,80,3941,2,0,L|72:80|72:152,1,80
112,168,4433,2,0,L|112:208|64:208,2,80,2|0|0
176,168,5170,1,0
176,296,5662,1,2
240,296,5908,1,0
240,168,6400,1,0
240,296,6892,5,0
240,40,7384,1,0
112,40,7875,5,0
112,104,8121,1,0
112,168,8367,2,2,L|56:168,2,40,10|0|0
176,168,8859,1,2
240,168,9105,2,0,L|240:208,2,40,10|0|8
240,104,9597,1,2
304,104,9843,1,0
304,232,10334,2,0,L|304:320,1,80,8|0
240,312,10826,5,0
16,192,11318,1,0
80,192,11564,6,2,L|80:248,2,40
144,192,12056,2,0,L|144:120,2,40,10|0|2
208,192,12547,1,2
336,192,13039,1,0
336,256,13285,1,10
336,288,13408,1,2
336,320,13531,1,2
272,320,13777,1,2
144,320,14269,1,8
144,320,14392,1,0
144,320,14515,1,0
144,256,14761,5,0
360,120,15252,1,0
232,120,15744,5,0
232,120,15990,1,0
232,120,16236,1,10
168,120,16482,1,0
104,120,16728,1,0
104,184,16974,1,10
104,248,17220,1,2
104,312,17466,2,0,L|192:312,1,80
312,312,18203,2,0,L|360:312,2,40,10|0|0
240,312,18695,5,0
240,56,19187,1,0
336,128,19679,5,2
336,128,19802,1,0
336,128,19925,1,2
280,152,20170,2,2,B|304:200,2,40,10|2|2
224,176,20662,1,2
96,176,21154,5,10
96,176,21277,1,2
96,176,21400,1,2
96,240,21646,1,0
96,304,21892,1,2
160,304,22138,1,10
160,304,22261,1,2
160,304,22384,1,2
224,304,22629,5,0
456,192,23121,1,0
224,88,23613,5,0
160,88,23859,1,0
96,88,24105,1,10
96,120,24228,1,0
96,152,24351,1,2
160,152,24597,1,2
224,152,24843,1,10
224,184,24966,1,2
224,216,25088,1,10
160,216,25334,1,0
96,216,25580,1,2
224,216,26072,1,10
288,216,26318,1,0
352,216,26564,5,0
96,216,27056,1,0
224,216,27547,5,0
224,280,27793,1,0
224,216,28039,1,10
224,184,28162,1,2
224,152,28285,1,2
224,88,28531,1,2
288,88,28777,1,0
288,152,29023,1,10
288,184,29146,1,2
288,216,29269,1,2
288,280,29515,2,0,L|360:200,1,80,0|2
341,220,30007,2,0,L|344:128,1,80,10|0
344,72,30498,5,0
88,72,30990,1,0
136,80,34433,5,0
368,304,34925,1,0
376,80,38367,5,0
144,304,38859,1,0
80,120,39597,6,0,L|80:168,2,40,0|2|0
143,95,40088,2,0,L|143:255,1,160,2|2
144,256,40826,2,0,L|256:256,1,80,0|2
288,256,41318,6,0,L|384:256,1,80,0|0
368,224,41687,1,0
368,192,41810,1,8
288,88,42302,6,0,L|328:88,4,40,0|0|0|0|8
160,88,43285,6,0,L|112:88,4,40,0|0|0|0|0
160,152,44023,1,0
160,216,44269,2,0,L|216:216,4,40,0|0|0|0|8
288,216,45252,5,0
304,152,45498,1,0
312,120,45621,1,0
320,88,45744,1,0
376,104,45990,1,0
360,168,46236,1,0
352,200,46359,1,0
344,232,46482,1,0
328,296,46728,1,8
200,296,47220,5,0
200,232,47466,1,0
200,200,47588,1,0
200,168,47711,1,0
264,168,47957,1,0
264,104,48203,1,0
232,104,48326,1,0
200,104,48449,1,0
136,104,48695,1,8
136,232,49187,5,0
200,232,49433,1,0
200,232,49556,1,0
200,232,49679,1,0
264,232,49925,1,0
328,232,50170,2,0,L|408:232,1,80
472,232,50662,1,8
360,160,51154,6,0,L|280:160,1,80,0|0
216,160,51646,2,0,L|216:88,2,40,0|0|0
152,160,52138,2,0,L|96:160,4,40,0|0|0|0|8
152,288,53121,5,0
216,288,53367,1,0
280,288,53614,1,0
216,176,54105,1,0
216,112,54351,1,0
216,48,54597,1,8
216,176,55088,5,0
328,112,55580,1,0
328,240,56072,1,0
392,240,56318,1,0
392,176,56564,1,8
264,176,57056,6,0,L|176:176,1,80,0|0
120,176,57547,2,0,L|32:176,1,80,0|0
80,120,58039,2,0,L|80:72,4,40,0|0|0|0|8
192,176,59023,6,0,L|192:88,2,80,0|0|0
192,240,59761,1,0
192,304,60007,2,0,L|240:304,2,40,0|0|0
192,304,60498,1,8
128,192,60990,5,0
160,192,61113,1,0
192,192,61236,1,0
256,192,61482,1,8
384,192,61974,5,0
352,192,62097,1,0
320,192,62220,1,0
256,192,62466,1,8
256,64,62957,5,0
256,128,63203,1,0
256,160,63326,1,0
256,192,63449,1,0
256,256,63695,5,0
256,256,63941,2,0,B|328:256,2,40
256,320,64433,1,8
48,40,64925,5,0
328,192,65908,1,0
48,344,66892,1,0
328,192,67875,1,0
488,192,68367,1,4
328,192,68859,1,0
328,192,69843,5,0
88,96,70334,1,0
328,192,70826,1,0
88,288,71318,1,0
328,192,71810,1,0
328,192,72302,5,4
80,192,72793,1,0
432,192,73777,1,0
256,192,75744,12,0,77711
256,256,78695,5,2
256,192,79187,1,0
256,128,79679,1,2
256,64,80170,1,0
192,48,80662,2,0,B|96:160|208:280,1,240,2|0
256,256,82629,5,2
256,256,82875,2,0,B|312:256,1,40,2|0
328,256,83367,1,0
328,256,83613,2,0,B|328:80,1,160,2|0
296,96,84843,5,2
264,96,85088,1,2
200,96,85580,1,0
168,96,85826,1,0
136,96,86072,1,2
104,96,86318,1,2
104,96,86441,1,2
104,96,86564,1,2
72,96,86810,6,0,B|72:248,1,120
72,280,88039,1,0
96,296,88285,1,2
120,312,88531,1,0
144,328,88777,1,2
168,344,89023,6,0,B|272:344,1,80,2|0
272,328,89761,1,0
296,312,90007,1,2
320,296,90252,1,0
344,280,90498,2,0,B|448:280,1,80,2|0
256,192,91236,12,4,94187
256,128,94679,5,0
256,128,94925,1,0
256,192,95170,1,0
256,192,95293,1,0
256,192,95416,1,0
256,256,95662,1,8
384,256,96154,6,0,B|384:88,1,160,0|0
320,96,96892,2,0,B|224:96,1,80
176,96,97384,2,0,B|128:96,2,40,0|0|8
48,96,98121,1,0
160,160,98613,5,0
192,160,98736,1,0
224,160,98859,1,0
288,160,99105,1,0
320,160,99228,1,0
352,160,99351,1,0
384,160,99474,1,0
416,160,99597,1,8
462,282,100088,6,4,C|398:266|318:282|246:274|150:290|70:266,1,400,4|0
72,266,101564,1,0
24,208,101810,1,4
72,160,102056,5,8
136,160,102302,1,0
136,224,102547,1,0
168,224,102670,1,0
200,224,102793,1,0
264,224,103039,5,0
264,160,103285,1,0
296,160,103408,1,0
328,160,103531,1,8
456,160,104023,1,0
456,224,104269,5,0
400,192,104515,1,0
344,224,104761,1,0
344,288,105007,1,0
372,302,105129,1,0
400,312,105252,1,0
456,280,105498,1,8
344,224,105990,5,0
232,168,106482,1,0
120,224,106974,1,0
184,216,107220,1,0
232,168,107466,1,8
232,296,107957,5,0
216,232,108203,1,0
232,168,108449,1,0
248,144,108572,1,0
272,120,108695,1,8
296,104,108818,1,0
328,96,108941,1,0
360,104,109064,1,8
384,120,109187,1,8
432,168,109433,1,8
328,248,109925,6,0,L|296:328|208:320,1,160,0|8
128,240,110908,2,0,L|104:320|16:312,1,160,0|8
128,240,111892,1,0
128,208,112015,1,0
128,176,112138,1,0
192,176,112384,2,0,B|288:176,1,80,0|0
272,240,112875,2,0,B|384:240,1,80,0|0
416,240,113367,1,8
344,128,113859,6,0,L|344:80,4,40,0|0|0|0|0
280,128,114597,2,0,L|216:128,3,40,0|0|0|0
280,128,115088,2,0,L|280:192,2,40,0|0|0
128,128,115826,5,0
128,160,115949,1,0
128,192,116072,1,0
128,224,116195,1,0
128,256,116318,1,0
192,256,116564,1,8
256,256,116810,5,0
256,224,116933,1,0
256,192,117056,1,0
256,160,117179,1,0
256,128,117302,1,0
256,256,117793,5,0
32,352,118777,1,0
256,192,119761,1,0
480,352,120744,1,0
256,128,121236,1,4
256,256,121728,5,0
304,144,122220,1,0
208,240,122711,1,0
328,192,123203,1,0
184,192,123695,5,0
256,192,123941,1,0
328,192,124187,1,0
456,192,124679,5,0
456,64,125170,1,4
328,64,125662,1,0
104,192,126646,1,0
328,320,127629,1,0
256,72,128613,5,0
256,192,129105,1,0
256,320,129597,1,0
256,72,130580,1,0
