osu file format v7

[General]
AudioFilename: flower.mp3
AudioLeadIn: 2007
PreviewTime: 62447
Countdown: 0
SampleSet: Normal
StackLeniency: 0.7
Mode: 0
LetterboxInBreaks: 1
EpilepsyWarning: 1

[Editor]
Bookmarks: 10921,12089,24947,31180,37414,74817,87284,109102,121570,123128,124687,134037,137154,149622,162089,174557
DistanceSpacing: 1.10000002384186
BeatDivisor: 4
GridSize: 8

[Metadata]
Title:Flowering Night x Outkast (B.O.B.)
Artist:Haru
Creator:Nakata Yuji
Version:Daerren's Insane
Source:Touhou
Tags:bombs over baghdad viotex instrumentals daerren

[Difficulty]
HPDrainRate:5
CircleSize:4
OverallDifficulty:8
SliderMultiplier:1.6
SliderTickRate:1

[Events]
//Background and Video events
0,0,"bg.jpg"
//Break Periods
2,6445,11339
2,34497,36664
2,75017,86534
2,119822,123937
2,137354,148872
2,158978,161339
//Storyboard Layer 0 (Background)
Sprite,Background,Centre,"black.png",320,240 M,0,-2033,,320,240 F,0,-2033,28,1 F,0,28,6635,1,0 M,0,120012,,320,240 F,0,120012,120401,0,1 F,0,120401,123128,1 F,0,123128,123518,1,0 F,0,134037,134524,1,0 F,0,134524,134622,0 F,0,134817,135401,1,0 F,0,135596,136180,1,0 M,0,174557,,320,240 F,0,174557,176115,1,0
//Storyboard Layer 1 (Fail)
//Storyboard Layer 2 (Pass)
//Storyboard Layer 3 (Foreground)
Sprite,Foreground,Centre,"Danger.png",320,240 F,0,124297,124687,0,1 M,0,124687,,387,374 S,0,124687,126245,1,1.06144 F,0,124687,137154,1 S,0,126245,127804,1.06144,1.03072 S,0,127804,129362,1.03072,1.081921 S,0,129362,130921,1.081921,0.9897605 S,0,130921,132479,0.9897605,1.06144 S,0,132479,134037,1.06144,0.8668805 S,0,134037,134817,0.8668805,0.7952002 S,0,134817,135596,0.7952002,0.6620801 S,0,135596,136960,0.6620801,0.5494397 S,0,136960,137154,0.5494397,0.9180796 F,0,137154,137544,1,0 S,0,137154,137544,0.9180796,1.79872
Sprite,Foreground,Centre,"Gray.png",320,240 M,0,75206,,320,240 F,0,75206,75596,0,1 F,0,75596,86895,1 F,0,86895,87284,1,0
Sprite,Foreground,Centre,"white.png",320,240 F,0,137154,138325,1,0
Sprite,Foreground,Centre,"Slow.png",320,240 M,0,23388,,215,386 F,0,23388,23778,0,1 F,0,23778,24947,1 F,0,24947,25336,1,0 M,0,110661,,215,386 F,0,110661,111050,0,1 F,0,111050,112219,1 F,0,112219,112609,1,0
Sprite,Foreground,Centre,"Speed Up.png",320,240 M,0,29622,,297,386 F,0,29622,30012,0,1 F,0,30012,31180,1 F,0,31180,31570,1,0 M,0,116895,,297,386 F,0,116895,117284,0,1 F,0,117284,118453,1 F,0,118453,118843,1,0
Sprite,Foreground,Centre,"Danger.png",320,240 M,0,120012,,313,244 F,0,120012,120401,0,1 S,0,120012,121180,0.98976,1.13312 R,0,120401,120791,0,0.3891205 F,0,120401,122739,1 R,0,120791,121180,0.3891205,-0.1638394 R,0,121180,121570,-0.1638394,0.2048004 S,0,121180,121960,1.13312,1.03072 R,0,121570,121960,0.2048004,-0.1843195 R,0,121960,122349,-0.1843195,2.968311E-07 F,0,122739,123128,1,0
Sprite,Foreground,Centre,"Sakuya.png",320,240 M,0,120012,,321,370 F,0,120012,120401,0,1 F,0,120401,122739,1 F,0,122739,123128,1,0
Sprite,Foreground,Centre,"Circle.png",320,240 M,0,120012,,321,369 F,0,120012,120401,0,1 R,0,120012,120791,0.06143982,3.29728 F,0,120401,122739,1 R,0,120791,121570,3.29728,6.38976 R,0,121570,122349,6.38976,9.64608 R,0,122349,123128,9.64608,12.94336 F,0,122739,123128,1,0
Sprite,Foreground,Centre,"SB.png",320,240 S,0,7804,,0.632 M,0,7804,8193,222,180,202,180 F,0,7804,8193,0,1 F,0,8193,10531,1 F,0,10531,10921,1,0
Sprite,Foreground,Centre,"GD.png",320,240 S,0,8973,,0.5030397 M,0,8973,9362,294,214,259,214 F,0,8973,9362,0,1 F,0,9362,10531,1 F,0,10531,10921,1,0
Sprite,Foreground,Centre,"skin.png",320,240 M,0,6635,7024,346,379,318,379 F,0,6635,7024,0,1 S,0,6635,7219,0.6176001,0.6252801 F,0,7024,10531,1 F,0,10531,10921,1,0
Sprite,Foreground,Centre,"Song info..png",320,240 S,0,6635,,0.552 M,0,6635,7024,286,141,269,141 F,0,6635,7024,0,1 F,0,7024,10531,1 F,0,10531,10921,1,0
//Storyboard Sound Samples
//Background Colour Transformations
3,100,163,162,255

[TimingPoints]
12,389.61038961039,4,2,0,50,1,0
6635,-100,4,1,0,60,0,0
24947,-200,4,1,0,60,0,0
31180,-100,4,1,0,60,0,0
112219,-200,4,1,0,60,0,0
118453,-100,4,2,0,80,0,0
149622,-100,4,1,0,80,0,0

[Colours]
Combo1 : 128,128,192
Combo2 : 64,0,128
Combo3 : 128,0,255
Combo4 : 128,128,255

[HitObjects]
112,144,12,1,2
448,32,791,1,2
272,336,1570,1,2
48,64,2349,1,2
112,112,2544,1,0
192,96,2739,1,2
256,144,2934,1,0
336,112,3128,5,2
64,336,3908,1,2
416,336,4687,1,2
80,240,5466,1,2
128,176,5661,1,0
208,192,5856,1,2
272,144,6050,1,0
352,160,6245,1,2
96,160,12089,5,4
176,144,12284,1,0
256,160,12479,1,0
288,176,12576,1,0
320,208,12674,1,0
352,224,12771,1,0
384,224,12869,1,0
416,208,12966,1,0
432,176,13063,1,0
368,128,13258,5,0
304,80,13453,1,0
224,64,13648,1,0
144,80,13843,1,0
80,128,14037,1,0
64,208,14232,1,0
80,288,14427,5,0
96,320,14524,1,0
128,336,14622,1,0
160,320,14719,1,0
176,288,14817,1,0
224,224,15012,1,0
240,192,15109,1,0
272,176,15207,1,0
320,224,15402,1,0
368,288,15596,6,2,B|416:336|496:272|480:224|448:208,1,160
400,176,16180,1,4
368,96,16375,2,2,B|320:48|240:112|256:160|288:176,1,160
224,240,16960,1,0
144,256,17154,1,0
112,240,17252,1,0
112,192,17349,1,0
80,176,17447,1,0
80,128,17544,1,0
128,64,17739,1,0
224,64,17934,5,8
320,160,18128,1,8
224,272,18323,1,8
320,368,18518,1,8
384,320,18713,6,0,B|464:256|480:128|384:32,1,320
256,144,19882,1,0
208,208,20076,1,0
256,272,20271,1,0
304,208,20466,1,0
256,144,20661,1,0
112,32,21050,2,0,B|32:96|16:224|112:320,1,320
256,144,22219,5,0
288,128,22317,1,0
304,96,22414,1,0
384,96,22609,1,4
384,176,22804,1,0
384,256,22999,1,0
416,272,23096,1,0
432,304,23193,1,0
416,336,23291,1,0
384,352,23388,1,4
256,192,23778,5,0
96,128,24167,1,4
256,64,24557,1,0
80,224,24947,6,0,B|80:320,1,80,0|0
160,224,25726,2,0,B|160:320,1,80,0|0
240,224,26505,2,0,B|240:320,1,80,0|0
320,224,27284,1,0
352,224,27479,1,0
384,208,27674,1,8
416,224,27869,1,8
448,240,28063,1,0
96,80,28843,6,0,B|96:128,1,40
144,128,29232,2,0,B|160:176,1,40
208,144,29622,2,0,B|240:192,1,40
272,128,30012,2,0,B|320:160,1,40
320,80,30401,1,0
352,80,30596,1,0
384,80,30791,1,8
416,80,30986,1,8
496,80,31180,6,2,B|496:256,1,160
496,240,31765,1,2
256,192,31960,12,4,34297
256,192,37414,5,4
176,192,37609,1,0
176,112,37804,1,0
208,112,37901,1,0
240,112,37999,1,0
272,96,38096,1,0
304,80,38193,2,0,B|384:112|400:240|288:192|288:336|384:368,2,320
256,144,39947,1,0
176,176,40141,1,8
96,144,40336,1,8
176,176,40531,1,0
256,336,40921,5,0
288,320,41018,1,0
288,272,41115,1,0
224,208,41310,1,0
288,144,41505,1,0
224,80,41700,1,0
192,48,41797,1,0
208,16,41895,1,0
288,32,42089,5,0
368,80,42284,1,0
400,160,42479,1,0
384,192,42576,1,0
352,208,42674,1,0
320,224,42771,1,0
304,256,42869,1,0
304,256,43063,1,8
304,256,43258,1,8
304,256,43453,1,0
224,272,43648,5,0
144,256,43843,1,0
96,192,44037,1,0
112,112,44232,2,0,B|80:160|48:112|48:96,2,80
176,64,44817,1,0
208,96,44914,1,0
208,144,45012,1,0
176,176,45109,1,0
176,224,45206,5,0
256,224,45401,2,0,B|256:320,2,80
336,224,45986,1,0
336,224,46180,1,8
416,224,46375,1,8
416,224,46570,1,0
256,192,46765,12,4,47544
96,192,48323,5,0
176,144,48518,1,0
256,192,48713,1,0
336,144,48908,1,0
416,192,49102,1,0
256,112,49492,2,0,B|256:80,8,20,0|0|0|0|0|0|0|0|0
256,192,50076,5,0
208,272,50271,1,0
304,272,50466,1,0
352,192,50661,1,0
400,272,50856,1,0
304,272,51050,1,0
208,272,51245,1,0
128,224,51440,5,0
80,160,51635,1,0
128,96,51830,1,0
160,80,51927,1,0
192,64,52024,1,0
224,48,52122,1,0
256,32,52219,1,0
256,112,52414,1,0
256,192,52609,1,0
256,272,52804,1,0
256,352,52999,5,0
336,320,53193,1,0
256,272,53388,1,0
176,224,53583,1,0
256,192,53778,1,0
288,176,53875,1,0
320,160,53973,1,0
352,144,54070,1,0
384,128,54167,1,0
304,80,54362,5,0
256,16,54557,1,0
208,80,54752,1,0
128,80,54947,6,0,B|96:112,4,40
176,144,55531,2,0,B|96:192,1,80,8|0
192,208,55921,2,0,B|272:240,1,80,8|0
176,272,56310,5,0
240,320,56505,2,0,B|336:320,2,80
176,272,57089,2,0,B|80:272,1,80
144,192,57479,1,0
224,192,57674,5,0
304,192,57869,1,0
384,192,58063,1,0
400,224,58161,1,0
384,256,58258,1,0
400,288,58356,1,0
384,320,58453,1,0
384,320,58648,1,0
256,320,58843,1,0
128,320,59037,1,0
256,192,59232,12,4,62349
64,64,62739,5,8
432,144,63128,1,0
128,352,63518,1,8
336,32,63908,1,0
464,352,64297,1,8
80,192,64687,1,0
480,240,65076,1,8
256,192,65466,6,0,B|128:304,1,160
256,192,66050,2,0,B|256:368,1,160
256,192,66635,2,0,B|400:288,4,160
256,192,68583,1,8
112,80,68973,6,0,B|32:144,1,80
128,144,69362,2,0,B|64:224,1,80
160,208,69752,2,0,B|112:304,1,80
208,256,70141,2,0,B|176:352,1,80
256,304,70531,2,0,B|256:400,1,80
256,304,70921,1,0
400,80,71310,6,0,B|480:144,1,80
384,144,71699,2,0,B|448:224,1,80
352,208,72089,2,0,B|400:304,1,80
304,256,72478,2,0,B|336:352,1,80
256,304,72868,2,0,B|256:400,1,80
256,192,73258,12,4,74817
128,176,87284,5,0
208,128,87479,1,0
304,128,87674,1,0
336,160,87771,1,0
320,192,87869,1,0
272,256,88063,1,0
320,320,88258,1,0
384,256,88453,5,0
416,272,88550,1,0
448,256,88648,1,0
448,208,88745,1,0
416,192,88843,1,0
416,112,89037,1,0
416,32,89232,1,0
384,48,89330,1,0
352,80,89427,1,0
336,112,89524,1,0
304,80,89622,1,0
240,160,89817,5,0
144,144,90012,1,0
96,64,90206,1,0
32,144,90401,2,0,B|16:256|48:352|208:368,1,320
160,288,91375,5,0
112,224,91570,1,0
144,192,91667,1,0
176,208,91765,1,0
208,176,91862,1,0
240,192,91960,1,0
320,192,92154,1,0
400,192,92349,1,0
432,160,92447,1,0
464,176,92544,1,0
496,144,92641,2,0,B|496:96,1,40
416,80,92934,6,8,B|304:80,1,80
320,160,93323,1,0
384,208,93518,5,0
304,256,93713,1,0
208,256,93908,1,0
176,224,94005,1,0
192,192,94103,1,0
240,128,94297,1,0
192,64,94492,1,0
128,128,94687,5,0
96,112,94784,1,0
64,128,94882,1,0
64,176,94979,1,0
96,192,95077,1,0
96,272,95271,1,0
96,352,95466,1,0
128,336,95564,1,0
160,304,95661,1,0
160,256,95758,1,0
192,240,95856,1,0
272,224,96051,5,0
368,240,96246,1,0
416,320,96440,1,0
480,240,96635,2,0,B|496:128|464:32|304:16,1,320
352,96,97609,5,0
400,160,97804,1,0
368,192,97901,1,0
336,176,97999,1,0
304,208,98096,1,0
272,192,98194,1,0
192,192,98388,1,0
112,192,98583,1,0
80,224,98681,1,0
48,208,98778,1,0
16,240,98875,2,0,B|16:288,1,40
144,320,99265,5,0
144,320,99362,1,0
256,192,99752,5,0
256,192,100141,1,0
256,32,100531,6,0,B|256:208,1,160
369,78,101310,2,0,B|244:203,1,160
416,192,102089,2,0,B|240:192,1,160
369,305,102869,2,0,B|244:180,1,160
256,352,103648,2,0,B|256:176,1,160
142,305,104427,2,0,B|267:180,1,160
96,191,105206,2,0,B|271:191,1,160
120,80,105986,5,0
184,144,106180,1,0
160,176,106278,1,0
144,216,106375,1,0
160,256,106473,1,0
184,288,106570,1,0
256,192,106765,5,0
320,240,106960,1,0
368,240,107057,1,0
416,240,107154,1,0
416,320,107349,1,0
336,352,107544,5,0
288,352,107641,1,0
240,352,107739,1,0
176,304,107934,1,0
176,256,108031,1,0
176,208,108128,1,0
208,192,108226,1,0
240,176,108323,1,0
192,112,108518,5,0
112,80,108713,1,0
32,48,108908,1,0
32,128,109102,5,0
32,208,109297,1,0
80,288,109492,1,0
112,304,109589,1,0
144,288,109687,1,0
208,240,109882,1,0
272,288,110076,1,0
304,304,110174,1,0
336,288,110271,1,0
368,304,110369,1,0
400,288,110466,1,0
464,224,110661,6,0,B|464:128,1,80
384,112,111050,2,0,B|352:144,4,40
464,16,111732,1,0
464,16,111830,1,2
192,96,112219,6,0,B|144:112|144:160|144:208|192:224,1,160
320,96,113778,2,0,B|368:112|368:160|368:208|320:224,1,160
256,160,114947,1,0
192,216,115336,6,0,B|144:232,1,40
168,272,115726,2,0,B|152:328,1,40
200,328,116115,2,0,B|232:368,1,40
256,312,116505,2,0,B|256:256,1,40
256,312,116895,1,0
256,312,117089,5,0
336,352,117284,1,0
416,352,117479,1,0
496,352,117674,2,0,B|496:304,3,40
448,240,118453,5,0
416,224,118550,1,0
400,192,118648,1,0
368,176,118745,1,0
336,192,118843,1,0
256,240,119037,1,0
176,192,119232,1,0
144,176,119330,1,0
112,192,119427,1,0
96,224,119524,1,0
64,240,119622,1,0
16,192,124687,5,4
48,192,124784,1,0
80,192,124882,1,0
112,192,124979,1,0
144,192,125076,2,0,B|144:240,11,40,0|0|0|0|0|0|0|0|0|0|0|0
176,192,126245,5,4
208,192,126343,1,0
240,192,126440,1,0
272,192,126537,1,0
304,192,126635,2,0,B|304:240,11,40
336,192,127804,5,4
368,192,127901,1,0
400,192,127999,1,0
432,192,128096,1,0
464,192,128193,2,0,B|464:256,11,40
496,192,129362,5,2
496,160,129460,1,0
496,128,129557,1,2
464,128,129654,1,0
432,128,129752,1,2
400,128,129849,1,0
368,128,129947,1,2
336,128,130044,1,0
304,128,130141,1,2
272,128,130239,1,0
240,128,130336,1,2
208,128,130434,1,0
176,128,130531,1,2
144,128,130628,1,0
112,128,130726,1,2
80,128,130823,1,0
48,128,130921,6,0,B|0:128,15,40,4|0|0|0|0|0|0|0|0|0|0|0|0|0|0|0
48,160,132479,1,4
48,192,132576,1,0
48,224,132674,1,0
48,256,132771,1,0
48,288,132869,1,0
80,288,132966,1,0
112,288,133063,1,0
144,288,133161,1,0
176,288,133258,2,0,B|160:336,7,40
208,288,134037,6,0,B|272:288,7,40,4|0|0|0|0|0|0|0
208,256,134817,2,0,B|160:256,7,40,4|0|0|0|0|0|0|0
208,224,135596,2,0,B|272:224,16,40,4|0|0|0|0|0|0|0|0|0|0|0|0|0|0|0|4
480,144,149622,5,0
416,192,149817,1,0
352,144,150012,1,0
288,192,150206,1,0
224,144,150401,1,0
160,192,150596,1,0
96,144,150791,1,0
32,192,150986,2,0,B|32:0,1,160,2|0
96,80,151570,5,0
160,128,151765,1,0
224,80,151960,1,0
160,128,152154,1,0
96,80,152349,1,0
32,128,152544,2,0,B|32:304,1,160,2|0
96,240,153129,5,0
160,192,153323,1,0
224,240,153518,1,0
288,192,153713,1,0
352,240,153908,1,0
416,192,154103,2,0,B|416:384,1,160,2|0
256,192,154687,12,4,158778
80,144,162089,5,0
160,112,162284,1,0
240,144,162479,1,0
272,160,162576,1,0
272,208,162674,1,0
208,272,162869,1,0
128,304,163063,1,0
64,240,163258,5,0
112,224,163356,1,0
160,208,163453,1,0
208,192,163550,1,0
256,176,163648,1,0
336,144,163843,1,0
416,112,164037,1,0
464,128,164135,1,0
464,176,164232,1,0
400,240,164427,6,0,B|304:256,1,80,0|8
400,240,164817,2,0,B|368:320,1,80,8|0
432,240,165206,5,0
352,272,165401,1,0
272,240,165596,1,0
240,224,165693,1,0
240,176,165791,1,0
304,112,165986,1,0
384,80,166180,1,0
448,144,166375,5,0
400,160,166473,1,0
352,176,166570,1,0
304,192,166667,1,0
256,208,166765,1,0
176,240,166960,1,0
96,272,167154,1,0
48,256,167252,1,0
48,208,167349,1,0
112,144,167544,6,0,B|208:128,1,80,0|8
112,144,167934,2,0,B|144:64,1,80,8|0
80,144,168323,5,0
160,112,168518,1,0
240,144,168713,1,0
272,160,168810,1,0
272,208,168908,1,0
208,272,169103,1,0
128,304,169297,1,0
64,240,169492,5,0
112,224,169590,1,0
160,208,169687,1,0
208,192,169784,1,0
256,176,169882,1,0
336,144,170077,1,0
416,112,170271,1,0
464,128,170369,1,0
464,176,170466,1,0
400,240,170661,6,0,B|304:256,1,80,0|8
400,240,171051,2,0,B|368:320,1,80,8|0
432,240,171440,5,0
352,272,171635,1,0
272,240,171830,1,0
240,224,171927,1,0
240,176,172025,1,0
304,112,172220,1,0
384,80,172414,1,0
448,144,172609,5,0
400,160,172707,1,0
352,176,172804,1,0
304,192,172901,1,0
256,208,172999,1,0
176,240,173194,1,0
96,272,173388,1,0
48,256,173486,1,0
48,208,173583,1,0
80,192,173680,1,0
96,160,173778,1,0
208,96,174070,5,0
208,96,174167,1,0
384,48,174557,5,4
