osu file format v7

[General]
AudioFilename: flower.mp3
AudioLeadIn: 0
PreviewTime: 62447
Countdown: 0
SampleSet: Soft
StackLeniency: 0.7
Mode: 0
LetterboxInBreaks: 1
EpilepsyWarning: 1

[Editor]
Bookmarks: 25239,31180,34297,35466,36050,37414,61960,75012,79687,87284,120012,124687,125466,126245,127024,127804,129362,130921,132479,134037,134817,135596,137154
DistanceSpacing: 1
BeatDivisor: 4
GridSize: 8

[Metadata]
Title:Flowering Night x Outkast (B.O.B.)
Artist:Haru
Creator:Nakata Yuji
Version:Normal
Source:Touhou
Tags:bombs over baghdad viotex instrumentals daerren

[Difficulty]
HPDrainRate:2
CircleSize:3
OverallDifficulty:4
SliderMultiplier:1.2
SliderTickRate:1

[Events]
//Background and Video events
0,0,"bg.jpg"
//Break Periods
2,25147,29860
2,62549,64146
2,120212,123367
2,137354,138951
//Storyboard Layer 0 (Background)
Sprite,Background,Centre,"black.png",320,240 M,0,-2033,,320,240 F,0,-2033,28,1 F,0,28,6635,1,0 M,0,120012,,320,240 F,0,120012,120401,0,1 F,0,120401,123128,1 F,0,123128,123518,1,0 F,0,134037,134524,1,0 F,0,134524,134622,0 F,0,134817,135401,1,0 F,0,135596,136180,1,0
//Storyboard Layer 1 (Fail)
//Storyboard Layer 2 (Pass)
//Storyboard Layer 3 (Foreground)
Sprite,Foreground,Centre,"Gray.png",320,240 M,0,75206,,320,240 F,0,75206,75596,0,1 F,0,75596,86895,1 F,0,86895,87284,1,0
Sprite,Foreground,Centre,"Danger.png",320,240 M,0,120012,,313,244 F,0,120012,120401,0,1 S,0,120012,121180,0.98976,1.13312 R,0,120401,120791,0,0.3891205 F,0,120401,122739,1 R,0,120791,121180,0.3891205,-0.1638394 R,0,121180,121570,-0.1638394,0.2048004 S,0,121180,121960,1.13312,1.03072 R,0,121570,121960,0.2048004,-0.1843195 R,0,121960,122349,-0.1843195,2.968311E-07 F,0,122739,123128,1,0
Sprite,Foreground,Centre,"Circle.png",320,240 M,0,120012,,321,369 F,0,120012,120401,0,1 R,0,120012,120791,0.06143982,3.29728 F,0,120401,122739,1 R,0,120791,121570,3.29728,6.38976 R,0,121570,122349,6.38976,9.64608 R,0,122349,123128,9.64608,12.94336 F,0,122739,123128,1,0
Sprite,Foreground,Centre,"Sakuya.png",320,240 M,0,120012,,321,370 F,0,120012,120401,0,1 F,0,120401,122739,1 F,0,122739,123128,1,0
Sprite,Foreground,Centre,"Danger.png",320,240 F,0,124297,124687,0,1 M,0,124687,,387,374 S,0,124687,126245,1,1.06144 F,0,124687,137154,1 S,0,126245,127804,1.06144,1.03072 S,0,127804,129362,1.03072,1.081921 S,0,129362,130921,1.081921,0.9897605 S,0,130921,132479,0.9897605,1.06144 S,0,132479,134037,1.06144,0.8668805 S,0,134037,134817,0.8668805,0.7952002 S,0,134817,135596,0.7952002,0.6620801 S,0,135596,136960,0.6620801,0.5494397 S,0,136960,137154,0.5494397,0.9180796 F,0,137154,137544,1,0 S,0,137154,137544,0.9180796,1.79872
Sprite,Foreground,Centre,"white.png",320,240 F,0,137154,138325,1,0
Sprite,Foreground,Centre,"SB.png",320,240 S,0,7804,,0.632 M,0,7804,8193,222,180,202,180 F,0,7804,8193,0,1 F,0,8193,10531,1 F,0,10531,10921,1,0
Sprite,Foreground,Centre,"skin.png",320,240 M,0,6635,7024,346,379,318,379 F,0,6635,7024,0,1 S,0,6635,7219,0.7200003,0.6560001 F,0,7024,10531,1 F,0,10531,10921,1,0
Sprite,Foreground,Centre,"Song info..png",320,240 S,0,6635,,0.552 M,0,6635,7024,286,141,269,141 F,0,6635,7024,0,1 F,0,7024,10531,1 F,0,10531,10921,1,0
//Storyboard Sound Samples
//Background Colour Transformations
3,100,163,162,255
3,100,163,162,255

[TimingPoints]
12,389.61038961039,4,2,1,100,1,0
13550,-100,4,2,2,100,0,0
13745,-100,4,2,1,100,0,0
15888,-100,4,2,2,100,0,0
16083,-100,4,2,1,100,0,0
17447,-100,4,2,2,100,0,0
17641,-100,4,2,1,100,0,0
44330,-100,4,2,2,100,0,0
44524,-100,4,2,1,100,0,0
45888,-100,4,2,2,100,0,0
46083,-100,4,2,1,100,0,0
100434,-100,4,2,2,100,0,0
100628,-100,4,2,1,100,0,0

[Colours]
Combo1 : 128,128,192
Combo2 : 64,0,128
Combo3 : 128,0,255
Combo4 : 128,128,255

[HitObjects]
416,64,12479,1,0
440,184,12869,1,8
424,304,13258,2,0,B|312:240|320:80,1,240,0|0
216,48,14427,2,0,B|208:128|224:176,1,120,8|0
248,224,15012,1,0
272,280,15206,1,8
168,336,15596,6,0,B|112:216|128:80,1,240,4|0
248,88,16765,1,8
216,200,17154,2,0,B|232:312|424:344,1,240
432,288,18128,1,0
448,232,18323,1,8
336,192,18713,5,4
400,88,19102,2,0,B|272:88,1,120,8|0
160,88,19882,2,0,B|32:88,1,120,8|0
128,168,20661,2,0,B|272:168,1,120,8|0
160,248,21440,2,0,B|24:248,1,120,8|4
136,328,22219,6,0,B|272:328,1,120,8|0
376,328,22999,1,8
376,208,23388,2,0,B|408:168|336:136|384:96,3,120,0|8|0|8
440,96,24752,1,0
464,152,24947,1,4
256,192,31180,12,4,32739
64,184,33518,6,0,B|136:184|120:272,1,120,8|0
240,280,34297,2,0,B|240:136,3,120,8|0|8|0
128,208,35856,2,0,B|128:336,1,120,8|0
128,208,36635,2,0,B|128:64,1,120,8|0
248,88,37414,5,4
328,176,37804,1,0
432,120,38193,2,0,B|520:248|352:296,1,240,8|8
328,176,39362,1,0
288,64,39752,2,0,B|232:64|216:168,1,120,8|0
208,208,40336,1,0
216,272,40531,5,4
96,256,40921,1,0
168,160,41310,1,8
216,272,41700,1,0
96,256,42089,1,8
168,160,42479,1,0
216,272,42869,2,0,B|288:280|352:256,1,120,8|0
384,232,43453,1,0
416,176,43648,5,4
328,96,44037,2,0,B|240:8|80:64,1,240
72,168,45206,1,8
112,280,45596,2,8,B|200:352|344:320,1,240,0|0
376,272,46570,1,0
392,216,46765,5,4
384,96,47154,2,0,B|256:96,1,120,0|8
352,176,47934,2,0,B|216:176,1,120,0|8
320,256,48713,2,0,B|176:256,1,120,0|8
80,256,49492,2,0,B|80:120,1,120,0|4
160,224,50271,6,0,B|160:88,1,120,0|8
240,192,51050,2,0,B|240:328,1,120,0|8
320,216,51830,2,0,B|320:88,1,120,0|8
400,192,52609,1,0
400,256,52804,1,0
400,312,52999,6,0,B|272:352|144:312,1,240,4|8
168,200,54167,1,0
168,80,54557,2,0,B|296:40|424:80,1,240,8|8
408,136,55531,1,0
400,192,55726,1,0
384,312,56115,5,4
152,264,56895,1,8
264,48,57674,1,8
344,136,58063,1,0
376,184,58258,1,0
408,232,58453,1,8
296,272,58843,1,0
192,216,59232,6,0,B|192:80,7,120,4|0|8|0|8|0|8|0
80,56,62349,1,4
256,192,65466,12,4,68583
72,96,68973,6,8,B|184:48|328:80,1,240
344,176,70141,1,0
288,280,70531,1,8
168,288,70921,1,0
112,192,71310,1,8
112,192,71505,1,0
256,192,71700,12,4,74817
88,144,75206,5,0
80,264,75596,6,0,B|200:216,1,120,8|0
248,328,76375,2,8,B|384:352,1,120,8|0
352,232,77154,2,0,B|472:200,1,120,8|0
467,201,77739,1,0
256,192,77934,12,4,80856
96,64,81440,6,0,B|232:64,1,120,8|0
280,64,82024,1,0
336,64,82219,1,8
336,184,82609,2,0,B|200:184,1,120,0|8
96,184,83388,2,0,B|96:320,1,120,0|8
256,192,84167,12,4,87284
80,88,87674,5,8
200,88,88063,1,0
112,168,88453,1,8
232,168,88843,1,0
352,168,89232,2,0,B|384:240|456:256,1,120,8|0
456,128,90012,2,0,B|424:56|352:40,1,120,8|4
352,168,90791,6,0,B|312:296|152:320,1,240,8|8
120,312,91765,1,0
72,272,91960,2,0,B|48:248|64:208,1,60
80,160,92349,1,8
160,72,92739,1,0
280,72,93128,1,8
224,176,93518,1,4
344,176,93908,6,0,B|408:176,1,60,8|0
448,216,94297,2,0,B|480:272|384:320,1,120,0|8
280,320,95076,1,0
160,320,95466,1,8
280,320,95856,1,0
160,320,96245,1,8
224,216,96635,1,4
344,216,97024,6,0,B|384:152|344:80,1,120,8|0
240,56,97804,1,8
120,80,98193,2,0,B|88:128|88:208,1,120,0|8
88,256,98778,1,0
112,312,98973,2,0,B|176:360|240:360,1,120,0|8
336,336,99752,1,4
424,256,100141,6,0,B|480:120|360:40,1,240
248,48,101310,1,8
136,96,101700,1,0
80,200,102089,2,0,B|56:240|96:280,2,60,8|0|0
136,96,102869,2,0,B|184:168|176:232,1,120,4|8
120,312,103648,6,0,B|152:360|256:352,1,120,0|8
288,344,104232,1,0
344,312,104427,1,0
408,208,104817,2,0,B|408:64,1,120,8|0
288,88,105596,2,0,B|288:224,1,120,8|4
408,208,106375,6,0,B|272:208,1,120,8|0
288,88,107154,2,0,B|424:88,1,120,8|0
408,152,107739,1,0
408,216,107934,1,8
320,296,108323,2,0,B|272:336|192:328,1,120,0|8
88,320,109102,5,4
88,256,109297,1,0
88,192,109492,1,8
88,72,109882,2,0,B|128:24|208:32,1,120,0|8
200,152,110661,2,0,B|136:152|80:200,1,120,0|8
88,312,111440,2,0,B|128:264|208:272,1,120,0|8
320,264,112219,1,4
416,192,112609,5,8
416,128,112804,1,0
376,80,112999,1,0
320,72,113193,1,0
264,88,113388,1,8
264,208,113778,2,0,B|264:344,1,120,0|8
160,264,114557,2,0,B|160:136,1,120,0|8
264,208,115336,1,4
160,144,115726,6,0,B|160:280,1,120,8|0
264,208,116505,2,0,B|264:80,1,120,8|0
264,88,117284,1,8
368,144,117674,1,0
368,208,117869,1,0
368,264,118063,1,8
264,208,118453,1,8
264,208,119232,1,8
264,208,120012,1,8
40,240,124687,6,0,B|40:104,3,120,8|0|8|0
128,200,126245,6,0,B|128:64,3,120,8|0|8|0
216,160,127804,6,0,B|216:24,3,120,8|0|8|0
304,120,129362,6,0,B|304:256,3,120,8|0|8|0
392,160,130921,6,0,B|392:296,3,120,8|0|8|0
472,192,132479,6,0,B|472:56,3,120,8|0|8|0
352,56,134037,5,4
224,56,134427,1,0
160,56,134622,1,0
128,112,134817,5,4
240,112,135206,1,0
304,112,135401,1,0
344,160,135596,5,4
216,160,135986,1,0
96,160,136375,1,4
96,160,136765,1,4
96,160,137154,1,4
256,192,140271,12,4,143388
440,288,143778,6,8,B|328:336|184:304,1,240
168,264,144752,1,0
160,208,144946,1,0
216,104,145336,1,8
336,104,145726,1,0
400,192,146115,1,8
400,192,146310,1,0
256,192,146505,12,4,149622
424,240,150011,5,0
432,120,150401,2,0,B|384:176|312:168,1,120,8|0
280,56,151180,2,8,B|224:32|144:48,1,120,8|0
160,152,151959,2,0,B|96:160|40:128,1,120,8|0
44,130,152544,1,0
256,192,152739,12,4,155661
416,320,156245,6,0,B|280:320,1,120,8|0
176,320,157024,1,8
176,200,157414,2,0,B|312:200,1,120,0|8
360,200,157999,1,0
416,200,158193,2,0,B|416:64,1,120,0|8
256,192,158972,12,4,162089
