osu file format v7

[General]
AudioFilename: flower.mp3
AudioLeadIn: 0
PreviewTime: 62447
Countdown: 0
SampleSet: Soft
StackLeniency: 0.7
Mode: 0
LetterboxInBreaks: 1
EpilepsyWarning: 1

[Editor]
Bookmarks: 34297,35466,36050,37414,61960,75012,79687,87284,120012,124687,125466,126245,127024,127804,129362,130921,132479,134037,134817,135596,137154,146505,148648
DistanceSpacing: 0
BeatDivisor: 4
GridSize: 8

[Metadata]
Title:Flowering Night x Outkast (B.O.B.)
Artist:Haru
Creator:Nakata Yuji
Version:Hard
Source:Touhou
Tags:bombs over baghdad viotex instrumentals daerren

[Difficulty]
HPDrainRate:5
CircleSize:4
OverallDifficulty:7
SliderMultiplier:1.6
SliderTickRate:2

[Events]
//Background and Video events
0,0,"bg.jpg"
//Break Periods
2,25147,30280
2,67419,67878
2,73458,74112
2,120211,123787
2,137354,139371
2,142614,142683
2,148848,148917
//Storyboard Layer 0 (Background)
Sprite,Background,Centre,"black.png",320,240 M,0,-2033,,320,240 F,0,-2033,28,1 F,0,28,6635,1,0 M,0,120012,,320,240 F,0,120012,120401,0,1 F,0,120401,123128,1 F,0,123128,123518,1,0 F,0,134037,134524,1,0 F,0,134524,134622,0 F,0,134817,135401,1,0 F,0,135596,136180,1,0
//Storyboard Layer 1 (Fail)
//Storyboard Layer 2 (Pass)
//Storyboard Layer 3 (Foreground)
Sprite,Foreground,Centre,"Gray.png",320,240 M,0,75206,,320,240 F,0,75206,75596,0,1 F,0,75596,86895,1 F,0,86895,87284,1,0
Sprite,Foreground,Centre,"Circle.png",320,240 M,0,120012,,321,369 F,0,120012,120401,0,1 R,0,120012,120791,0.06143982,3.29728 F,0,120401,122739,1 R,0,120791,121570,3.29728,6.38976 R,0,121570,122349,6.38976,9.64608 R,0,122349,123128,9.64608,12.94336 F,0,122739,123128,1,0
Sprite,Foreground,Centre,"Sakuya.png",320,240 M,0,120012,,321,370 F,0,120012,120401,0,1 F,0,120401,122739,1 F,0,122739,123128,1,0
Sprite,Foreground,Centre,"Danger.png",320,240 M,0,120012,,313,244 F,0,120012,120401,0,1 S,0,120012,121180,0.98976,1.13312 R,0,120401,120791,0,0.3891205 F,0,120401,122739,1 R,0,120791,121180,0.3891205,-0.1638394 R,0,121180,121570,-0.1638394,0.2048004 S,0,121180,121960,1.13312,1.03072 R,0,121570,121960,0.2048004,-0.1843195 R,0,121960,122349,-0.1843195,2.968311E-07 F,0,122739,123128,1,0
Sprite,Foreground,Centre,"Danger.png",320,240 F,0,124297,124687,0,1 M,0,124687,,387,374 S,0,124687,126245,1,1.06144 F,0,124687,137154,1 S,0,126245,127804,1.06144,1.03072 S,0,127804,129362,1.03072,1.081921 S,0,129362,130921,1.081921,0.9897605 S,0,130921,132479,0.9897605,1.06144 S,0,132479,134037,1.06144,0.8668805 S,0,134037,134817,0.8668805,0.7952002 S,0,134817,135596,0.7952002,0.6620801 S,0,135596,136960,0.6620801,0.5494397 S,0,136960,137154,0.5494397,0.9180796 F,0,137154,137544,1,0 S,0,137154,137544,0.9180796,1.79872
Sprite,Foreground,Centre,"white.png",320,240 F,0,137154,138325,1,0
Sprite,Foreground,Centre,"SB.png",320,240 S,0,7804,,0.632 M,0,7804,8193,222,180,202,180 F,0,7804,8193,0,1 F,0,8193,10531,1 F,0,10531,10921,1,0
Sprite,Foreground,Centre,"skin.png",320,240 M,0,6635,7024,346,379,318,379 F,0,6635,7024,0,1 S,0,6635,7219,0.7200003,0.6560001 F,0,7024,10531,1 F,0,10531,10921,1,0
Sprite,Foreground,Centre,"Song info..png",320,240 S,0,6635,,0.552 M,0,6635,7024,286,141,269,141 F,0,6635,7024,0,1 F,0,7024,10531,1 F,0,10531,10921,1,0
//Storyboard Sound Samples
//Background Colour Transformations
3,100,163,162,255

[TimingPoints]
12,389.61038961039,4,2,1,100,1,0
15693,-100,4,2,2,100,0,0
16245,-100,4,2,1,100,0,0
39882,-100,4,2,2,100,0,0
40401,-100,4,2,1,100,0,0
45499,-100,4,2,2,100,0,0
45693,-100,4,2,1,100,0,0
46278,-100,4,2,2,100,0,0
46473,-100,4,2,1,100,0,0
52512,-100,4,2,2,100,0,0
52706,-100,4,2,1,100,0,0
63453,-100,4,2,2,100,0,0
63583,-100,4,2,1,100,0,0
69654,-100,4,2,2,100,0,0
69849,-100,4,2,1,100,0,0
75888,-100,4,2,2,100,0,0
76083,-100,4,2,1,100,0,0
100044,-100,4,2,2,100,0,0
100239,-100,4,2,1,100,0,0
100823,-100,4,2,2,100,0,0
101018,-100,4,2,1,100,0,0
101602,-100,4,2,2,100,0,0
101797,-100,4,2,1,100,0,0
112512,-100,4,2,2,100,0,0
112706,-100,4,2,1,100,0,0
144460,-100,4,2,2,100,0,0
144654,-100,4,2,1,100,0,0
150693,-100,4,2,2,100,0,0
150888,-100,4,2,1,100,0,0
156927,-100,4,2,2,100,0,0
157122,-100,4,2,1,100,0,0

[Colours]
Combo1 : 128,128,192
Combo2 : 64,0,128
Combo3 : 128,0,255
Combo4 : 128,128,255

[HitObjects]
64,320,12089,5,4
64,240,12284,1,0
128,280,12479,2,0,B|176:184|48:160,1,160,0|8
64,80,13063,1,2
144,80,13258,1,0
144,80,13356,2,0,B|288:80,1,120,0|8
344,80,13843,2,0,B|416:80,1,40,2|0
464,80,14135,1,0
464,160,14330,1,0
464,160,14427,2,0,B|352:160,1,80,8|2
384,160,14719,1,0
304,160,14914,2,0,B|208:160,1,80
224,160,15206,2,0,B|248:224|152:224,2,80,8|2|4
144,160,15791,6,0,B|32:168|92:221|144:264,1,160,0|2
131,253,16278,1,0
208,256,16473,1,0
288,256,16667,1,0
328,256,16765,2,0,B|424:256|424:144,1,160,8|0
424,112,17251,1,0
424,72,17349,1,0
392,48,17446,1,0
352,48,17544,1,8
272,48,17739,2,0,B|224:48,2,40,2|0|0
272,128,18128,2,0,B|168:128,1,80,0|8
192,128,18421,1,0
192,128,18518,1,2
192,128,18615,1,0
192,128,18713,1,4
112,128,18908,5,0
112,208,19102,1,8
192,208,19297,1,2
232,208,19395,1,0
272,208,19492,1,0
352,208,19687,1,0
432,208,19882,2,0,B|432:264|384:272,1,80,8|2
312,272,20270,5,0
232,272,20465,1,0
192,272,20563,1,0
152,272,20661,2,0,B|32:272|40:144,1,160,8|0
48,104,21245,1,0
112,48,21440,2,8,B|224:48,1,80,8|2
280,48,21830,6,0,B|280:96,1,40,4|0
320,104,22024,2,0,B|320:152,1,40
360,152,22219,2,0,B|360:208,1,40,8|0
400,200,22414,2,0,B|400:264,1,40,2|0
304,320,22804,1,0
224,336,22999,2,0,B|96:360|64:256,1,160,8|0
80,200,23583,1,0
80,120,23778,2,0,B|80:64|152:64,1,80,8|2
208,64,24167,1,0
288,80,24362,1,0
360,136,24557,1,8
400,208,24752,1,2
416,288,24947,1,4
256,192,31180,12,8,32349
440,64,32739,5,0
440,144,32934,1,0
440,184,33031,1,0
440,224,33128,1,8
440,304,33323,1,2
360,304,33518,2,0,B|176:304,1,160,0|8
48,256,34297,2,0,B|48:200,12,40,0|0|0|0|8|0|2|0|0|0|0|0|8
112,304,35661,1,2
112,304,35758,1,0
112,304,35856,1,0
168,248,36050,2,0,B|168:200,14,40,0|0|8|0|2|0|0|0|0|0|8|0|2|0|4
232,296,37609,5,0
312,296,37804,2,0,B|400:312|392:168,1,160,8|0
312,184,38388,1,0
232,184,38583,1,8
192,184,38680,1,0
152,184,38778,1,2
112,184,38875,1,0
72,184,38973,1,0
72,104,39167,5,0
152,104,39362,1,8
232,104,39557,1,2
272,104,39654,1,0
312,104,39752,1,0
392,104,39947,2,0,B|488:88|472:208,1,160,0|2
472,312,40531,5,4
392,312,40726,1,0
312,312,40921,1,8
272,312,41018,1,0
232,312,41115,1,2
152,312,41310,1,0
104,248,41505,1,0
184,240,41700,1,8
136,176,41895,2,0,B|112:80,1,80,2|0
200,88,42284,2,0,B|224:183,1,80,0|8
136,176,42674,1,2
116,98,42869,2,0,B|208:88,1,80
216,160,43258,2,0,B|320:136,1,80,8|2
376,128,43648,5,4
432,184,43843,2,0,B|368:264,3,80,0|8|2|0
304,272,44622,1,0
248,216,44817,1,8
224,296,45012,1,2
144,304,45206,2,0,B|80:184|144:56,1,240,0|2
216,72,45986,2,0,B|280:192|216:320,1,240,0|2
144,304,46765,5,4
88,248,46960,1,0
168,232,47154,1,8
144,304,47349,1,2
88,248,47544,1,0
88,168,47739,1,0
88,128,47836,1,0
88,88,47934,2,8,B|96:32|160:40,1,80,8|2
224,40,48323,5,0
304,40,48518,1,0
344,40,48615,1,0
384,40,48713,1,8
464,40,48908,2,0,B|464:144,1,80,2|0
464,200,49297,1,0
464,280,49492,1,8
424,280,49589,1,0
384,280,49687,1,2
344,280,49784,1,0
304,280,49882,6,0,B|136:280,1,160,4|8
64,280,50466,1,2
104,208,50661,1,0
184,208,50856,1,0
224,208,50953,1,0
264,208,51050,1,8
344,208,51245,1,2
312,136,51440,2,0,B|136:136,1,160,0|8
72,136,52024,1,2
104,64,52219,2,0,B|432:64,1,320,0|4
392,136,53193,5,0
464,176,53388,1,8
464,176,53486,2,0,B|464:232,1,40,0|2
464,296,53778,1,0
384,296,53973,1,0
304,296,54167,1,8
304,296,54265,2,0,B|256:296,1,40,0|2
248,216,54557,1,0
168,216,54752,1,0
88,216,54946,1,8
88,216,55044,2,0,B|40:216,1,40,0|2
56,136,55336,1,0
136,136,55531,1,0
216,136,55725,1,8
216,136,55823,2,0,B|264:136,1,40,0|2
280,56,56115,5,4
360,56,56310,1,0
440,56,56504,1,8
440,56,56602,2,0,B|488:56,1,40,0|2
464,136,56895,2,0,B|352:112|376:224,1,160,0|8
456,216,57479,1,2
456,296,57674,2,0,B|288:296,1,160,0|8
296,216,58258,1,2
296,136,58453,2,0,B|176:136|208:240|208:240,1,160,0|8
208,312,59037,1,2
288,312,59232,5,4
368,312,59427,2,0,B|368:264,2,40,0|0|8
448,296,59817,2,0,B|448:232,3,40,2|0|0|0
448,176,60304,2,0,B|448:120,5,40,0|8|0|2|0|0
448,56,60986,1,0
368,56,61180,2,0,B|320:56,8,40,8|0|2|0|0|0|0|0|8
208,56,62349,5,4
168,128,62544,1,0
248,128,62739,1,8
328,128,62934,1,2
368,128,63031,1,0
488,128,63323,2,0,B|488:304,1,160,0|2
408,288,63908,1,0
328,288,64102,1,0
248,288,64298,1,8
168,288,64492,1,2
128,288,64589,1,0
128,168,64882,1,0
128,88,65076,2,0,B|176:112,3,40,8|0|2|0
256,192,65466,12,4,67219
48,40,68778,5,0
120,72,68973,1,8
56,128,69168,1,2
56,168,69265,1,0
120,72,69557,2,0,B|120:248,1,160,0|2
48,272,70142,1,0
112,320,70336,1,0
192,296,70532,1,8
192,216,70726,1,2
192,176,70823,2,0,B|191:106|280:104,1,120
352,104,71310,2,0,B|400:128,3,40,8|0|2|0
256,192,71700,12,4,73258
56,344,75012,5,0
96,272,75207,1,8
176,272,75402,1,2
216,272,75499,1,0
120,344,75791,2,0,B|296:344,1,160,0|2
360,344,76376,1,0
320,272,76570,1,0
400,272,76766,1,8
360,208,76960,1,2
360,168,77057,2,0,B|361:98|272:96,1,120
200,96,77544,2,0,B|144:56,3,40,8|0|2|0
256,192,77934,12,4,79687
256,192,80076,5,0
256,192,80466,1,0
256,192,80856,1,0
408,136,81245,5,0
456,200,81440,1,8
376,216,81635,2,0,B|328:216,1,40,2|0
424,296,82024,1,0
344,296,82219,1,8
272,272,82414,2,0,B|224:272,1,40,2|0
112,272,82803,1,0
72,200,82999,1,8
152,200,83193,1,2
192,200,83291,1,0
232,200,83388,1,0
312,200,83583,1,0
312,120,83777,2,0,B|256:120,3,40,8|0|2|0
256,192,84070,12,4,87284
56,64,87674,5,8
136,64,87869,1,2
216,64,88063,1,0
256,64,88161,1,0
296,64,88258,1,0
376,64,88453,2,0,B|464:64,1,80,8|2
416,136,88843,1,0
336,136,89038,1,0
256,136,89232,1,8
216,136,89330,1,0
176,136,89427,1,2
96,136,89622,2,0,B|8:136,1,80,0|0
56,208,90012,1,8
136,208,90207,1,2
176,208,90304,1,0
216,208,90401,5,4
296,208,90596,1,0
376,208,90791,2,0,B|464:208,1,80,8|2
440,288,91180,6,0,B|416:376,1,80
344,336,91570,2,0,B|328:240,1,80,8|2
256,280,91960,2,0,B|200:360,1,80
136,312,92349,2,0,B|112:208,1,80,8|2
88,160,92739,5,0
120,88,92934,1,0
88,160,93128,1,8
168,160,93323,1,2
200,88,93518,5,4
168,160,93713,1,0
248,160,93908,1,8
280,88,94103,1,2
248,160,94297,1,0
328,160,94492,1,0
360,88,94687,1,8
328,160,94882,1,2
408,160,95076,5,0
408,240,95271,1,0
408,320,95466,1,8
368,320,95563,1,0
328,320,95661,1,2
248,320,95856,2,0,B|136:320,1,80
88,320,96245,1,8
88,240,96440,1,2
88,160,96635,5,4
88,80,96830,2,0,B|136:40|192:80,1,80,0|8
168,144,97219,2,0,B|208:160|264:128,1,80,2|0
232,56,97609,2,0,B|280:48|328:88,1,80,0|8
328,152,97999,1,2
384,96,98193,1,0
432,160,98388,2,0,B|488:200|448:256,1,80,0|8
416,296,98778,2,0,B|360:256|400:200,1,80,2|0
432,160,99167,1,0
352,152,99362,2,0,B|304:184|320:248,1,80,8|2
320,296,99752,5,4
264,352,99947,2,0,B|224:256|256:184,1,160,0|2
280,120,100531,1,0
200,112,100726,2,0,B|152:176|168:280,1,160,0|2
176,344,101310,1,0
96,344,101505,2,0,B|56:248|88:176,1,160,0|2
104,112,102089,1,0
152,48,102284,1,0
184,120,102479,1,8
104,112,102674,1,2
152,48,102869,6,0,B|72:216,1,160,4|8
160,192,103453,1,2
240,192,103647,1,0
320,192,103842,1,0
400,192,104037,2,0,B|488:192,1,80,8|2
440,264,104427,1,0
360,264,104622,1,0
280,264,104816,1,8
240,264,104914,1,0
200,264,105011,1,2
120,264,105206,2,0,B|32:264,1,80,0|0
80,336,105596,5,8
160,336,105791,1,2
200,336,105888,1,0
240,336,105985,5,4
320,336,106180,1,0
400,336,106375,2,0,B|488:336,1,80,8|2
456,256,106765,2,0,B|456:168,1,80
376,176,107154,1,8
376,256,107349,2,0,B|272:256,1,80,2|0
296,176,107739,1,0
216,176,107934,2,0,B|216:272,1,80,8|2
136,256,108323,1,0
136,176,108518,2,0,B|136:128,2,40,0|0|8
56,176,108908,2,0,B|56:80,1,80,2|4
56,96,109200,5,0
56,96,109297,1,0
56,96,109395,1,0
56,96,109492,1,8
136,96,109687,1,2
216,96,109882,2,0,B|304:96,1,80
256,168,110271,2,0,B|360:168,1,80,8|2
296,240,110661,2,0,B|408:240,1,80
336,312,111050,2,0,B|248:312,1,80,8|2
176,312,111440,1,0
216,240,111635,1,0
176,240,111732,1,0
136,240,111830,2,0,B|48:240,1,80,8|2
56,160,112219,5,4
56,80,112414,2,0,B|464:80,1,400,0|8
424,152,113583,2,0,B|320:152,1,80,2|0
264,152,113973,1,0
184,152,114167,1,8
104,152,114362,1,2
104,152,114460,1,0
104,152,114557,1,0
104,232,114752,2,0,B|104:320,2,80,0|8|2
184,232,115336,6,0,B|168:280|184:328,1,80,4|0
240,360,115726,2,0,B|256:312|240:264,1,80,8|2
184,232,116115,1,0
264,208,116310,2,0,B|320:176|368:224,1,80,0|8
304,280,116700,1,2
344,352,116895,2,0,B|400:312|392:264,1,80
416,216,117284,2,0,B|416:40,1,160,8|0
336,56,117869,1,0
336,136,118063,1,8
336,216,118258,1,2
296,216,118356,1,0
256,216,118453,5,4
256,136,118648,2,0,B|256:48,1,80,0|8
184,96,119037,2,0,B|184:200,1,80,2|0
112,216,119427,2,0,B|112:120,1,80,0|8
40,168,119817,2,0,B|40:272,1,80,2|0
80,184,124687,6,0,B|80:104,8,40,0|0|0|0|8|0|2|0|0
80,264,125661,1,0
160,264,125856,1,8
240,264,126050,1,2
240,184,126245,6,0,B|240:136,8,40,0|0|0|0|8|0|2|0|0
240,264,127219,1,0
320,264,127414,1,8
400,264,127609,1,2
400,184,127804,6,0,B|400:128,8,40,0|0|0|0|8|0|2|0|0
400,264,128778,5,0
320,264,128973,1,8
240,264,129167,1,2
240,264,129362,6,0,B|240:328,8,40,0|0|0|0|8|0|2|0|0
240,184,130336,1,0
240,104,130531,1,8
160,104,130726,1,2
80,104,130921,6,0,B|24:104,8,40,0|0|0|0|8|0|2|0|0
80,184,131895,1,0
80,264,132089,1,8
160,264,132284,1,2
160,344,132479,6,0,B|112:344,8,40,0|0|0|0|8|0|2|0|0
240,344,133453,1,0
320,344,133648,1,8
320,264,133843,1,2
320,184,134037,6,0,B|264:184,4,40,4|0|0|0|12
320,104,134622,1,2
240,104,134817,6,0,B|176:104,4,40,4|0|0|0|12
240,184,135401,1,2
160,184,135596,6,0,B|96:184,8,40,4|0|0|0|12|0|2|0|4
160,264,136570,1,0
240,264,136765,6,0,B|288:264,4,40,12|0|2|0|4
256,192,140271,12,4,142414
56,64,143583,5,0
136,64,143778,1,8
136,64,143973,2,0,B|184:64,1,40,2|0
296,64,144362,2,0,B|384:64|416:176,1,160,0|2
416,240,144947,1,0
336,240,145141,1,0
336,320,145336,1,8
256,320,145531,1,2
256,280,145628,1,0
256,160,145921,2,0,B|168:160,1,80,0|8
96,160,146310,1,2
256,192,146505,12,4,148648
456,320,149817,5,0
456,240,150012,1,8
456,160,150207,2,0,B|408:160,1,40,2|0
416,40,150596,2,0,B|328:40|312:144,1,160,0|2
312,224,151181,1,0
312,304,151375,2,0,B|224:304,1,80,0|8
152,304,151765,1,2
112,304,151862,1,0
112,184,152155,2,0,B|112:96,1,80,0|8
112,24,152544,1,2
256,192,152739,12,4,155856
56,64,156050,5,0
136,64,156245,1,8
216,64,156440,2,0,B|264:64,1,40,2|0
160,136,156829,2,0,B|248:136|328:136,1,160,0|2
280,64,157414,2,0,B|368:64,1,80
440,64,157803,1,8
440,144,157998,1,2
440,184,158095,1,0
440,304,158388,2,0,B|352:304,1,80,0|8
280,304,158777,1,2
256,192,158973,12,4,162089
