osu file format v5

[General]
AudioFilename: Haru - Flowering Night (Instrumental).mp3
AudioLeadIn: 2504
PreviewTime: -1
Countdown: 1
SampleSet: Normal
StackLeniency: 0.7
Mode: 0
LetterboxInBreaks: 1
EditorBookmarks: 31198,34589,34687,34979,35076,35369,49784,59427
EditorDistanceSpacing: 0.800000011920929

[Metadata]
Title:Flowering Night (Instrumental)
Artist:Haru
Creator:Gabi
Version:Normal
Source:Viotex Instrumentals
Tags:Techno Touhou Instrumental Viotex

[Difficulty]
HPDrainRate:3
CircleSize:4
OverallDifficulty:5
SliderMultiplier:1.2
SliderTickRate:1

[Events]
//Background and Video events
0,0,"Touhou29.png"
//Break Periods
2,34302,36604
2,59042,61149
2,87289,98552
//Storyboard Layer 0 (Background)
//Storyboard Layer 1 (Failing)
//Storyboard Layer 2 (Passing)
//Storyboard Layer 3 (Foreground)
//Storyboard Sound Samples
//Background Colour Transformations
3,100,163,162,255

[TimingPoints]
12,389.61038961039,4,2,0,100,1,0
6215,-100,4,2,1,100,0,0
12449,-100,4,1,0,100,0,0
18683,-100,4,2,0,100,0,0
19072,-100,4,1,0,100,0,0
19170,-100,4,2,0,100,0,0
19852,-100,4,1,0,100,0,0
19949,-100,4,2,0,100,0,0
20631,-100,4,1,0,100,0,0
20728,-100,4,2,0,100,0,0
21410,-100,4,1,0,100,0,0
21800,-100,4,1,0,100,0,0
22579,-100,4,1,0,100,0,0
24917,-100,4,2,0,100,0,0
25306,-100,4,1,0,100,0,0
25404,-100,4,2,0,100,0,0
25696,-100,4,2,0,40,0,0
25891,-100,4,2,0,30,0,0
26085,-100,4,2,0,10,0,0
26280,-100,4,2,0,0,0,0
26475,-100,4,2,0,20,0,0
26670,-100,4,2,0,71,0,0
26767,-100,4,1,0,61,0,0
26865,-100,4,1,0,100,0,0
27157,-100,4,2,0,69,0,0
27254,-100,4,2,0,80,0,0
27546,-100,4,1,0,90,0,0
27644,-100,4,2,0,100,0,0
28033,-100,4,1,0,100,0,0
31150,-100,4,2,0,80,0,0
31930,-100,4,2,0,100,0,0
34267,-100,4,1,0,60,0,0
37676,-100,4,1,0,100,0,0
56085,-100,4,1,1,100,0,0
59397,-100,4,1,0,60,0,0
62319,-100,4,1,0,100,0,0
66994,-100,4,1,1,100,0,0
74982,-100,4,1,1,100,0,0
85501,-100,4,2,0,0,0,0
99624,-100,4,2,0,100,0,0
101670,-100,4,2,1,100,0,0
112189,-100,4,2,1,60,0,0
112384,-100,4,2,1,40,0,0
112969,-100,4,2,1,30,0,0
113163,-100,4,2,1,20,0,0
113748,-100,4,2,1,10,0,0
113943,-100,4,2,1,0,0,0
114527,-100,4,2,1,10,0,0
114917,-100,4,2,1,20,0,0
115306,-100,4,2,1,30,0,0
115501,-100,4,2,1,40,0,0
116085,-100,4,2,1,51,0,0
116280,-100,4,2,1,60,0,0
116865,-100,4,2,1,71,0,0
117059,-100,4,2,1,80,0,0
118033,-100,4,1,1,100,0,0

[Colours]
Combo1 : 22,146,60
Combo2 : 6,238,215
Combo3 : 255,255,255

[HitObjects]
64,40,12,1,2
256,40,791,1,2
448,40,1570,1,2
448,232,2349,1,2
448,136,2739,1,2
352,136,3128,5,2
160,136,3908,1,2
256,304,4687,1,2
256,112,5466,1,2
256,208,5856,1,2
160,208,6245,6,2,B|160:72,1,120
256,88,7024,2,2,B|256:216,1,120
352,208,7804,2,2,B|352:80,1,120
256,88,8583,1,2
160,88,8973,1,2
160,184,9362,6,2,B|304:184,1,120
216,256,10141,2,2,B|80:256,1,120
160,328,10921,2,2,B|296:328,1,120
360,328,11700,1,0
280,280,12089,1,0
184,280,12479,5,0
88,280,12869,1,0
88,184,13258,1,0
8,128,13648,1,0
88,80,14037,5,0
176,128,14427,1,0
264,128,14817,1,0
312,136,15012,1,8
344,168,15207,1,8
344,312,15596,5,0
272,264,15986,1,0
272,360,16375,1,0
176,360,16765,1,0
176,264,17154,5,0
80,264,17544,1,0
80,168,17934,1,0
80,120,18128,1,8
80,72,18323,1,8
328,72,19102,5,4
256,136,19492,1,0
216,168,19687,1,0
176,200,19882,1,4
240,264,20271,5,0
312,200,20661,1,4
392,256,21050,1,0
352,288,21245,1,0
312,320,21440,1,4
216,320,21830,5,0
120,320,22219,1,0
120,224,22609,2,0,B|120:88,1,120
208,136,23388,1,0
288,168,23778,1,0
368,200,24167,2,0,B|368:328,1,120
256,320,24947,5,0
112,192,25726,1,0
256,64,26505,1,0
400,192,27284,1,0
352,272,27674,1,0
304,192,28063,5,0
112,192,28843,1,0
304,192,29622,1,0
208,24,30401,1,0
208,120,30791,1,0
208,216,31180,5,0
16,216,31960,1,0
16,24,32739,1,0
16,120,33128,1,0
112,120,33518,1,0
160,120,33713,1,0
208,120,33908,1,0
256,120,34102,1,4
80,312,37804,5,8
176,312,38193,1,0
272,312,38583,1,8
368,312,38973,1,0
464,312,39362,1,8
464,216,39752,2,0,B|464:152,2,60,0|8|8
368,216,40531,5,0
272,216,40921,1,8
176,216,41310,1,0
80,216,41700,1,8
24,136,42089,1,0
80,216,42479,1,8
136,136,42869,2,8,B|208:136,2,60
240,136,43648,5,0
336,136,44037,1,8
432,136,44427,1,0
384,216,44817,1,8
288,216,45206,1,0
336,296,45596,1,8
336,296,45986,2,0,B|336:224,2,60,0|8|8
336,64,46765,5,0
240,64,47154,1,8
240,160,47544,1,0
144,160,47934,1,8
144,256,48323,1,0
48,256,48713,1,8
48,160,49102,2,8,B|48:88,2,60
96,104,49882,6,0,B|176:104,1,60
200,104,50271,1,8
240,192,50661,2,0,B|176:192,1,60,0|0
136,192,51050,1,8
96,280,51440,6,0,B|176:280,1,60
200,280,51830,1,8
296,280,52219,2,0,B|360:280,4,60,0|8|0|8|0
296,184,53388,5,8
360,112,53778,2,8,B|416:56,2,60
296,184,54557,2,8,B|248:232,2,60
296,184,55336,1,0
360,112,55726,1,8
360,208,56115,6,0,B|504:208,1,120,0|8
480,304,56895,2,0,B|352:304,1,120,0|8
264,304,57674,2,0,B|136:304,1,120,0|8
144,208,58453,2,0,B|280:208,1,120,0|8
256,320,62349,5,0
256,272,62544,1,0
256,224,62739,1,2
304,144,63128,1,0
208,144,63518,1,0
256,64,63908,5,0
256,64,64102,1,0
256,64,64297,1,2
160,64,64687,1,0
112,64,64882,1,0
64,64,65076,1,2
64,112,65271,1,0
64,160,65466,5,0
64,256,65856,1,2
160,256,66245,1,0
160,304,66440,1,0
208,304,66635,1,2
256,304,66830,1,0
304,304,67024,2,0,B|392:304,4,60,0|0|0|0|2
304,160,68388,6,0,B|120:160,1,180,0|2
24,160,69362,2,2,B|24:80,2,60
72,160,69947,2,0,B|264:160,1,180,0|2
344,160,70921,2,2,B|344:80,2,60
344,48,71700,6,0,B|272:48,1,60
232,48,72089,1,2
136,48,72479,2,0,B|80:104,3,60,0|0|0|4
256,192,73258,12,0,74622
40,192,75012,6,0,B|112:192,5,60,0|0|0|0|0|2
144,192,76180,2,2,B|336:192,1,180,2|0
408,240,77154,1,0
408,192,77349,1,0
408,144,77544,1,0
408,96,77739,2,2,B|216:96,1,180,2|0
128,96,78713,5,0
80,96,78908,1,0
80,144,79102,1,0
80,192,79297,2,2,B|264:192,1,180,2|0
352,192,80271,2,0,B|256:96,1,120,0|2
264,56,80856,6,2,B|392:56,1,120,2|2
432,56,81440,1,2
432,152,81830,2,0,B|432:232,2,60
384,152,82414,2,2,B|240:296,1,180,2|2
160,280,83388,2,0,B|160:208,2,60
160,328,83973,5,2
64,328,84362,1,2
64,280,84557,1,2
64,232,84752,1,2
64,136,85141,1,2
64,88,85336,1,2
256,192,85531,12,0,87089
48,64,99752,5,2
96,64,99947,1,0
144,64,100141,1,2
240,64,100531,1,2
240,160,100921,1,2
240,256,101310,5,2
288,256,101505,1,0
336,256,101700,2,2,B|336:216,4,30
384,336,102479,1,2
432,256,102869,5,2
432,208,103063,1,0
432,160,103258,1,2
352,208,103648,1,2
256,208,104037,1,2
160,208,104427,5,2
160,256,104622,1,0
160,304,104817,2,2,B|160:344,4,30
72,256,105596,1,2
208,160,105986,5,2
208,112,106180,1,2
208,64,106375,1,2
304,64,106765,1,2
304,112,106960,1,2
304,160,107154,1,2
352,160,107349,5,0
352,208,107544,1,2
400,208,107739,1,2
400,256,107934,2,2,B|440:256,4,30
400,352,108713,1,2
256,304,109102,5,2
208,304,109297,1,0
160,304,109492,1,2
160,208,109882,1,2
112,208,110076,1,0
112,160,110271,2,2,B|72:160,4,30
112,64,111050,6,2,B|160:64,4,30
328,112,111732,1,2
328,112,111830,1,2
432,176,112219,6,0,B|432:256,1,60
360,176,112999,2,0,B|360:248,1,60
288,176,113778,2,0,B|288:248,1,60
216,176,114557,1,0
120,176,114947,1,0
120,80,115336,6,0,B|120:-8,1,60
192,80,116115,2,0,B|192:0,1,60
264,80,116895,2,0,B|264:16,1,60
336,80,117674,1,0
432,80,118063,1,0
432,176,118453,6,0,B|376:232,2,60
344,216,119232,2,2,B|248:120,1,120
160,128,120012,1,0
88,56,120401,1,0
88,104,120596,1,0
88,152,120791,2,2,B|88:288,1,120
184,272,121570,6,0,B|232:224,1,60,0|0
272,232,121960,2,0,B|320:280,1,60
360,272,122349,1,2
392,232,122544,1,0
424,192,122739,1,2
424,144,122934,1,0
376,144,123128,6,0,B|328:144,8,30
304,144,124200,1,0
304,144,124297,1,4
