osu file format v6

[General]
AudioFilename: Haru - Dango Daikazoku (Instrumental).mp3
AudioLeadIn: 1985
PreviewTime: 82419
Countdown: 0
SampleSet: Soft
StackLeniency: 0.7
Mode: 0
LetterboxInBreaks: 0

[Editor]
Bookmarks: 20645,41290,61935,82580,103225,118709,149677,170322,190967,211612,232258
DistanceSpacing: 1.39999997615814
BeatDivisor: 4
GridSize: 8

[Metadata]
Title:Dango Daikazoku (Instrumental)
Artist:Haru
Creator:hutka
Version:Hard
Source:Clannad
Tags:Techno Instrumental Viotex bmin11

[Difficulty]
HPDrainRate:8
CircleSize:5
OverallDifficulty:7
SliderMultiplier:1.6
SliderTickRate:1

[Events]
//Background and Video events
0,0,"Back Ground.jpg"
//Break Periods
2,9877,19745
2,103425,112648
2,149877,159100
2,232458,233938
//Storyboard Layer 0 (Background)
//Storyboard Layer 1 (Fail)
//Storyboard Layer 2 (Pass)
//Storyboard Layer 3 (Foreground)
//Storyboard Sound Samples
//Background Colour Transformations
3,100,163,162,255

[TimingPoints]
0,645.161290322581,4,2,1,70,1,0
20483,-100,4,1,0,70,0,0
38548,-100,4,2,1,70,0,0
41129,-100,4,1,0,70,0,0
59193,-100,4,2,1,70,0,0
61774,-100,4,2,1,70,0,0
79838,-100,4,1,0,70,0,0
82580,-100,4,1,0,70,0,1
103064,-100,4,2,1,30,0,0
113387,-100,4,2,1,70,0,0
118548,-100,4,1,0,70,0,0
123709,-100,4,2,1,70,0,0
126290,-100,4,1,0,70,0,0
128870,-100,4,2,1,70,0,0
131451,-100,4,1,0,70,0,0
134032,-100,4,2,1,70,0,0
136612,-100,4,1,0,70,0,0
159838,-100,4,2,1,70,0,0
166129,-200,4,2,1,70,0,0
167419,-100,4,2,1,70,0,0
167580,-100,4,1,0,70,0,0
185806,-200,4,1,0,70,0,0
188064,-100,4,1,0,70,0,0
190967,-100,4,1,0,70,0,1
209354,-100,4,1,0,70,0,0
211612,-100,4,1,0,70,0,1
232258,-100,4,2,1,30,0,0
242580,-200,4,2,1,30,0,0
245161,-100,4,2,1,30,0,0
252903,-200,4,2,1,30,0,0
253548,-200,4,2,1,20,0,0
254193,-200,4,2,1,10,0,0

[Colours]
Combo1 : 62,158,255
Combo2 : 155,255,121
Combo3 : 255,255,255

[HitObjects]
96,88,0,2,0,B|280:88,1,160,2|0
369,201,1290,1,2
255,314,1935,1,2
478,314,2580,6,0,B|303:314,1,160,2|0
204,200,3870,1,2
317,86,4516,1,2
93,86,5161,5,2
93,309,5806,1,0
316,309,6451,1,2
316,85,7096,1,0
60,85,7741,5,2
60,341,8387,1,0
315,341,9032,1,2
315,85,9677,1,0
168,96,20645,5,4
168,96,20967,2,0,B|141:139|176:184,1,80,0|8
247,171,21612,1,0
247,171,21935,2,0,B|347:171,2,80,0|0|8
470,171,23225,5,4
311,329,23870,1,8
152,170,24516,1,0
310,11,25161,1,8
310,11,25806,6,0,B|340:89|312:174,1,160,4|8
233,167,26774,1,0
233,167,27096,2,0,B|233:251,2,80,0|0|8
233,86,28064,1,0
233,86,28387,6,0,B|192:57|143:100,1,80,4|0
78,88,29032,1,8
78,167,29354,1,0
78,167,29516,1,8
78,167,29677,1,0
78,247,30000,1,0
157,247,30322,2,0,B|198:270|239:243,1,80,8|0
289,189,30967,6,0,B|336:162|385:204,1,80,4|0
421,246,31612,2,0,B|323:232|299:135,1,160,8|0
383,151,32580,1,0
352,77,32903,1,8
272,77,33225,1,0
191,77,33548,6,0,B|164:157|194:239,1,160,4|8
272,234,34516,1,0
272,234,34838,2,0,B|197:266|105:226,1,160,0|8
59,173,35806,1,0
59,173,36129,6,0,B|-1:233,2,80,4|0|8
115,116,37096,1,0
188,84,37419,1,0
225,71,37580,1,8
263,80,37741,1,0
333,118,38064,1,8
228,351,38709,5,2
228,351,40000,1,2
168,80,41290,6,0,B|80:80,1,80,4|0
167,159,41935,2,0,B|259:159,1,80,8|0
326,79,42580,1,0
405,158,42903,1,0
325,237,43225,1,8
245,157,43548,1,0
154,247,43870,5,4
63,156,44193,1,0
153,65,44516,1,8
245,157,44838,1,0
335,66,45161,1,0
335,66,45322,1,8
335,66,45483,1,0
425,156,45806,1,8
334,246,46129,1,0
334,246,46451,5,0
221,246,46774,2,0,B|137:246,1,80,0|8
61,166,47419,1,0
140,86,47741,1,0
140,86,47903,1,8
140,86,48064,1,0
219,165,48387,2,0,B|302:165,1,80,8|0
389,74,49032,6,0,B|302:74,1,80,4|0
180,74,49677,2,0,B|261:74,1,80,8|0
350,164,50322,2,0,B|261:164,1,80
141,164,50967,2,0,B|225:164,1,80,8|0
141,84,51612,6,0,B|180:59|230:93,1,80,4|0
329,84,52258,2,0,B|360:162|324:254,1,160,8|0
217,240,53225,2,0,B|217:327,2,80,0|8|0
126,149,54193,6,0,B|45:149,1,80,4|0
136,58,54838,1,8
226,148,55161,2,0,B|312:148,1,80
215,57,55806,1,0
124,147,56129,2,0,B|39:147,1,80,8|0
123,226,56774,5,4
123,226,57096,2,0,B|170:258|210:213,1,80,0|8
276,146,57741,1,0
355,225,58064,1,0
355,225,58225,1,8
355,225,58387,1,0
275,304,58709,1,8
275,48,59354,5,2
275,48,60645,1,2
94,228,61935,5,2
154,249,62258,1,0
215,231,62580,2,0,B|253:257|300:225,1,80,2|0
325,177,63225,1,2
309,149,63387,1,0
282,131,63548,1,0
226,99,63870,1,2
163,113,64193,1,0
105,140,64516,5,2
105,363,65161,1,0
328,363,65806,1,2
328,139,66451,1,0
222,67,67096,5,2
176,112,67419,1,0
221,157,67741,2,0,B|245:197|219:238,1,80,2|0
176,278,68387,1,2
176,278,68548,1,0
176,278,68709,1,0
130,232,69032,2,0,B|104:195|132:153,1,80,2|0
150,96,69677,5,2
373,96,70322,1,0
373,319,70967,1,2
149,319,71612,1,0
97,201,72258,5,2
97,201,72580,2,0,B|138:222|177:198,1,80,0|0
204,143,73225,1,0
158,97,73548,2,0,B|110:97,2,40,2|0|0
203,51,74193,1,0
203,51,74516,1,0
265,64,74838,5,2
445,244,75483,1,0
188,244,76129,1,2
443,244,76774,1,0
262,63,77419,6,0,B|9:63,1,240,2|0
22,191,78709,2,0,B|267:191,1,240,2|0
352,100,80000,6,0,B|440:100,3,80,4|0|8|0
303,100,81290,2,0,B|221:100,3,80,0|0|8|0
132,190,82580,5,4
132,190,82741,1,0
132,190,82903,1,0
222,280,83225,2,0,B|307:280,1,80
392,189,83870,1,0
392,189,84032,1,8
392,189,84193,2,0,B|308:189,1,80,0|8
221,98,84838,1,0
221,98,85161,5,4
119,199,85483,1,0
17,97,85806,1,8
119,199,86129,1,0
119,55,86451,2,0,B|119:148,1,80
119,279,87096,2,0,B|119:362,1,80,8|0
247,359,87741,6,0,B|247:276,1,80,4|0
247,150,88387,1,8
247,22,88709,2,0,B|334:22,1,80
327,150,89354,1,0
327,278,89677,2,0,B|327:360,1,80,8|0
327,213,90322,6,0,B|132:213,1,160,4|8
65,111,91290,1,0
166,9,91612,1,0
166,9,91774,1,8
166,9,91935,1,0
267,110,92258,1,8
165,211,92580,1,0
255,301,92903,6,0,B|338:301,1,80,4|0
206,301,93548,2,0,B|206:218,1,80,8|0
334,221,94193,2,0,B|423:221,1,80
285,221,94838,2,0,B|285:130,1,80,8|0
140,141,95483,5,4
241,39,95806,1,0
342,140,96129,1,8
96,291,96774,1,0
383,291,97419,1,8
241,40,98064,5,4
342,141,98387,1,0
240,242,98709,1,8
342,141,99032,1,0
342,284,99354,1,4
341,140,99677,1,0
442,241,100000,1,8
340,139,100322,1,0
441,37,100645,1,4
256,208,100967,12,0,103225
160,120,113548,5,2
220,98,113870,1,0
274,131,114193,2,0,B|302:166|274:208,1,80,2|0
218,234,114838,1,2
218,234,115161,2,0,B|193:276|223:314,1,80,0|2
278,333,115806,1,0
390,333,116129,5,2
390,221,116451,1,0
53,221,117419,2,0,B|53:311,2,80,2|0|2
53,108,118387,1,0
164,45,118709,5,4
254,135,119032,1,0
344,225,119354,1,8
434,315,119677,1,0
434,315,120000,1,0
344,225,120322,1,0
253,134,120645,1,8
162,43,120967,1,0
71,133,121290,5,4
326,133,121935,1,0
70,133,122580,1,0
325,133,123225,1,0
325,133,123870,5,2
271,97,124193,2,0,B|228:70|184:108,1,80,0|2
161,153,124838,1,0
136,212,125161,2,0,B|176:240|211:211,1,80,2|0
270,193,125806,1,2
270,193,126129,1,0
360,283,126451,5,4
450,192,126774,1,0
359,101,127096,1,8
270,193,127419,1,0
179,102,127741,1,0
179,102,127903,1,8
179,102,128064,1,0
88,192,128387,1,8
178,282,128709,1,0
268,191,129032,5,2
268,191,129354,2,0,B|354:191,1,80,0|2
412,191,130000,1,0
412,191,130322,2,0,B|438:237|407:275,1,80,2|0
348,266,130967,1,2
348,266,131290,1,0
257,175,131612,5,4
166,265,131935,1,0
75,174,132258,1,8
165,83,132580,1,0
75,174,132903,1,0
75,174,133064,1,8
75,174,133225,1,0
165,264,133548,1,8
255,173,133870,1,0
345,82,134193,5,2
405,102,134516,1,0
439,155,134838,2,0,B|462:196|433:235,1,80,2|0
379,259,135483,1,2
322,288,135806,1,0
259,274,136129,2,0,B|213:274|195:229,1,80,2|0
105,141,136774,6,0,B|186:141,1,80,4|0
313,141,137419,2,0,B|226:141,1,80,8|0
142,50,138064,2,0,B|56:50,1,80
190,50,138709,2,0,B|273:50,1,80,8|0
398,50,139354,6,0,B|486:50,2,80,4|0|8
307,140,140322,1,0
216,230,140645,1,0
125,320,140967,2,0,B|36:320,2,80,0|8|0
216,230,141935,6,0,B|397:230,1,160,4|8
120,230,143225,2,0,B|33:230,2,80,0|0|8
376,230,144516,6,0,B|466:230,2,80,4|0|8
127,167,145806,1,0
127,167,145967,1,8
127,167,146129,1,0
127,167,146451,1,8
375,105,147096,6,0,B|458:105,2,80,4|0|8
86,105,148387,1,0
187,206,148709,1,0
288,104,149032,1,8
389,205,149354,1,0
389,205,149677,1,4
176,96,160000,6,0,B|149:175|180:259,1,160,2|0
241,252,160967,2,0,B|241:336,2,80,0|2|0
241,187,161935,1,0
305,187,162258,1,0
305,187,162580,6,0,B|392:187,2,80,2|0|0
146,345,163870,1,2
0,186,164516,1,0
158,27,165161,5,2
158,123,166129,1,0
158,123,166451,2,0,B|250:123,1,80,2|0
238,123,167419,1,0
317,202,167741,5,4
237,281,168064,1,0
157,201,168387,1,8
237,281,168709,1,0
317,202,169032,1,0
317,202,169193,1,8
317,202,169354,1,0
237,122,169677,1,8
237,9,170000,1,0
109,9,170322,6,0,B|109:171,1,160,4|8
109,297,171290,2,0,B|279:297,1,160
359,206,172258,1,8
268,115,172580,1,0
177,205,172903,6,0,B|92:205,2,80,4|0|8
267,295,173870,1,0
357,204,174193,1,0
357,204,174354,1,8
357,204,174516,1,0
266,113,174838,1,8
266,113,175161,1,0
138,113,175483,5,4
47,203,175806,1,0
137,293,176129,1,8
264,293,176451,1,0
354,202,176774,1,0
354,202,176935,1,8
354,202,177096,1,0
263,111,177419,1,8
263,111,177741,1,0
134,111,178064,6,0,B|102:190|137:276,1,160,4|8
261,267,179032,1,0
388,267,179354,2,0,B|471:267,2,80,0|0|8
388,138,180322,1,0
259,138,180645,6,0,B|87:138,1,160,4|8
99,265,181612,1,0
227,265,181935,1,0
227,265,182096,1,8
227,265,182258,1,0
354,265,182580,2,0,B|441:265,1,80,8|0
434,136,183225,6,0,B|516:136,2,80,4|0|8
177,136,184516,1,0
432,136,185161,1,8
432,263,185806,6,0,B|239:263,1,160,4|0
144,263,187741,1,0
79,263,188064,1,0
79,134,188387,5,4
206,134,188709,2,0,B|291:134,2,80,0|8|0
79,134,189677,1,0
79,134,189838,1,8
79,134,190000,1,0
79,261,190322,2,0,B|164:261,1,80,8|0
303,261,190967,5,4
404,159,191290,1,0
302,57,191612,1,8
200,158,191935,1,0
98,56,192258,1,0
98,56,192419,1,8
98,56,192580,1,0
0,157,192903,1,8
98,258,193225,1,0
242,258,193548,6,0,B|242:345,2,80,4|0|8
242,113,194516,1,0
385,113,194838,2,0,B|477:113,2,80,0|0|8
242,113,195806,1,0
97,113,196129,6,0,B|68:191|98:276,1,160,4|8
239,269,197096,2,0,B|416:269,1,160
399,124,198064,1,8
254,124,198387,1,0
110,124,198709,5,4
110,268,199032,1,0
253,268,199354,2,0,B|425:268,1,160,8|0
413,123,200322,1,0
268,123,200645,1,8
124,123,200967,1,0
124,123,201290,6,0,B|92:200|126:284,1,160,4|8
225,177,202258,2,0,B|194:255|231:339,1,160
372,332,203225,1,8
372,332,203548,1,0
372,188,203870,6,0,B|465:188,2,80,4|0|8
83,188,205161,1,0
370,188,205806,1,8
83,188,206451,5,4
184,86,206774,1,0
327,86,207096,1,8
428,187,207419,1,0
326,288,207741,2,0,B|153:288,1,160,0|8
255,174,208709,1,0
199,205,209032,5,4
199,205,209354,2,0,B|114:205,1,80,0|8
73,159,210000,1,0
73,159,210322,2,0,B|154:159,1,80
198,113,210967,2,0,B|110:113,1,80,8|0
278,113,211612,5,4
391,226,211935,1,0
277,339,212258,1,8
164,226,212580,1,0
278,113,212903,1,0
278,113,213064,1,8
278,113,213225,1,0
278,273,213548,2,0,B|278:189,1,80,8|0
117,193,214193,5,4
277,193,214516,1,0
436,193,214838,2,0,B|436:23,1,160,8|0
436,193,215806,1,0
322,79,216129,1,8
209,191,216451,1,0
95,77,216774,5,4
321,303,217419,1,8
209,191,217741,2,0,L|269:131,1,80
209,191,218387,2,0,L|151:249,2,80,0|8|0
209,191,219354,6,0,L|330:70,1,160,4|8
435,191,220322,1,0
321,304,220645,1,0
321,304,220806,1,8
321,304,220967,1,0
160,304,221290,2,0,L|70:304,1,80,8|0
240,304,221935,5,4
240,304,222096,1,8
240,304,222258,1,0
127,191,222580,1,8
240,77,222903,1,0
352,189,223225,1,0
352,189,223387,1,8
352,189,223548,1,0
240,77,223870,2,0,L|240:158,1,80,8|0
126,270,224516,6,0,L|37:270,2,80,4|0|8
445,270,225806,1,0
218,43,226451,1,8
445,270,227096,5,4
331,156,227419,1,0
218,268,227741,1,8
104,154,228064,1,0
217,40,228387,1,0
217,40,228548,1,8
217,40,228709,1,0
330,153,229032,1,8
217,265,229354,1,0
103,151,229677,5,4
256,208,230000,12,0,232258
144,144,234838,5,2
114,218,235161,1,0
142,292,235483,2,0,B|222:323|306:289,1,160,0|2
373,150,236774,1,0
259,36,237419,5,2
55,191,238064,1,0
257,347,238709,1,2
460,192,239354,1,0
314,125,240000,5,2
332,202,240322,1,0
275,258,240645,2,0,B|197:294|117:260,1,160,0|2
35,124,241935,1,0
114,124,242580,6,0,B|215:124,2,80,2|0|2
114,124,244516,1,0
173,272,245161,5,2
252,272,245483,1,0
252,272,245806,2,0,B|424:272,2,160,0|2|0
432,91,247741,5,2
175,91,248387,1,0
175,346,249032,1,2
430,346,249677,1,0
430,186,250322,6,0,B|516:186,2,80,2|0|0
316,72,251612,2,0,B|144:72,1,160,2|0
99,128,252903,6,0,B|2:128,2,80,2|2|2
