osu file format v6

[General]
AudioFilename: Haru - Dango Daikazoku (Instrumental).mp3
AudioLeadIn: 1985
PreviewTime: 82419
Countdown: 0
SampleSet: Soft
StackLeniency: 0.7
Mode: 0
LetterboxInBreaks: 0

[Editor]
Bookmarks: 20645,41290,61935,82580,103225,118709,149677,190967,211612,232258
DistanceSpacing: 0.800000011920929
BeatDivisor: 4
GridSize: 8

[Metadata]
Title:Dango Daikazoku (Instrumental)
Artist:Haru
Creator:hutka
Version:Easy
Source:Clannad
Tags:Techno Instrumental Viotex bmin11

[Difficulty]
HPDrainRate:2
CircleSize:4
OverallDifficulty:2
SliderMultiplier:1
SliderTickRate:1

[Events]
//Background and Video events
0,0,"Back Ground.jpg"
//Break Periods
2,40200,50052
2,62135,70698
//Storyboard Layer 0 (Background)
//Storyboard Layer 1 (Fail)
//Storyboard Layer 2 (Pass)
//Storyboard Layer 3 (Foreground)
//Storyboard Sound Samples
//Background Colour Transformations
3,100,163,162,255

[TimingPoints]
0,645.161290322581,4,2,1,70,1,0
20483,-100,4,1,0,70,0,0
38548,-100,4,2,1,70,0,0
51451,-100,4,1,0,70,0,0
61774,-100,4,2,1,70,0,0
79838,-100,4,1,0,70,0,0
82419,-100,4,1,0,70,0,0
82580,-100,4,1,0,70,0,1
101129,-100,4,2,1,30,0,1
103064,-100,4,2,1,30,0,0

[Colours]
Combo1 : 62,158,255
Combo2 : 155,255,121
Combo3 : 255,255,255

[HitObjects]
256,192,0,1,2
176,192,645,1,0
176,112,1290,2,0,C|68:112,1,100,2|2
76,191,2580,5,2
76,270,3225,1,0
155,270,3870,2,0,C|286:270,1,100,2|2
335,270,5161,6,0,C|442:270,2,100,2|0|2
335,190,7096,1,0
255,190,7741,6,0,C|146:190,2,100,2|0|2
255,109,9677,1,0
175,109,10322,6,0,B|128:78|69:119,1,100,2|0
80,191,11612,1,2
160,191,12258,1,2
239,191,12903,6,0,B|290:223|337:187,1,100,2|0
332,110,14193,1,2
252,110,14838,1,2
172,110,15483,5,2
172,190,16129,2,0,B|172:293,1,100,2|2
251,290,17419,1,0
330,290,18064,5,2
330,210,18709,2,0,B|329:98,1,100,2|2
329,29,20000,1,0
249,29,20645,6,0,B|196:29,2,50,4|0|8
249,108,21935,1,0
249,108,22580,1,8
249,187,23225,6,0,B|146:187,1,100,4|8
149,267,24516,2,0,B|258:267,1,100,0|8
328,267,25806,6,0,B|392:267,2,50,4|0|8
328,187,27096,2,0,B|438:187,1,100,0|8
428,106,28387,5,4
348,106,29032,1,0
268,106,29677,1,0
268,265,30967,6,0,B|330:265,2,50,4|0|0
187,265,32258,1,0
187,265,32903,1,0
107,265,33548,6,0,B|107:154,1,100,4|0
50,221,34838,2,0,B|50:112,1,100
50,40,36129,6,0,B|-5:40,2,50,4|0|0
129,40,37419,1,0
208,40,38064,1,0
208,119,38709,5,2
208,119,40000,1,2
144,96,51612,5,4
304,96,52903,1,0
304,175,53548,1,0
224,175,54193,5,4
383,175,55483,1,0
383,255,56129,1,0
303,255,56774,5,4
303,255,57419,2,0,B|185:255,1,100
123,255,58709,1,0
123,175,59354,5,4
203,175,60000,1,0
282,175,60645,1,0
361,175,61290,1,0
440,175,61935,5,2
352,152,72258,6,0,B|408:152,3,50,2|0|2|0
402,231,73870,2,0,B|462:231,3,50,0|2|0|2
452,311,75483,5,0
371,311,76129,1,2
291,311,76774,1,0
291,231,77419,5,2
170,231,78387,2,0,B|101:231,1,50,2|0
120,110,79677,1,2
160,110,80000,5,0
239,110,80645,1,0
318,110,81290,2,0,B|437:110,1,100,0|0
418,189,82580,5,4
418,268,83225,2,0,C|473:268,2,50,8|0|0
337,268,84516,1,8
257,268,85161,5,4
177,268,85806,2,0,C|177:158,1,100,8|0
177,88,87096,1,8
256,88,87741,5,4
336,88,88387,2,0,B|388:57|444:100,2,100,8|0|8
336,167,90322,5,4
336,246,90967,1,8
256,246,91612,2,0,B|139:246,1,100,0|8
156,165,92903,5,4
275,165,93870,1,0
355,165,94516,2,0,B|413:165,1,50
405,244,95483,6,0,B|462:244,2,50,4|0|8
324,244,96774,1,0
244,244,97419,1,8
244,244,98064,5,4
84,244,99354,1,0
84,163,100000,2,0,B|142:163,1,50
256,208,100967,12,0,103225
