osu file format v5

[General]
AudioFilename: Haru - Saigetsu (Instrumental).mp3
AudioLeadIn: 0
PreviewTime: -1
Countdown: 0
SampleSet: Normal
StackLeniency: 0.3
Mode: 0
LetterboxInBreaks: 1
EditorDistanceSpacing: 1

[Metadata]
Title:Broken Moon (Instrumental)
Artist:Haru
Creator:Shinxyn
Version:Normal
Source:Viotex Instrumentals
Tags:Techno Touhou Instrumental Viotex Nexy

[Difficulty]
HPDrainRate:5
CircleSize:4
OverallDifficulty:5
SliderMultiplier:1.4
SliderTickRate:0.5

[Events]
//Background and Video events
0,0,"2rqkack.png"
//Break Periods
2,119904,127118
//Storyboard Layer 0 (Background)
//Storyboard Layer 1 (Failing)
//Storyboard Layer 2 (Passing)
//Storyboard Layer 3 (Foreground)
//Storyboard Sound Samples
//Background Colour Transformations
3,100,163,162,255

[TimingPoints]
20199,594.059405940594,4,2,1,30,1,0
40249,-100,4,2,1,40,0,0
61932,-100,4,1,1,50,0,0
81833,-100,4,2,1,50,0,0
84506,-100,4,2,1,70,0,0
84655,-100,4,2,1,91,0,0
84952,-100,4,1,1,50,0,0
85100,-100,4,1,1,60,0,0
100843,-100,4,2,1,50,0,0
103219,-100,4,1,1,50,0,0
128170,-100,4,1,1,60,0,0
136975,-100,4,2,1,50,0,0
160323,-100,4,2,1,90,0,0
197675,-100,4,1,1,69,0,0
217279,-100,4,2,1,30,0,0
233912,-200,4,2,1,30,0,0
235249,-200,4,2,1,0,0,0
236734,-200,4,2,1,30,0,0

[Colours]
Combo1 : 0,107,215
Combo2 : 255,0,0
Combo3 : 255,255,255
Combo4 : 255,0,128

[HitObjects]
152,320,20199,2,0,B|96:264,1,70
160,224,20794,1,0
216,176,21091,1,2
272,128,21388,6,0,B|328:184,1,70
376,128,21982,1,0
432,80,22279,1,2
376,128,22576,6,0,B|376:200,3,70,0|0|0|2
376,264,23764,2,0,B|376:336,3,70,0|0|0|2
376,264,24952,6,0,B|440:200,1,70
368,168,25546,1,0
312,120,25843,1,2
256,72,26140,6,0,B|200:128,1,70
152,168,26734,1,0
96,216,27031,1,2
96,216,27328,5,0
152,168,27625,1,0
208,120,27922,1,0
256,72,28219,1,2
304,120,28516,5,0
360,168,28813,1,0
416,216,29110,1,0
416,216,29407,2,0,B|416:304,1,70,2|0
346,286,30001,6,0,B|274:286,1,70
202,286,30596,2,0,B|122:286,1,70,2|0
202,286,31190,6,0,B|274:286,1,70
346,286,31784,2,0,B|418:286|418:286|410:286,1,70,2|0
488,288,32378,5,0
488,216,32675,1,0
488,144,32972,1,2
488,72,33269,2,0,B|408:72,3,70,0|0|0|2
344,72,34457,6,0,B|288:128,1,70,0|2
216,128,35051,2,0,B|216:200|216:200|216:192,1,70,0|2
296,200,35645,2,0,B|352:256|352:256|352:256,1,70,0|2
416,248,36239,2,0,B|416:320,1,70,0|2
344,320,36833,2,0,B|272:320,3,70,2|2|2|2
192,320,38021,5,4
96,192,38615,1,4
192,64,39209,1,4
360,264,40397,6,0,B|360:168,1,70
288,192,40992,2,0,B|216:192,1,70
144,192,41586,1,0
72,192,41883,1,0
144,192,42180,1,0
72,192,42477,1,2
72,120,42774,6,0,B|160:120,2,70
72,192,43665,1,2
72,264,43962,2,0,B|152:264,2,70
72,336,44853,1,2
144,336,45150,2,0,B|224:336,1,70
280,336,45744,5,0
352,336,46041,1,2
424,336,46338,1,0
424,264,46635,2,0,B|520:264,2,70,0|0|2
424,192,47526,2,0,B|504:192,2,70
424,120,48417,1,2
360,96,48714,6,0,B|296:32,1,70
264,96,49308,1,0
192,96,49605,1,2
120,96,49902,2,0,B|56:160,1,70
120,192,50497,5,2
120,264,50794,1,2
176,224,51091,6,0,B|256:224,1,70
248,296,51685,2,0,B|168:296,1,70,0|2
248,296,52279,1,0
247,226,52576,1,0
248,296,52873,1,0
320,296,53170,1,2
392,296,53467,5,0
440,248,53764,1,0
408,184,54061,1,0
376,120,54358,1,2
344,56,54655,2,0,B|240:56,3,70
256,120,55843,5,2
291,263,56437,2,0,B|219:263,2,70,2|2|2
221,141,57625,2,0,B|301:141,2,70,2|2|2
120,232,58813,1,0
256,232,59407,1,0
392,232,60001,1,0
256,192,60596,12,0,61784
256,156,62378,6,0,B|256:228,2,70,0|0|0
368,304,63566,1,0
368,304,63863,1,0
368,304,64160,5,0
256,226,64754,2,0,B|256:156,1,70,10|2
184,136,65348,1,0
224,80,65645,1,0
288,80,65942,1,0
328,136,66239,1,0
256,156,66536,2,2,B|256:226,1,70,2|2
328,224,67130,6,0,B|416:224,1,70,8|0
400,296,67724,2,0,B|328:296,1,70
256,296,68318,2,0,B|256:216|256:216|272:264,1,70,0|0
256,152,68912,1,0
136,72,69506,5,8
136,144,69803,1,0
136,72,70100,1,0
136,144,70397,1,0
192,109,70695,2,0,B|272:109,2,70,2|2|2
80,192,71883,6,0,B|136:248,1,70,8|0
176,288,72477,1,0
256,176,73071,5,0
256,104,73368,1,0
256,32,73665,1,0
336,144,74259,6,0,B|400:208,1,70,8|0
432,240,74853,1,0
293,274,75447,6,0,B|213:274,2,70,2|2|2
344,144,76635,5,8
296,96,76932,1,0
248,48,77229,1,0
152,168,77823,1,0
200,216,78120,1,0
248,264,78417,1,0
200,216,78714,1,0
152,168,79011,1,8
200,216,79308,2,2,B|256:160,1,70,2|2
344,88,80199,5,4
432,192,80794,1,4
344,296,81388,1,4
208,256,81982,5,4
344,256,82576,2,0,B|272:256,2,70
344,256,83764,2,0,B|344:160,1,70
344,112,84358,6,0,B|344:48,4,35
344,112,85249,1,0
272,112,85546,1,8
272,184,85843,1,0
272,256,86140,2,0,B|272:304,2,35,8|8|0
200,256,86734,1,0
56,256,87328,6,0,B|136:200|48:128,2,140
56,328,88813,1,0
128,328,89110,6,0,L|168:328|232:328,1,70
264,328,89704,2,0,L|344:328,2,70
264,256,90596,2,0,L|264:200|264:160,1,70
264,112,91190,1,0
192,112,91487,5,4
472,112,92675,1,4
192,112,93863,1,4
120,112,94160,6,0,B|120:208,2,70
192,112,95051,1,0
120,248,95645,6,0,B|208:248,2,70
256,248,96833,2,0,B|336:248,2,70
256,176,97724,2,0,B|176:176,2,70
256,176,98615,1,0
256,312,99209,1,0
256,176,99803,1,0
256,32,100397,1,0
376,104,100992,6,0,B|376:184,1,70,0|2
304,176,101586,2,0,B|224:176,1,70,2|2
160,176,102180,2,0,B|160:248,1,70,2|2
256,344,103071,5,0
256,344,103368,2,0,B|312:288,1,70
352,240,103962,2,0,B|296:184,1,70
256,136,104556,1,0
192,256,105150,5,8
128,200,105447,2,0,B|72:144,1,70,0|0
192,256,106041,1,0
256,200,106338,2,0,B|312:144,1,70,0|0
192,256,106932,1,0
136,320,107229,2,0,B|80:376,1,70,0|8
192,256,107823,1,0
256,312,108120,2,0,B|312:368|312:368|296:352,1,70,0|0
192,256,108714,6,0,B|192:200|192:200|192:208,4,35,0|0|0|0|0
336,192,109902,6,0,B|408:192,2,70,8|0|0
176,192,111091,2,0,B|104:192,2,70
320,264,112279,5,8
320,264,112576,1,0
256,224,112873,2,0,B|256:152,1,70
192,120,113467,5,8
192,120,113764,1,0
256,154,114061,2,0,B|256:224,1,70
200,264,114655,6,2,B|259:350|336:240,1,140,8|2
311,127,115843,6,2,B|256:42|198:132,2,140,0|2|10
256,168,117328,1,0
256,240,117625,1,0
256,192,117922,12,4,119704
256,0,128318,6,0,B|256:88,1,70
256,136,128912,2,0,B|256:240,1,70
256,280,129506,5,0
256,280,129803,1,0
256,280,130100,1,8
256,136,130695,1,0
256,136,130992,1,0
256,136,131289,1,8
160,136,131883,5,0
88,136,132180,1,0
125,192,132477,2,8,B|125:272,1,70,8|0
125,332,133071,2,8,B|125:380,2,35,8|8|0
125,262,133665,2,0,L|125:102,2,140,8|0|8
264,264,135447,5,8
336,264,135744,2,0,L|336:343,1,70,0|8
336,264,136338,2,0,L|336:192,1,70,0|4
264,192,136932,5,2
192,192,137229,1,0
120,192,137526,1,2
192,192,137823,1,2
48,192,138417,1,4
256,192,139011,12,0,140199
312,248,140496,5,0
360,192,140794,1,0
312,136,141091,1,2
264,192,141388,1,0
120,192,141982,2,0,B|200:192,2,70,0|2|0
192,304,143170,5,0
192,304,143467,1,2
192,304,143764,2,0,B|256:352|328:304,2,140,2|2|2
128,176,145546,6,0,B|184:120,1,70,2|2
224,176,146140,1,4
352,128,146734,2,0,B|408:184,1,70,2|2
344,216,147328,1,4
256,328,147922,5,0
209,275,148219,1,2
257,222,148516,1,0
304,168,148813,1,2
256,112,149110,2,0,B|256:64|256:64|256:56,4,35,2|2|2|2|2
384,40,150298,6,0,B|464:56|456:144,1,140,0|2
128,344,151487,6,0,B|48:328|56:240,1,140,0|2
128,40,152675,6,0,B|48:56|56:144,1,140,0|2
384,344,153863,6,0,B|464:328|456:240,1,140,2|2
328,192,155051,5,2
256,192,155348,1,2
184,192,155645,1,2
184,192,156239,5,0
256,192,156536,1,0
328,192,156833,1,0
256,192,157130,2,0,B|256:272,1,70,2|0
256,192,157724,2,0,B|256:120,1,70,2|2
256,192,159209,6,0,B|216:192,4,35
256,264,160100,2,0,L|176:264,1,70,0|2
88,208,160992,6,0,L|72:176|104:128,1,70,0|8
152,176,161586,2,2,B|224:176,1,70
288,176,162180,1,8
360,176,162477,5,0
288,176,162774,1,0
360,176,163071,1,0
432,176,163368,1,8
432,248,163665,2,8,B|280:248,1,140,8|0
292,248,164556,1,0
292,248,164853,1,2
224,248,165150,5,0
80,248,165744,1,0
200,312,166338,1,0
224,248,166635,2,0,L|296:248,1,70,2|8
368,264,167229,1,0
344,192,167526,5,0
256,88,168120,1,0
160,192,168714,1,0
160,192,169308,5,8
256,296,169902,1,0
344,192,170496,1,10
256,80,171091,6,0,B|256:16,2,35,8|8|0
256,152,171685,2,8,B|256:200,2,35,8|8|0
184,152,172279,5,0
184,152,172576,1,2
256,152,172873,1,8
256,152,173170,1,2
328,152,173467,1,0
328,152,173764,1,0
400,152,174061,1,8
400,152,174358,1,2
472,152,174655,1,2
400,272,175249,5,8
400,272,175546,1,2
328,272,175843,1,0
256,272,176140,2,0,L|216:272,4,35,0|0|8|0|0
328,272,177031,1,2
328,200,177328,5,0
256,200,177625,1,8
256,64,178219,1,2
256,200,178813,1,10
184,200,179110,1,10
256,200,179407,5,0
416,328,180298,2,0,B|456:240,1,70,2|2
320,328,181190,1,10
176,328,181784,6,0,B|136:272,4,35,0|0|0|0|2
320,328,182972,1,10
176,328,183566,6,0,B|120:256,1,70,2|2
184,224,184160,2,0,B|128:152|128:152,2,70,2|0|4
256,104,185348,5,0
320,128,185645,1,2
368,176,185942,1,0
408,232,186239,1,2
432,296,186536,1,0
360,296,186833,2,0,B|264:296,1,70,2|2
208,296,187427,5,0
288,296,187724,1,0
248,224,188021,1,0
288,296,188318,1,0
248,368,188615,1,0
288,296,188912,1,4
120,112,190100,6,0,B|168:112,3,35,8|8|0|8
200,112,190695,2,0,B|328:112,1,105,0|8
360,112,191289,2,0,B|408:112,3,35,8|8|8|8
360,112,191883,2,0,B|360:224,1,105,2|0
256,296,192774,5,2
184,272,193071,1,2
128,224,193368,1,2
88,160,193665,1,2
336,24,194853,1,2
192,24,195447,6,0,B|192:72,3,35,8|8|0|8
192,96,196041,2,0,B|192:216,1,105,8|8
192,240,196635,2,0,B|192:280,2,35,8|0|8
264,240,197229,2,0,B|264:328,1,70,8|4
192,312,197823,5,8
120,312,198120,1,0
48,312,198417,1,0
96,184,199011,5,8
144,136,199308,1,0
208,136,199605,1,0
296,24,200199,5,8
344,72,200496,1,0
392,120,200794,1,0
288,216,201388,6,0,L|248:200|232:152,2,70
168,288,202576,1,0
216,240,202873,1,0
168,288,203170,1,8
168,216,203467,6,0,B|168:160,4,35
96,216,204358,6,0,B|96:136,2,70
96,72,205546,5,0
168,72,205843,1,0
240,72,206140,1,0
344,160,206734,6,0,L|288:160,2,35,0|8|0
344,232,207328,2,0,L|392:232,2,35,0|8|0
272,232,207922,2,0,L|272:144,1,70,0|0
200,160,208516,1,8
144,200,208813,1,8
88,160,209110,1,0
200,240,209704,5,0
336,240,210298,1,8
408,240,210596,1,8
408,168,210893,2,0,B|464:168,4,35,0|0|8|0|8
408,96,211784,1,0
344,56,212081,5,0
344,56,212229,1,8
344,56,212378,1,0
272,56,212675,2,0,L|272:144,1,70
272,192,213269,2,0,L|272:288,1,70,8|8
272,328,213863,2,0,L|176:328,1,70,8|8
200,256,214457,5,0
128,256,214754,1,0
200,256,215051,1,0
200,112,215645,1,0
312,192,216239,6,0,B|312:120,1,70
312,192,216833,1,8
312,264,217130,1,8
312,192,217427,6,0,B|240:192,1,70
168,192,218021,1,2
96,192,218318,1,2
168,192,218615,6,0,B|168:112,1,70
240,120,219209,1,2
312,120,219506,1,2
240,120,219803,6,0,B|240:192,1,70
312,192,220397,1,2
384,192,220695,1,2
312,192,220992,6,0,B|312:264,3,70
240,264,222180,6,0,B|176:320,1,70
136,256,222774,2,0,B|192:208,1,70,2|2
240,160,223368,6,0,B|304:104,1,70
348,167,223962,2,0,B|284:223,1,70,2|2
348,167,224556,5,0
296,120,224853,1,0
240,160,225150,1,2
184,120,225447,1,2
128,160,225744,6,0,B|128:240,3,70
128,296,226932,6,0,B|216:296|216:296|208:296,1,70
264,296,227526,2,0,B|336:296,1,70,2|2
402,296,228120,6,0,B|330:296,1,70
264,296,228714,2,0,B|176:296,1,70,2|0
120,296,229308,6,0,B|120:208|120:208|120:216,3,70
120,152,230496,5,0
168,104,230794,1,2
232,80,231091,1,0
240,152,231388,1,2
184,192,231685,5,0
240,152,231982,1,2
240,152,232279,1,0
304,112,232576,1,2
304,112,232873,6,0,B|248:56,1,70,0|2
192,96,233467,2,0,B|112:160|112:160|120:168,1,70,0|2
196,192,234061,6,0,B|260:264|332:176,2,140,4|0|0
